osu file format v14

[General]
AudioFilename: audio.mp3
AudioLeadIn: 0
PreviewTime: 48085
Countdown: 0
SampleSet: Soft
StackLeniency: 0.7
Mode: 0
LetterboxInBreaks: 0
WidescreenStoryboard: 1

[Editor]
DistanceSpacing: 1
BeatDivisor: 4
GridSize: 8
TimelineZoom: 2.6

[Metadata]
Title:Kaikai Kitan (TV Size)
TitleUnicode:廻廻奇譚 (TV Size)
Artist:Eve
ArtistUnicode:Eve
Creator:banger-shayne
Version:Normal
Source:呪術廻戦
Tags:jujutsu kaisen sorcery fight op opening japanese rock j-rock jrock gresiu worstpolackeu wenect hanabyte kaikaikitan utaite j-pop jpop pop
BeatmapID:3572143
BeatmapSetID:1690933

[Difficulty]
HPDrainRate:3
CircleSize:3
OverallDifficulty:4
ApproachRate:5
SliderMultiplier:1
SliderTickRate:1

[Events]
//Background and Video events
Video,-520,"opening.mp4"
0,0,"bg.jpg",0,0
//Break Periods
//Storyboard Layer 0 (Background)
//Storyboard Layer 1 (Fail)
//Storyboard Layer 2 (Pass)
//Storyboard Layer 3 (Foreground)
//Storyboard Layer 4 (Overlay)
//Storyboard Sound Samples

[TimingPoints]
2275,324.324324324324,4,2,1,90,1,0
3250,-100,4,2,2,90,0,0
3491,-100,4,2,2,5,0,0
3572,-100,4,2,2,90,0,0
3737,-100,4,2,3,90,0,0
4302,-100,4,2,3,5,0,0
4464,-100,4,2,3,90,0,0
4545,-100,4,2,3,5,0,0
4707,-100,4,2,3,90,0,0
4788,-100,4,2,3,5,0,0
5518,324.324324324324,4,2,3,90,1,0
5521,-100,4,2,2,90,0,0
5761,-100,4,2,2,5,0,0
5842,-100,4,2,2,90,0,0
7058,-100,4,2,2,5,0,0
7139,-100,4,2,2,90,0,0
8193,-100,4,2,2,5,0,0
8274,-100,4,2,2,90,0,0
9490,-100,4,2,2,5,0,0
9572,-100,4,2,2,90,0,0
10707,-100,4,2,4,90,0,0
10872,-100,4,2,2,90,0,0
10950,-100,4,2,2,5,0,0
11031,-100,4,2,2,90,0,0
12247,-100,4,2,2,5,0,0
12328,-100,4,2,2,90,0,0
13382,-100,4,2,2,5,0,0
13463,-100,4,2,2,90,0,0
14439,-100,4,2,1,90,0,0
14680,-100,4,2,1,5,0,0
14761,-100,4,2,1,90,0,0
15899,-100,4,2,3,90,0,0
17680,-111.111111111111,4,2,3,5,0,0
17842,324.324324324324,4,2,3,60,1,0
17842,-111.111111111111,4,2,1,60,0,0
18733,-111.111111111111,4,2,1,5,0,0
18814,-111.111111111111,4,2,1,60,0,0
19220,-111.111111111111,4,2,1,5,0,0
19301,-111.111111111111,4,2,1,60,0,0
23598,-111.111111111111,4,2,1,5,0,0
23679,-111.111111111111,4,2,1,60,0,0
24085,-111.111111111111,4,2,1,5,0,0
24166,-111.111111111111,4,2,1,60,0,0
26760,-100,4,2,1,80,0,0
26763,-100,4,2,2,80,0,0
28223,-100,4,2,4,80,0,0
28953,-100,4,2,4,5,0,0
29031,-100,4,2,4,80,0,0
30250,-100,4,2,4,5,0,0
30328,-100,4,2,4,80,0,0
30412,-100,4,2,4,5,0,0
30490,-100,4,2,4,80,0,0
31547,-100,4,2,4,5,0,0
31625,-100,4,2,4,80,0,0
31709,-100,4,2,4,5,0,0
31787,-100,4,2,4,80,0,0
34628,-100,4,2,4,5,0,0
34706,-100,4,2,4,80,0,0
36088,-100,4,2,4,5,0,0
36166,-100,4,2,4,80,0,0
36736,-100,4,2,4,5,0,0
36814,-100,4,2,4,80,0,0
36899,-100,4,2,4,5,0,0
36977,-100,4,2,4,80,0,0
37628,-100,4,2,2,80,0,0
37709,-100,4,2,2,5,0,0
37787,-100,4,2,2,80,0,0
38196,-100,4,2,2,5,0,0
38274,-100,4,2,2,80,0,0
38358,-100,4,2,2,5,0,0
38436,-100,4,2,2,80,0,0
38439,-100,4,2,1,80,0,0
43790,-100,4,2,3,80,0,0
46382,-100,4,2,3,90,0,0
46385,-100,4,2,1,90,0,0
46872,-100,4,2,2,90,0,0
47358,-100,4,2,3,90,0,0
48247,-100,4,2,3,5,0,0
48328,-100,4,2,3,90,0,0
48409,-100,4,2,3,5,0,0
48490,-100,4,2,3,90,0,0
48571,-100,4,2,3,5,0,0
48652,-100,4,2,3,90,0,0
48814,-90.9090909090909,4,2,3,100,0,1
48817,-90.9090909090909,4,2,2,100,0,1
49058,-90.9090909090909,4,2,2,5,0,1
49139,-90.9090909090909,4,2,2,100,0,1
50355,-90.9090909090909,4,2,2,5,0,1
50436,-90.9090909090909,4,2,2,100,0,1
51652,-90.9090909090909,4,2,2,5,0,1
51733,-90.9090909090909,4,2,2,100,0,1
52950,-90.9090909090909,4,2,2,5,0,1
53031,-90.9090909090909,4,2,2,100,0,1
54169,-90.9090909090909,4,2,4,100,0,1
54331,-90.9090909090909,4,2,2,100,0,1
55544,-90.9090909090909,4,2,2,5,0,1
55625,-90.9090909090909,4,2,2,100,0,1
57331,-90.9090909090909,4,2,2,5,0,1
57409,-90.9090909090909,4,2,2,100,0,1
57899,-90.9090909090909,4,2,1,100,0,1
58139,-90.9090909090909,4,2,1,5,0,1
58220,-90.9090909090909,4,2,1,100,0,1
59196,-90.9090909090909,4,2,2,100,0,1
59436,-90.9090909090909,4,2,2,5,0,1
59517,-90.9090909090909,4,2,2,100,0,1
60733,-90.9090909090909,4,2,2,5,0,1
60814,-90.9090909090909,4,2,2,100,0,1
61790,-90.9090909090909,4,2,1,100,0,1
62031,-90.9090909090909,4,2,1,5,0,1
62112,-90.9090909090909,4,2,1,100,0,1
63250,-90.9090909090909,4,2,2,100,0,1
64385,-90.9090909090909,4,2,4,100,0,1
64547,-90.9090909090909,4,2,2,100,0,1
64625,-90.9090909090909,4,2,2,5,0,1
64706,-90.9090909090909,4,2,2,100,0,1
67142,-90.9090909090909,4,2,1,100,0,1
68277,-90.9090909090909,4,2,2,100,0,1
68517,-90.9090909090909,4,2,2,5,0,1
68598,-90.9090909090909,4,2,2,100,0,1
69733,-100,4,2,2,90,0,0
69736,-100,4,2,4,90,0,0
69899,-100,4,2,1,90,0,0
69977,-100,4,2,1,5,0,0
70058,-100,4,2,1,90,0,0
71196,-100,4,2,2,90,0,0
72331,-100,4,2,1,90,0,0
72571,-100,4,2,1,5,0,0
72652,-100,4,2,1,90,0,0
73466,-100,4,2,2,90,0,0
73706,-100,4,2,2,5,0,0
73787,-100,4,2,2,90,0,0
74601,-100,4,2,1,90,0,0
74926,-100,4,2,2,90,0,0
75412,-100,4,2,1,90,0,0
75899,-100,4,2,2,90,0,0
77358,-100,4,2,3,90,0,0
79953,-100,4,2,2,90,0,0
81652,-100,4,2,2,5,0,0
81733,-100,4,2,2,90,0,0
82787,-100,4,2,2,5,0,0
82869,-100,4,2,2,90,0,0
83844,-100,4,2,1,90,0,0
84085,-100,4,2,1,5,0,0
84166,-100,4,2,1,90,0,0
85142,-100,4,2,3,90,0,0
87247,-100,4,2,3,30,0,0

[Colours]
Combo1 : 252,88,88
Combo2 : 222,172,80

[HitObjects]
507,354,5518,6,1,P|450:350|390:341,1,100,4|10,3:1|1:2,0:0:0:0:
362,339,6004,1,2,0:0:0:0:
362,339,6166,2,0,P|364:306|369:272,1,50,0|2,3:0|3:2,0:0:0:0:
375,189,6653,2,1,P|319:178|261:198,1,100,2|2,3:2|3:2,0:0:0:0:
186,220,7301,1,2,0:0:0:0:
186,220,7463,2,0,P|175:164|195:106,1,100,2|8,3:2|1:2,0:0:0:0:
205,77,7950,6,1,P|262:73|322:64,1,100,2|2,3:2|3:2,0:0:0:0:
354,61,8436,1,10,1:2:0:0:
452,44,8761,2,0,P|448:101|439:161,1,100,2|10,3:2|1:2,0:0:0:0:
434,192,9247,2,1,P|378:203|320:183,1,100,2|2,3:2|3:2,0:0:0:0:
291,171,9734,1,10,1:2:0:0:
194,145,10058,2,0,P|192:178|187:212,1,50,14|2,3:2|1:2,0:0:0:0:
186,244,10382,2,1,P|183:273|179:304,1,50,12|2,3:0|1:2,0:0:0:0:
175,343,10707,6,1,P|118:339|58:330,1,100,4|10,3:1|1:2,0:0:0:0:
30,327,11193,1,2,0:0:0:0:
30,327,11355,2,0,P|32:297|36:266,1,50,0|2,3:0|3:2,0:0:0:0:
47,177,11842,2,1,P|104:166|156:191,1,100,2|2,3:2|3:2,0:0:0:0:
233,232,12490,1,2,0:0:0:0:
233,232,12652,2,0,P|244:176|224:118,1,100,2|8,3:2|1:2,0:0:0:0:
206,93,13139,6,1,P|149:89|89:80,1,100,2|2,3:2|3:2,0:0:0:0:
56,77,13626,1,10,1:2:0:0:
94,169,13950,1,10,1:2:0:0:
38,253,14274,1,10,1:2:0:0:
38,253,14436,2,1,P|94:264|152:244,1,100,6|10,3:2|1:2,0:0:0:0:
180,233,14923,1,10,1:2:0:0:
271,191,15247,2,0,P|327:180|385:200,1,100,2|8,1:2|3:0,0:0:0:0:
455,238,15896,5,4,3:1:0:0:
494,23,17842,6,0,L|389:30,1,89.9999972534181,2|2,3:2|3:2,0:0:0:0:
347,98,18490,2,0,L|242:91,1,89.9999972534181,2|2,3:2|3:2,0:0:0:0:
213,79,18977,2,1,P|203:128|220:179,1,89.9999972534181,2|2,0:0|0:0,0:0:0:0:
237,203,19463,1,2,3:2:0:0:
303,263,19787,2,1,P|312:312|295:363,1,89.9999972534181,2|2,3:2|3:2,0:0:0:0:
211,350,20436,6,0,L|104:343,1,89.9999972534181,2|2,3:2|3:2,0:0:0:0:
81,263,21085,2,0,L|187:256,1,89.9999972534181,2|2,3:2|3:2,0:0:0:0:
211,238,21571,2,1,P|220:188|203:137,1,89.9999972534181,2|2,0:0|0:0,0:0:0:0:
187,111,22058,1,2,3:2:0:0:
253,50,22382,2,0,L|358:57,1,89.9999972534181,2|2,3:2|3:2,0:0:0:0:
418,104,23031,6,1,P|427:153|410:204,1,89.9999972534181,2|2,3:2|3:2,0:0:0:0:
365,265,23679,2,1,P|315:274|264:257,1,89.9999972534181,2|2,3:2|3:2,0:0:0:0:
218,196,24328,2,1,P|168:187|117:204,1,89.9999972534181,2|2,3:2|3:2,0:0:0:0:
102,231,24814,2,0,L|109:336,1,89.9999972534181,2|2,0:0|0:0,0:0:0:0:
111,365,25301,1,2,3:2:0:0:
197,339,25625,6,0,L|299:332,2,89.9999972534181,2|2|2,3:2|3:2|3:2,0:0:0:0:
161,262,26598,5,2,3:2:0:0:
161,262,26760,2,1,P|150:206|170:148,1,100,6|8,1:2|3:0,0:0:0:0:
179,118,27247,2,0,L|246:111,1,50,2|0,3:2|3:0,0:0:0:0:
281,108,27571,1,2,1:2:0:0:
281,108,27733,1,2,1:2:0:0:
392,7,28220,6,1,L|405:124,1,100,4|2,3:1|1:2,0:0:0:0:
450,200,28869,1,0,3:2:0:0:
450,200,29031,2,1,L|333:187,1,100,2|2,3:2|1:2,0:0:0:0:
305,209,29517,2,1,L|292:326,1,100,0|0,0:0|1:0,0:0:0:0:
202,348,30166,2,0,L|138:340,1,50,2|2,3:2|3:2,0:0:0:0:
69,285,30652,6,1,P|58:229|78:171,1,100,2|2,1:2|3:2,0:0:0:0:
117,177,31139,2,0,L|180:169,1,50,2|2,1:2|0:0,0:0:0:0:
216,163,31463,2,0,L|279:155,1,50,2|2,3:2|3:2,0:0:0:0:
365,152,31950,6,1,L|352:35,1,100,2|2,1:2|3:2,0:0:0:0:
347,3,32436,1,2,1:2:0:0:
247,14,32760,2,0,L|178:22,1,50,2|0,3:2|3:0,0:0:0:0:
147,27,33085,1,2,1:2:0:0:
64,82,33409,6,1,P|53:138|73:196,1,100,0|2,3:0|1:2,0:0:0:0:
113,271,34058,1,2,3:2:0:0:
113,271,34220,2,1,P|169:282|227:262,1,100,2|2,3:2|1:2,0:0:0:0:
255,252,34706,1,2,0:0:0:0:
342,200,35031,1,2,1:2:0:0:
342,200,35193,2,0,L|354:307,1,100,2|2,0:0|3:2,0:0:0:0:
359,348,35679,1,2,0:0:0:0:
262,356,36004,5,2,0:0:0:0:
262,356,36166,1,0,0:0:0:0:
171,328,36490,1,0,0:0:0:0:
171,328,36652,2,0,L|118:339,2,50,2|2|2,3:2|3:2|0:0,0:0:0:0:
173,277,37139,6,1,L|187:157,1,100,2|0,1:2|3:0,0:0:0:0:
193,128,37625,2,0,L|246:117,1,50,6|2,1:2|1:2,0:0:0:0:
291,107,37950,1,2,3:2:0:0:
378,56,38274,5,4,3:0:0:0:
378,56,38436,2,1,P|389:112|369:170,1,100,6|0,3:2|3:0,0:0:0:0:
343,189,38923,1,0,1:0:0:0:
245,302,39409,5,2,3:2:0:0:
245,302,39571,2,0,L|180:295,1,50,2|2,1:2|3:2,0:0:0:0:
145,289,39896,2,1,P|134:233|154:175,1,100,8|2,3:0|1:2,0:0:0:0:
232,145,40544,2,0,P|243:89|223:31,1,100,2|2,3:2|1:2,0:0:0:0:
185,30,41031,6,1,L|68:43,1,100,2|2,3:2|3:2,0:0:0:0:
36,50,41517,1,0,1:0:0:0:
2,196,42004,6,1,P|58:207|116:187,1,100,2|2,3:2|3:2,0:0:0:0:
144,177,42490,1,8,3:0:0:0:
167,273,42814,2,0,L|181:341,1,50,2|2,1:2|1:2,0:0:0:0:
192,369,43139,2,0,L|309:356,1,100,2|4,1:2|3:0,0:0:0:0:
345,356,43625,1,4,3:0:0:0:
345,356,43787,1,4,0:0:0:0:
160,137,45733,5,0,1:0:0:0:
173,236,46058,2,1,L|182:302,1,50,0|0,1:0|3:0,0:0:0:0:
189,334,46382,2,1,P|222:335|254:317,1,50,12|2,1:2|3:2,0:0:0:0:
278,301,46706,2,1,P|334:298|377:341,1,100,2|2,3:2|3:2,0:0:0:0:
458,376,47355,1,14,1:2:0:0:
458,376,47517,2,1,L|471:274,1,100,2|0,3:2|1:0,0:0:0:0:
477,227,48004,1,0,1:0:0:0:
226,25,48814,6,1,P|171:14|122:38,1,110.000003356934,4|2,3:1|3:2,0:0:0:0:
89,79,49301,1,8,1:2:0:0:
51,182,49625,2,1,P|53:215|58:249,1,55.0000016784668,2|2,3:2|3:2,0:0:0:0:
66,295,49950,1,10,1:2:0:0:
66,295,50112,2,1,P|123:291|183:282,1,110.000003356934,2|2,3:2|3:2,0:0:0:0:
229,274,50598,1,8,1:2:0:0:
321,213,50923,2,1,P|317:156|308:96,1,110.000003356934,2|10,3:2|1:2,0:0:0:0:
303,49,51409,6,1,P|357:37|407:64,1,110.000003356934,2|2,3:2|3:2,0:0:0:0:
437,105,51896,1,10,1:2:0:0:
489,201,52220,2,1,P|487:234|482:268,1,55.0000016784668,2|2,3:2|3:2,0:0:0:0:
481,314,52544,1,10,1:2:0:0:
481,314,52706,2,1,P|424:310|364:301,1,110.000003356934,2|2,3:2|3:2,0:0:0:0:
316,294,53193,1,10,1:2:0:0:
336,186,53517,6,0,P|348:132|321:82,2,110.000003356934,14|12|4,3:2|3:0|3:1,0:0:0:0:
233,225,54490,1,10,1:2:0:0:
153,148,54814,2,0,P|99:136|49:163,1,110.000003356934,2|8,3:2|1:2,0:0:0:0:
16,201,55301,1,2,3:2:0:0:
68,303,55625,1,2,3:2:0:0:
68,303,55787,1,10,1:2:0:0:
165,353,56112,2,1,P|198:351|232:346,1,55.0000016784668,2|2,3:2|3:2,0:0:0:0:
278,348,56436,1,10,1:2:0:0:
278,348,56598,1,2,3:2:0:0:
383,310,56922,5,2,3:2:0:0:
383,310,57085,2,0,P|381:277|376:243,1,55.0000016784668,10|0,1:2|3:0,0:0:0:0:
373,200,57409,1,10,1:2:0:0:
370,94,57733,1,10,1:2:0:0:
370,94,57896,2,1,P|315:106|266:78,1,110.000003356934,6|8,3:2|1:2,0:0:0:0:
223,52,58382,1,8,1:2:0:0:
127,106,58706,2,0,P|130:132|134:173,1,55.0000016784668,2|2,1:2|1:2,0:0:0:0:
157,215,59031,5,8,3:0:0:0:
157,215,59193,2,1,P|208:195|262:214,1,110.000003356934,4|2,3:1|3:2,0:0:0:0:
292,254,59679,1,8,1:2:0:0:
388,201,60004,2,1,P|415:204|442:205,1,55.0000016784668,2|2,3:2|3:2,0:0:0:0:
501,214,60329,1,10,1:2:0:0:
501,214,60490,2,1,P|521:163|502:109,1,110.000003356934,2|2,3:2|3:2,0:0:0:0:
461,77,60977,1,8,1:2:0:0:
361,31,61301,2,1,P|304:35|244:44,1,110.000003356934,2|10,3:2|1:2,0:0:0:0:
199,58,61787,6,1,P|187:112|214:162,1,110.000003356934,6|2,3:2|3:2,0:0:0:0:
254,192,62274,1,10,1:2:0:0:
354,148,62598,2,1,P|408:136|458:163,2,110.000003356934,2|10|14,3:2|1:2|1:2,0:0:0:0:
319,252,63571,2,1,P|284:255|247:260,1,55.0000016784668,10|2,1:2|3:2,0:0:0:0:
209,261,63896,2,0,P|174:264|137:269,1,55.0000016784668,4|8,1:3|3:0,0:0:0:0:
103,270,64220,5,2,1:2:0:0:
103,270,64382,2,1,L|118:142,1,110.000003356934,4|2,3:1|3:2,0:0:0:0:
123,105,64869,1,10,1:2:0:0:
210,38,65193,2,1,P|213:73|218:110,1,55.0000016784668,2|2,3:2|3:2,0:0:0:0:
220,147,65517,1,10,1:2:0:0:
234,260,65841,1,2,3:2:0:0:
234,260,66004,2,1,P|283:274|343:228,1,110.000003356934,2|2,3:2|3:2,0:0:0:0:
386,237,66490,2,1,P|389:202|394:165,1,55.0000016784668,2|2,0:0|3:2,0:0:0:0:
397,127,66814,1,10,1:2:0:0:
450,30,67139,6,0,P|485:33|522:38,2,55.0000016784668,6|2|10,3:2|3:2|1:2,0:0:0:0:
399,25,67626,1,2,3:2:0:0:
399,25,67788,2,0,P|371:23|344:20,1,55.0000016784668,10|2,1:2|3:2,0:0:0:0:
295,39,68112,1,10,1:2:0:0:
295,39,68274,2,1,P|215:62|187:51,1,110.000003356934,6|10,3:2|1:2,0:0:0:0:
158,96,68760,1,8,1:2:0:0:
205,195,69085,1,0,1:0:0:0:
134,279,69409,2,0,L|67:271,1,55.0000016784668,8|4,3:0|3:0,0:0:0:0:
29,266,69733,6,1,P|22:216|19:166,1,100,4|0,3:1|3:0,0:0:0:0:
41,119,70220,2,0,P|91:112|141:109,1,100,0|2,1:0|3:2,0:0:0:0:
170,148,70706,1,4,1:2:0:0:
249,217,71031,1,0,3:0:0:0:
249,217,71193,2,0,P|260:161|240:103,1,100,4|0,1:2|3:0,0:0:0:0:
239,71,71679,2,0,P|271:73|306:78,1,50,2|2,1:2|1:2,0:0:0:0:
338,77,72004,2,1,P|371:79|405:84,1,50,4|2,1:3|1:2,0:0:0:0:
437,87,72328,5,4,3:2:0:0:
464,188,72652,1,2,3:2:0:0:
464,188,72814,2,0,P|460:237|454:287,1,100,2|0,1:2|3:0,0:0:0:0:
435,336,73301,1,2,1:2:0:0:
435,336,73463,2,1,P|379:347|321:326,1,100,6|2,3:2|3:2,0:0:0:0:
294,312,73950,1,0,1:0:0:0:
222,242,74274,2,1,P|224:209|229:175,1,50,2|0,1:2|3:0,0:0:0:0:
231,142,74598,1,4,1:2:0:0:
237,41,74923,6,1,P|190:30|137:50,1,100,6|2,3:2|3:2,0:0:0:0:
103,78,75409,2,1,P|92:125|112:177,1,100,6|2,1:2|3:2,0:0:0:0:
140,211,75896,1,6,1:2:0:0:
222,277,76220,1,0,3:0:0:0:
222,277,76382,2,0,P|271:273|321:266,1,100,2|2,1:2|3:2,0:0:0:0:
370,253,76869,2,0,P|366:204|360:154,1,100,0|0,1:0|1:0,0:0:0:0:
352,104,77355,1,6,3:2:0:0:
56,20,78977,5,2,1:2:0:0:
56,20,79139,1,2,1:2:0:0:
30,119,79463,1,2,1:2:0:0:
30,119,79625,1,2,1:2:0:0:
69,211,79950,6,1,P|125:222|183:202,1,100,4|0,3:1|3:0,0:0:0:0:
216,198,80436,1,10,1:2:0:0:
216,198,80598,2,1,P|218:165|223:131,2,50,2|0|2,0:0|3:0|3:2,0:0:0:0:
249,292,81247,2,1,P|306:296|366:305,1,100,2|2,3:2|3:2,0:0:0:0:
448,334,81896,1,2,0:0:0:0:
448,334,82058,2,0,P|459:278|439:220,1,100,2|8,3:2|1:2,0:0:0:0:
419,195,82545,6,1,P|362:191|302:182,1,100,2|2,3:2|3:2,0:0:0:0:
270,178,83031,1,10,1:2:0:0:
189,118,83355,1,10,1:2:0:0:
106,171,83679,1,10,1:2:0:0:
106,171,83841,2,1,P|95:227|115:285,1,100,6|10,3:2|1:2,0:0:0:0:
126,313,84328,1,10,1:2:0:0:
211,365,84652,2,0,P|267:376|325:356,1,100,2|8,1:2|3:0,0:0:0:0:
352,342,85139,5,4,3:1:0:0:
256,192,85220,12,2,87247,0:0:0:0:
