osu file format v14

[General]
AudioFilename: audio.mp3
AudioLeadIn: 0
PreviewTime: 48085
Countdown: 0
SampleSet: Soft
StackLeniency: 0.7
Mode: 0
LetterboxInBreaks: 0
WidescreenStoryboard: 1

[Editor]
DistanceSpacing: 0.8
BeatDivisor: 4
GridSize: 4
TimelineZoom: 2.6

[Metadata]
Title:Kaikai Kitan (TV Size)
TitleUnicode:廻廻奇譚 (TV Size)
Artist:Eve
ArtistUnicode:Eve
Creator:banger-shayne
Version:Expert
Source:呪術廻戦
Tags:jujutsu kaisen sorcery fight op opening japanese rock j-rock jrock gresiu worstpolackeu wenect hanabyte kaikaikitan utaite j-pop jpop pop
BeatmapID:3495914
BeatmapSetID:1690933

[Difficulty]
HPDrainRate:6
CircleSize:4.2
OverallDifficulty:8.5
ApproachRate:9.3
SliderMultiplier:2.2
SliderTickRate:1

[Events]
//Background and Video events
Video,-520,"opening.mp4"
0,0,"bg.jpg",0,0
//Break Periods
//Storyboard Layer 0 (Background)
//Storyboard Layer 1 (Fail)
//Storyboard Layer 2 (Pass)
//Storyboard Layer 3 (Foreground)
//Storyboard Layer 4 (Overlay)
//Storyboard Sound Samples

[TimingPoints]
2275,324.324324324324,4,2,1,90,1,0
2275,-111.111111111111,4,2,1,90,0,0
3250,-111.111111111111,4,2,2,90,0,0
3491,-111.111111111111,4,2,2,5,0,0
3572,-111.111111111111,4,2,2,90,0,0
3737,-111.111111111111,4,2,3,90,0,0
4302,-111.111111111111,4,2,3,5,0,0
4464,-111.111111111111,4,2,3,90,0,0
4545,-111.111111111111,4,2,3,5,0,0
4707,-111.111111111111,4,2,3,90,0,0
4788,-111.111111111111,4,2,3,5,0,0
5518,324.324324324324,4,2,3,90,1,0
5521,-100,4,2,2,90,0,0
5761,-100,4,2,2,5,0,0
5842,-100,4,2,2,90,0,0
7058,-100,4,2,2,5,0,0
7139,-100,4,2,2,90,0,0
8193,-100,4,2,2,5,0,0
8274,-100,4,2,2,90,0,0
9490,-100,4,2,2,5,0,0
9572,-100,4,2,2,90,0,0
9734,-100,4,2,2,90,0,0
10707,-100,4,2,4,90,0,0
10872,-100,4,2,2,90,0,0
10950,-100,4,2,2,5,0,0
11031,-100,4,2,2,90,0,0
12247,-100,4,2,2,5,0,0
12328,-100,4,2,2,90,0,0
13382,-100,4,2,2,5,0,0
13463,-100,4,2,2,90,0,0
14439,-100,4,2,1,90,0,0
14680,-100,4,2,1,5,0,0
14761,-100,4,2,1,90,0,0
15899,-100,4,2,3,90,0,0
17680,-100,4,2,3,5,0,0
17842,324.324324324324,4,2,3,60,1,0
17842,-153.846153846153,4,2,3,60,0,0
17845,-153.846153846153,4,2,1,60,0,0
18733,-153.846153846153,4,2,1,5,0,0
18814,-153.846153846153,4,2,1,60,0,0
19220,-153.846153846153,4,2,1,5,0,0
19301,-153.846153846153,4,2,1,60,0,0
23598,-153.846153846153,4,2,1,5,0,0
23679,-153.846153846153,4,2,1,60,0,0
24085,-153.846153846153,4,2,1,5,0,0
24166,-153.846153846153,4,2,1,60,0,0
26760,-111.111111111111,4,2,1,80,0,0
26763,-111.111111111111,4,2,2,80,0,0
28220,-117.647058823529,4,2,2,80,0,0
28223,-117.647058823529,4,2,4,80,0,0
28953,-117.647058823529,4,2,4,5,0,0
29031,-117.647058823529,4,2,4,80,0,0
30250,-117.647058823529,4,2,4,5,0,0
30328,-117.647058823529,4,2,4,80,0,0
30412,-117.647058823529,4,2,4,5,0,0
30490,-117.647058823529,4,2,4,80,0,0
30896,-117.647058823529,4,2,4,5,0,0
30977,-117.647058823529,4,2,4,80,0,0
31547,-117.647058823529,4,2,4,5,0,0
31625,-117.647058823529,4,2,4,80,0,0
31709,-117.647058823529,4,2,4,5,0,0
31787,-117.647058823529,4,2,4,80,0,0
32193,-117.647058823529,4,2,4,5,0,0
32274,-117.647058823529,4,2,4,80,0,0
34628,-117.647058823529,4,2,4,5,0,0
34706,-117.647058823529,4,2,4,80,0,0
36088,-117.647058823529,4,2,4,5,0,0
36166,-117.647058823529,4,2,4,80,0,0
36736,-117.647058823529,4,2,4,5,0,0
36814,-117.647058823529,4,2,4,80,0,0
36899,-117.647058823529,4,2,4,5,0,0
36977,-117.647058823529,4,2,4,80,0,0
37628,-117.647058823529,4,2,2,80,0,0
37709,-117.647058823529,4,2,2,5,0,0
37787,-117.647058823529,4,2,2,80,0,0
38196,-117.647058823529,4,2,2,5,0,0
38274,-117.647058823529,4,2,2,80,0,0
38358,-117.647058823529,4,2,2,5,0,0
38436,-111.111111111111,4,2,2,80,0,0
38439,-111.111111111111,4,2,1,80,0,0
38679,-111.111111111111,4,2,1,5,0,0
38760,-111.111111111111,4,2,1,80,0,0
43790,-111.111111111111,4,2,3,80,0,0
45571,-100,4,2,3,80,0,0
46382,-100,4,2,3,90,0,0
46385,-100,4,2,1,90,0,0
46872,-100,4,2,2,90,0,0
47358,-100,4,2,3,90,0,0
48166,-200,4,2,3,90,0,0
48247,-200,4,2,3,5,0,0
48328,-200,4,2,3,90,0,0
48409,-200,4,2,3,5,0,0
48490,-200,4,2,3,90,0,0
48571,-200,4,2,3,5,0,0
48652,-200,4,2,3,90,0,0
48814,-95.2380952380952,4,2,3,100,0,1
48817,-95.2380952380952,4,2,2,100,0,1
49058,-95.2380952380952,4,2,2,5,0,1
49061,-95.2380952380952,4,2,2,5,0,1
49139,-95.2380952380952,4,2,2,100,0,1
50355,-95.2380952380952,4,2,2,5,0,1
50436,-95.2380952380952,4,2,2,100,0,1
51652,-95.2380952380952,4,2,2,5,0,1
51655,-95.2380952380952,4,2,2,5,0,1
51733,-95.2380952380952,4,2,2,100,0,1
52950,-95.2380952380952,4,2,2,5,0,1
52953,-95.2380952380952,4,2,2,5,0,1
53031,-95.2380952380952,4,2,2,100,0,1
54169,-95.2380952380952,4,2,4,100,0,1
54331,-95.2380952380952,4,2,2,100,0,1
55544,-95.2380952380952,4,2,2,5,0,1
55547,-95.2380952380952,4,2,2,5,0,1
55625,-95.2380952380952,4,2,2,100,0,1
57331,-95.2380952380952,4,2,2,5,0,1
57409,-95.2380952380952,4,2,2,100,0,1
57899,-95.2380952380952,4,2,1,100,0,1
58139,-95.2380952380952,4,2,1,5,0,1
58142,-95.2380952380952,4,2,1,5,0,1
58220,-95.2380952380952,4,2,1,100,0,1
59196,-95.2380952380952,4,2,2,100,0,1
59436,-95.2380952380952,4,2,2,5,0,1
59517,-95.2380952380952,4,2,2,100,0,1
60733,-95.2380952380952,4,2,2,5,0,1
60814,-95.2380952380952,4,2,2,100,0,1
61790,-95.2380952380952,4,2,1,100,0,1
62031,-95.2380952380952,4,2,1,5,0,1
62112,-95.2380952380952,4,2,1,100,0,1
63250,-95.2380952380952,4,2,2,100,0,1
64385,-95.2380952380952,4,2,4,100,0,1
64547,-95.2380952380952,4,2,2,100,0,1
64625,-95.2380952380952,4,2,2,5,0,1
64706,-95.2380952380952,4,2,2,100,0,1
67142,-95.2380952380952,4,2,1,100,0,1
68277,-95.2380952380952,4,2,2,100,0,1
68517,-95.2380952380952,4,2,2,5,0,1
68598,-95.2380952380952,4,2,2,100,0,1
69733,-117.647058823529,4,2,2,90,0,0
69736,-117.647058823529,4,2,4,90,0,0
69899,-117.647058823529,4,2,1,90,0,0
69977,-117.647058823529,4,2,1,5,0,0
70058,-117.647058823529,4,2,1,90,0,0
71196,-117.647058823529,4,2,2,90,0,0
72331,-117.647058823529,4,2,1,90,0,0
72571,-117.647058823529,4,2,1,5,0,0
72652,-117.647058823529,4,2,1,90,0,0
73466,-117.647058823529,4,2,2,90,0,0
73706,-117.647058823529,4,2,2,5,0,0
73787,-117.647058823529,4,2,2,90,0,0
74601,-117.647058823529,4,2,1,90,0,0
74926,-117.647058823529,4,2,2,90,0,0
75412,-117.647058823529,4,2,1,90,0,0
75899,-117.647058823529,4,2,2,90,0,0
77355,-500,4,2,2,90,0,0
77358,-500,4,2,3,90,0,0
78977,-100,4,2,3,90,0,0
79950,-100,4,2,3,90,0,0
79953,-100,4,2,2,90,0,0
81652,-100,4,2,2,5,0,0
81733,-100,4,2,2,90,0,0
82787,-100,4,2,2,5,0,0
82869,-100,4,2,2,90,0,0
83844,-100,4,2,1,90,0,0
84085,-100,4,2,1,5,0,0
84166,-100,4,2,1,90,0,0
85142,-100,4,2,3,90,0,0
87247,-100,4,2,3,30,0,0

[Colours]
Combo1 : 252,88,88
Combo2 : 222,172,80

[HitObjects]
273,152,2275,5,14,1:2:0:0:
363,52,2437,1,2,3:2:0:0:
150,155,2599,1,2,3:2:0:0:
272,314,2761,6,1,B|273:334|261:350|261:350|288:339|282:294,1,98.9999969787599,14|0,1:2|3:0,0:0:0:0:
273,152,3085,1,2,3:2:0:0:
163,294,3247,2,1,P|97:312|18:340,1,148.49999546814,14|0,1:2|0:0,0:0:0:0:
48,234,3572,37,0,3:0:0:0:
146,44,3734,1,14,1:2:0:0:
204,199,3896,1,2,0:0:0:0:
73,18,4058,1,2,3:2:0:0:
312,89,4220,6,1,P|334:108|336:139,1,49.4999984893799,4|0,1:3|0:0,0:0:0:0:
332,312,4464,6,1,P|304:321|276:307,1,49.4999984893799,4|0,1:3|0:0,0:0:0:0:
116,195,4707,6,1,P|121:166|147:149,1,49.4999984893799,4|0,1:3|0:0,0:0:0:0:
272,200,5518,6,1,B|315:169|367:212|345:231|393:268|450:221,1,165,4|0,3:1|0:0,0:0:0:0:
351,111,5842,1,10,1:2:0:0:
300,302,6004,2,1,B|300:317|292:327|292:327|304:334|316:344|316:344|316:330|321:319|321:319|308:314|300:302,1,110,2|0,0:0|3:0,0:0:0:0:
198,152,6328,2,1,P|141:135|74:109,1,110,2|8,3:2|1:2,0:0:0:0:
57,271,6653,6,1,P|83:323|108:390,1,110,2|0,3:2|0:0,0:0:0:0:
210,283,6977,2,1,P|236:251|241:207,1,55,2|0,3:2|0:0,0:0:0:0:
281,152,7139,2,1,P|336:168|407:181,1,110,8|2,1:2|0:0,0:0:0:0:
387,178,7382,1,0,1:0:0:0:
387,178,7463,1,2,3:2:0:0:
280,10,7626,1,2,3:2:0:0:
321,212,7788,1,8,1:2:0:0:
471,52,7950,6,1,B|428:21|376:64|398:83|350:120|293:73,1,165,2|0,3:2|0:0,0:0:0:0:
394,184,8274,1,2,3:2:0:0:
314,370,8437,1,10,1:2:0:0:
250,177,8599,1,2,0:0:0:0:
250,177,8680,1,0,1:0:0:0:
250,177,8761,1,2,3:2:0:0:
174,348,8923,2,1,P|116:357|47:376,1,110,0|10,3:0|1:2,0:0:0:0:
290,283,9247,6,1,P|316:231|354:122,1,165,2|0,3:2|0:0,0:0:0:0:
284,53,9572,1,2,3:2:0:0:
413,227,9734,1,10,1:2:0:0:
447,14,9896,1,2,3:2:0:0:
248,171,10058,5,14,3:2:0:0:
215,205,10139,1,0,1:0:0:0:
167,222,10220,1,2,1:2:0:0:
123,212,10301,1,0,1:0:0:0:
74,194,10382,2,1,P|100:226|104:270,1,55,12|0,3:0|1:0,0:0:0:0:
180,356,10545,2,1,P|154:324|150:280,1,55,2|0,1:2|1:0,0:0:0:0:
74,103,10707,6,1,B|72:89|43:72|43:72|102:98|190:91,1,165,4|0,3:1|0:0,0:0:0:0:
276,27,11031,1,10,1:2:0:0:
167,222,11193,2,1,B|167:206|174:196|174:196|162:189|150:179|150:179|150:193|145:204|145:204|158:209|167:222,1,110,2|0,0:0|3:0,0:0:0:0:
340,158,11517,2,1,B|340:142|332:132|332:132|344:125|356:115|356:115|356:129|361:140|361:140|348:145|340:158,1,110,2|8,3:2|1:2,0:0:0:0:
391,268,11842,6,1,P|417:320|442:387,1,110,2|0,3:2|0:0,0:0:0:0:
278,258,12166,2,1,P|252:226|247:182,1,55,2|0,3:2|0:0,0:0:0:0:
220,125,12328,2,1,P|165:141|94:154,1,110,8|2,1:2|0:0,0:0:0:0:
113,151,12571,1,0,1:0:0:0:
113,151,12652,1,2,3:2:0:0:
190,373,12815,1,2,3:2:0:0:
2,239,12977,1,8,1:2:0:0:
219,256,13139,6,1,B|239:235|278:257|278:257|245:209|189:229,1,165,2|0,3:2|0:0,0:0:0:0:
118,281,13463,1,2,3:2:0:0:
391,380,13626,5,10,1:2:0:0:
439,151,13788,1,2,3:2:0:0:
283,333,13950,5,10,1:2:0:0:
372,83,14112,1,0,3:0:0:0:
459,286,14274,1,10,1:2:0:0:
228,68,14436,6,1,B|192:36|140:79|162:98|114:135|57:88,1,165,6|0,3:2|0:0,0:0:0:0:
66,0,14761,1,10,1:2:0:0:
182,190,14923,1,10,1:2:0:0:
275,0,15085,1,2,1:2:0:0:
275,0,15166,1,0,1:0:0:0:
275,0,15247,1,2,1:2:0:0:
359,162,15409,2,0,L|371:262,2,55,8|4|8,3:0|3:0|3:0,0:0:0:0:
222,322,15734,1,4,3:0:0:0:
182,345,15815,1,4,3:0:0:0:
113,309,15896,5,4,3:1:0:0:
256,192,15977,12,0,17680,0:0:0:0:
455,165,17842,5,0,3:0:0:0:
365,114,18004,2,0,L|348:42,2,71.4999967269899,2|2|2,0:0|3:2|0:0,0:0:0:0:
372,199,18490,2,0,L|349:310,1,107.249995090485,2|0,3:2|0:0,0:0:0:0:
350,304,18814,1,2,3:2:0:0:
231,157,18977,6,0,L|254:268,1,107.249995090485,2|0,0:0|0:0,0:0:0:0:
252,262,19301,1,2,0:0:0:0:
154,273,19463,1,2,3:2:0:0:
257,370,19625,1,2,0:0:0:0:
154,273,19787,2,0,L|132:371,2,71.4999967269899,2|2|0,3:2|0:0|3:2,0:0:0:0:
53,202,20274,1,2,0:0:0:0:
148,157,20436,6,0,L|250:136,1,71.4999967269899,2|0,3:2|0:0,0:0:0:0:
54,85,20760,1,2,3:2:0:0:
149,27,20923,2,0,L|251:48,1,71.4999967269899,2|0,0:0|3:0,0:0:0:0:
329,83,21247,1,2,0:0:0:0:
218,142,21409,1,2,3:2:0:0:
343,230,21571,6,1,B|431:245|431:245|478:295,1,142.99999345398,2|2,0:0|0:0,0:0:0:0:
512,197,22058,2,0,L|454:141,1,71.4999967269899,2|2,3:2|0:0,0:0:0:0:
358,50,22382,6,0,P|292:30|232:88,2,142.99999345398,2|2|0,3:2|3:2|3:0,0:0:0:0:
313,142,23193,1,2,0:0:0:0:
237,71,23355,2,0,L|129:36,1,107.249995090485,2|0,3:2|0:0,0:0:0:0:
134,38,23679,1,2,3:2:0:0:
54,102,23841,2,0,L|78:212,1,107.249995090485,2|0,0:0|0:0,0:0:0:0:
76,206,24166,1,2,0:0:0:0:
195,226,24328,6,0,L|174:328,1,71.4999967269899,2|0,3:2|0:0,0:0:0:0:
302,379,24652,2,0,L|281:277,2,71.4999967269899,2|2|0,3:2|0:0|3:2,0:0:0:0:
411,310,25139,2,0,L|432:208,1,71.4999967269899,2|2,0:0|3:2,0:0:0:0:
280,185,25463,1,2,0:0:0:0:
410,110,25625,6,0,L|309:80,1,71.4999967269899,2|0,3:2|0:0,0:0:0:0:
341,89,25869,2,1,L|344:146,1,35.749998363495,2|0,0:0|3:0,0:0:0:0:
355,211,26112,1,2,0:0:0:0:
213,119,26274,2,0,L|191:220,1,71.4999967269899,2|0,3:2|0:0,0:0:0:0:
182,265,26598,1,2,3:2:0:0:
20,75,26760,6,1,P|67:83|115:97,1,98.9999969787599,6|0,1:2|0:0,0:0:0:0:
274,226,27085,1,8,3:0:0:0:
274,226,27166,1,8,3:0:0:0:
274,226,27247,1,2,3:2:0:0:
104,297,27409,1,0,3:0:0:0:
352,338,27571,5,2,1:2:0:0:
213,119,27733,1,2,1:2:0:0:
192,27,28220,6,1,P|204:85|225:156,1,93.500001783371,4|2,3:1|0:0,0:0:0:0:
347,6,28544,1,2,1:2:0:0:
325,162,28706,1,0,0:0:0:0:
319,177,28787,1,0,0:0:0:0:
316,195,28868,1,0,3:2:0:0:
449,141,29031,2,1,P|467:84|484:12,1,93.500001783371,2|0,3:2|0:0,0:0:0:0:
287,76,29355,1,2,1:2:0:0:
390,227,29517,6,1,P|374:281|353:352,1,93.500001783371,2|0,0:0|3:0,0:0:0:0:
363,316,29760,2,1,P|321:319|282:299,1,46.7500008916855,0|0,0:0|1:0,0:0:0:0:
201,215,30004,1,2,0:0:0:0:
183,212,30085,1,0,1:0:0:0:
165,211,30166,1,2,3:2:0:0:
288,76,30328,2,1,P|345:88|419:98,1,93.500001783371,2|0,3:2|0:0,0:0:0:0:
200,20,30652,6,1,P|158:65|165:147,1,140.250002675057,2|0,1:2|0:0,0:0:0:0:
261,157,30977,1,2,3:2:0:0:
155,314,31139,1,2,1:2:0:0:
81,160,31301,1,2,0:0:0:0:
73,141,31382,1,0,1:0:0:0:
69,124,31463,1,2,3:2:0:0:
261,157,31625,2,1,P|316:175|385:203,1,93.500001783371,2|0,3:2|0:0,0:0:0:0:
441,365,31950,6,1,P|457:309|482:205,1,140.250002675057,2|0,1:2|0:0,0:0:0:0:
431,139,32274,1,2,3:2:0:0:
238,265,32436,1,2,1:2:0:0:
299,58,32598,1,0,0:0:0:0:
307,77,32679,1,0,1:0:0:0:
311,94,32760,1,2,3:2:0:0:
145,130,32923,1,0,3:0:0:0:
311,251,33085,2,1,P|323:293|341:371,1,93.500001783371,2|0,1:2|0:0,0:0:0:0:
261,157,33409,6,1,P|223:180|153:218,1,93.500001783371,0|2,3:0|0:0,0:0:0:0:
212,12,33733,1,2,1:2:0:0:
372,139,33896,1,0,0:0:0:0:
380,120,33977,1,0,0:0:0:0:
384,103,34058,1,2,3:2:0:0:
180,203,34220,2,1,P|168:145|147:74,1,93.500001783371,2|0,3:2|0:0,0:0:0:0:
311,251,34544,1,2,1:2:0:0:
171,345,34706,6,1,P|114:333|40:323,1,93.500001783371,2|2,0:0|3:2,0:0:0:0:
84,165,35031,1,2,1:2:0:0:
255,190,35193,1,2,0:0:0:0:
270,183,35274,1,0,1:0:0:0:
286,175,35355,1,0,3:0:0:0:
183,20,35517,2,1,P|171:78|150:149,1,93.500001783371,2|2,3:2|0:0,0:0:0:0:
118,262,35841,1,0,1:0:0:0:
286,175,36004,6,1,P|298:233|319:304,1,93.500001783371,2|2,0:0|3:2,0:0:0:0:
408,106,36328,1,0,1:0:0:0:
453,280,36490,1,2,0:0:0:0:
456,296,36571,1,0,1:0:0:0:
460,313,36652,1,2,3:2:0:0:
306,266,36814,1,2,3:2:0:0:
475,184,36977,1,2,0:0:0:0:
293,123,37139,6,1,P|236:135|162:145,1,93.500001783371,2|0,1:2|0:0,0:0:0:0:
84,29,37463,1,0,3:0:0:0:
6,255,37625,1,6,1:2:0:0:
208,148,37787,1,2,1:2:0:0:
208,148,37869,1,0,1:0:0:0:
208,148,37950,5,2,3:2:0:0:
164,312,38112,1,8,3:0:0:0:
99,116,38274,1,4,3:0:0:0:
320,267,38436,6,1,B|355:242|403:282|382:300|427:334|480:290,1,148.49999546814,6|0,3:2|0:0,0:0:0:0:
487,216,38760,1,0,3:0:0:0:
301,119,38923,2,1,P|242:134|172:159,1,98.9999969787599,0|0,1:0|0:0,0:0:0:0:
205,145,39166,1,8,3:0:0:0:
205,145,39247,1,0,3:0:0:0:
300,0,39409,1,2,3:2:0:0:
340,190,39571,1,2,1:2:0:0:
202,57,39733,1,2,3:2:0:0:
145,217,39896,6,1,P|156:276|176:347,1,98.9999969787599,8|0,3:0|3:0,0:0:0:0:
340,190,40220,2,1,P|328:249|308:320,1,98.9999969787599,2|2,1:2|0:0,0:0:0:0:
318,286,40463,1,8,3:0:0:0:
318,286,40544,1,2,3:2:0:0:
212,152,40706,1,0,3:0:0:0:
385,106,40869,1,2,1:2:0:0:
214,12,41031,6,1,P|158:34|93:67,1,98.9999969787599,2|0,3:2|3:0,0:0:0:0:
76,238,41355,1,2,3:2:0:0:
5,98,41517,1,0,1:0:0:0:
212,152,41679,1,0,3:0:0:0:
212,152,41760,1,8,3:0:0:0:
212,152,41841,1,0,3:0:0:0:
53,334,42004,2,1,P|65:275|88:205,1,98.9999969787599,2|0,3:2|1:0,0:0:0:0:
256,248,42328,1,2,3:2:0:0:
130,60,42490,6,1,P|111:105|98:153,1,98.9999969787599,8|0,3:0|3:0,0:0:0:0:
300,115,42814,1,2,1:2:0:0:
165,253,42977,1,2,1:2:0:0:
165,253,43058,1,0,1:0:0:0:
165,253,43139,1,2,1:2:0:0:
309,356,43301,2,1,P|368:349|440:334,1,98.9999969787599,8|4,3:0|3:0,0:0:0:0:
478,145,43625,1,4,3:0:0:0:
489,70,43787,5,4,0:0:0:0:
177,336,45571,5,8,3:0:0:0:
177,336,45652,1,8,3:0:0:0:
177,336,45733,1,0,1:0:0:0:
289,147,45896,1,0,3:0:0:0:
325,362,46058,1,0,1:0:0:0:
180,121,46220,1,0,3:0:0:0:
401,254,46382,5,12,1:2:0:0:
328,11,46544,1,2,3:2:0:0:
231,228,46706,1,2,3:2:0:0:
454,83,46869,1,14,1:2:0:0:
180,121,47031,1,2,3:2:0:0:
454,83,47193,1,2,3:2:0:0:
256,313,47355,1,14,1:2:0:0:
227,57,47517,6,0,L|217:-42,2,55,2|0|0,3:2|0:0|0:0,0:0:0:0:
120,326,47841,1,0,1:0:0:0:
70,66,48004,1,0,1:0:0:0:
342,160,48166,6,1,P|365:167|381:188,1,27.5,2|0,0:0|0:0,0:0:0:0:
350,269,48328,2,1,P|344:244|354:221,1,27.5,2|0,0:0|0:0,0:0:0:0:
445,204,48490,2,1,P|426:220|401:223,1,27.5,2|0,0:0|0:0,0:0:0:0:
272,195,48652,1,2,0:0:0:0:
427,50,48814,6,1,B|384:19|332:62|354:81|306:118|249:71,1,173.24999471283,4|0,3:1|0:0,0:0:0:0:
179,221,49139,2,1,B|179:237|171:248|171:248|184:255|196:266|196:266|196:251|202:240|202:240|188:234|179:221,1,115.49999647522,2|8,3:2|1:2,0:0:0:0:
423,220,49463,1,2,0:0:0:0:
272,85,49625,2,1,P|214:92|144:109,1,115.49999647522,2|2,3:2|3:2,0:0:0:0:
262,318,49950,1,10,1:2:0:0:
84,246,50112,6,1,P|70:189|57:74,1,173.24999471283,2|0,3:2|0:0,0:0:0:0:
221,12,50436,2,1,P|262:4|334:32,1,115.49999647522,2|8,3:2|1:2,0:0:0:0:
231,207,50760,1,2,0:0:0:0:
231,207,50841,1,2,1:2:0:0:
231,207,50923,2,1,P|248:262|262:332,1,115.49999647522,2|2,3:2|3:2,0:0:0:0:
401,142,51247,1,10,1:2:0:0:
208,111,51409,6,1,B|165:142|113:99|135:80|87:43|30:90,1,173.24999471283,2|0,3:2|0:0,0:0:0:0:
97,199,51733,1,2,3:2:0:0:
200,14,51896,1,10,1:2:0:0:
328,183,52058,1,2,0:0:0:0:
328,183,52139,1,2,1:2:0:0:
328,183,52220,2,1,P|345:239|358:298,1,115.49999647522,2|2,3:2|3:2,0:0:0:0:
471,113,52544,1,10,1:2:0:0:
259,40,52706,6,1,B|226:38|200:15|200:15|215:62|291:58,1,173.24999471283,2|0,3:2|0:0,0:0:0:0:
432,19,53031,1,2,3:2:0:0:
328,183,53193,2,1,P|290:201|213:192,1,115.49999647522,10|0,1:2|3:0,0:0:0:0:
58,25,53517,1,14,3:2:0:0:
126,147,53679,1,0,1:0:0:0:
153,107,53760,1,2,1:2:0:0:
192,87,53841,1,12,3:0:0:0:
237,86,53923,1,0,1:0:0:0:
276,109,54003,1,2,1:2:0:0:
295,151,54084,1,0,1:0:0:0:
328,183,54166,6,0,P|384:162|434:180,1,115.49999647522,4|2,3:1|0:0,0:0:0:0:
316,380,54490,1,10,1:2:0:0:
215,183,54652,1,2,0:0:0:0:
406,292,54814,2,1,P|423:236|435:179,1,115.49999647522,2|0,3:2|3:0,0:0:0:0:
206,314,55139,1,8,1:2:0:0:
276,109,55301,6,1,P|218:96|103:88,1,173.24999471283,2|0,3:2|0:0,0:0:0:0:
30,179,55625,1,2,3:2:0:0:
104,1,55787,1,10,1:2:0:0:
205,188,55950,1,2,0:0:0:0:
205,188,56031,1,0,1:0:0:0:
205,188,56112,2,1,B|205:204|197:215|197:215|210:222|222:233|222:233|222:218|228:207|228:207|214:201|205:188,1,115.49999647522,2|2,3:2|3:2,0:0:0:0:
420,103,56436,2,1,B|420:119|428:130|428:130|415:137|403:148|403:148|403:133|397:122|397:122|411:116|420:103,1,115.49999647522,10|2,1:2|3:2,0:0:0:0:
317,296,56760,6,1,P|258:306|199:321,1,115.49999647522,0|2,0:0|3:2,0:0:0:0:
293,102,57085,1,10,1:2:0:0:
416,334,57247,5,0,3:0:0:0:
390,34,57409,5,10,1:2:0:0:
270,235,57571,1,0,3:0:0:0:
224,0,57733,5,10,1:2:0:0:
82,247,57896,2,1,B|65:247|39:218|39:218|82:279|85:328,1,173.24999471283,6|0,3:2|0:0,0:0:0:0:
163,366,58220,1,8,1:2:0:0:
375,223,58382,1,8,1:2:0:0:
100,163,58544,1,2,1:2:0:0:
100,163,58625,1,0,1:0:0:0:
100,163,58706,1,2,1:2:0:0:
334,329,58869,1,2,1:2:0:0:
334,329,58950,1,0,1:0:0:0:
334,329,59031,2,1,P|375:328|411:303,1,57.7499982376099,8|4,3:0|3:0,0:0:0:0:
498,187,59193,6,1,P|490:128|461:16,1,173.24999471283,4|0,3:1|0:0,0:0:0:0:
306,125,59517,2,1,P|285:181|268:239,1,115.49999647522,2|8,3:2|1:2,0:0:0:0:
103,37,59841,1,2,0:0:0:0:
103,37,59923,1,0,1:0:0:0:
103,37,60004,2,1,P|124:93|141:151,1,115.49999647522,2|2,3:2|3:2,0:0:0:0:
328,37,60328,1,10,1:2:0:0:
269,234,60490,6,1,B|226:203|174:246|196:265|148:302|91:255,1,173.24999471283,2|0,3:2|0:0,0:0:0:0:
10,120,60814,2,1,B|10:104|2:93|2:93|15:86|27:75|27:75|27:90|33:101|33:101|19:107|10:120,1,115.49999647522,2|8,3:2|1:2,0:0:0:0:
213,22,61139,1,2,0:0:0:0:
213,22,61220,1,0,1:0:0:0:
213,22,61301,2,1,P|234:78|251:136,1,115.49999647522,2|2,3:2|3:2,0:0:0:0:
65,209,61625,1,10,1:2:0:0:
252,318,61787,6,1,P|309:302|423:285,1,173.24999471283,6|0,3:2|0:0,0:0:0:0:
487,329,62112,1,2,3:2:0:0:
249,131,62274,2,1,B|249:147|241:158|241:158|254:165|266:176|266:176|266:161|272:150|272:150|258:144|249:131,1,115.49999647522,10|0,1:2|0:0,0:0:0:0:
457,18,62598,2,1,P|389:8|307:-9,1,115.49999647522,2|0,3:2|3:0,0:0:0:0:
389,216,62923,2,1,B|389:232|381:243|381:243|394:250|406:261|406:261|406:246|412:235|412:235|398:229|389:216,1,115.49999647522,10|0,1:2|3:0,0:0:0:0:
249,131,63247,6,1,P|181:121|99:104,1,115.49999647522,14|0,1:2|3:0,0:0:0:0:
353,172,63571,2,1,P|385:207|390:251,1,57.7499982376099,10|0,1:2|0:0,0:0:0:0:
273,349,63733,1,2,3:2:0:0:
227,341,63814,1,0,1:0:0:0:
181,332,63895,1,4,1:3:0:0:
135,323,63976,1,0,1:0:0:0:
97,313,64057,1,8,3:0:0:0:
59,303,64139,1,4,3:0:0:0:
22,290,64220,2,1,P|43:254|82:234,1,57.7499982376099,2|0,1:2|1:0,0:0:0:0:
198,136,64382,6,1,B|241:105|293:148|271:167|319:204|376:157,1,173.24999471283,4|0,3:1|0:0,0:0:0:0:
296,33,64706,1,2,3:2:0:0:
212,228,64869,1,10,1:2:0:0:
430,145,65031,1,2,0:0:0:0:
209,50,65193,2,1,P|154:34|83:21,1,115.49999647522,2|2,3:2|3:2,0:0:0:0:
0,204,65517,1,10,1:2:0:0:
198,136,65679,1,2,0:0:0:0:
6,13,65841,5,2,3:2:0:0:
101,258,66004,2,1,P|159:269|217:286,1,115.49999647522,2|8,3:2|1:2,0:0:0:0:
423,223,66328,1,2,3:2:0:0:
279,89,66490,2,1,B|279:73|287:62|287:62|274:55|262:44|262:44|262:59|256:70|256:70|270:76|279:89,1,115.49999647522,2|2,0:0|3:2,0:0:0:0:
213,284,66814,1,10,1:2:0:0:
384,122,66977,1,2,1:2:0:0:
384,122,67058,1,0,1:0:0:0:
384,122,67139,5,6,3:2:0:0:
115,163,67301,1,2,3:2:0:0:
423,223,67463,5,10,1:2:0:0:
114,267,67625,1,2,3:2:0:0:
425,345,67787,5,10,1:2:0:0:
122,374,67949,1,2,3:2:0:0:
300,181,68112,5,10,1:2:0:0:
20,218,68274,2,1,P|26:159|53:47,1,173.24999471283,6|0,3:2|0:0,0:0:0:0:
146,2,68598,1,10,1:2:0:0:
183,216,68760,1,8,1:2:0:0:
343,55,68923,1,2,1:2:0:0:
343,55,69004,1,0,1:0:0:0:
343,55,69085,1,0,1:0:0:0:
404,254,69247,2,0,L|416:354,2,57.7499982376099,8|8|8,3:0|3:0|3:0,0:0:0:0:
261,158,69571,1,4,3:0:0:0:
218,141,69652,1,4,3:0:0:0:
182,129,69733,6,1,B|94:144|94:144|47:194,1,140.250002675057,4|0,3:1|0:0,0:0:0:0:
21,310,70058,2,1,B|21:322|14:331|14:331|25:337|34:346|34:346|34:334|39:325|39:325|28:320|21:310,1,93.500001783371,0|0,3:0|1:0,0:0:0:0:
59,181,70382,1,2,0:0:0:0:
160,292,70544,2,1,P|218:277|288:252,1,93.500001783371,2|4,3:2|1:2,0:0:0:0:
449,144,70869,6,1,B|410:179|359:140|382:120|328:75|282:107,1,187.000003566742,2|4,0:0|1:2,0:0:0:0:
59,181,71355,2,1,P|117:165|187:140,1,93.500001783371,0|0,0:0|3:0,0:0:0:0:
208,1,71679,1,2,1:2:0:0:
208,1,71760,1,0,1:0:0:0:
208,1,71841,1,2,1:2:0:0:
208,1,71923,1,0,1:0:0:0:
208,1,72004,2,1,P|178:1|157:23,1,46.7500008916855,4|0,1:3|1:0,0:0:0:0:
43,57,72166,2,1,P|13:56|-8:34,1,46.7500008916855,2|0,1:2|1:0,0:0:0:0:
148,154,72328,6,1,P|136:224|114:308,1,140.250002675057,4|0,3:2|0:0,0:0:0:0:
233,339,72652,2,1,P|291:354|361:379,1,93.500001783371,2|2,3:2|1:2,0:0:0:0:
402,238,72977,2,0,P|388:193|377:136,2,93.500001783371,2|0|2,0:0|3:0|1:2,0:0:0:0:
252,249,73463,6,1,P|186:267|107:295,1,140.250002675057,6|0,3:2|0:0,0:0:0:0:
63,205,73787,1,2,3:2:0:0:
209,353,73950,1,0,1:0:0:0:
295,137,74112,1,2,1:2:0:0:
295,137,74193,1,0,1:0:0:0:
295,137,74274,2,1,P|310:78|323:5,1,93.500001783371,2|0,1:2|3:0,0:0:0:0:
163,97,74598,1,4,1:2:0:0:
285,223,74760,1,2,0:0:0:0:
495,13,74923,6,1,B|420:14|360:-15|360:-15|389:3|392:19,1,187.000003566742,6|2,3:2|3:2,0:0:0:0:
432,181,75409,6,1,B|447:259|505:265|505:265|467:241|470:211,1,187.000003566742,6|2,1:2|3:2,0:0:0:0:
295,137,75896,6,1,B|252:106|200:149|222:168|174:205|117:158,1,187.000003566742,6|0,1:2|3:0,0:0:0:0:
213,286,76382,1,2,1:2:0:0:
128,166,76544,2,1,P|134:106|149:33,1,93.500001783371,2|2,3:2|3:2,0:0:0:0:
255,1,76869,1,0,1:0:0:0:
294,137,77031,2,1,P|340:148|384:162,1,93.500001783371,2|0,3:2|1:0,0:0:0:0:
213,286,77355,6,0,P|117:279|62:363,1,198,6|0,3:2|0:0,0:0:0:0:
16,156,78977,5,2,1:2:0:0:
255,193,79139,1,2,1:2:0:0:
353,13,79463,5,2,1:2:0:0:
114,50,79625,1,2,1:2:0:0:
255,193,79950,6,1,B|252:211|213:234|213:234|292:199|409:209,1,220,4|0,3:1|3:0,0:0:0:0:
462,117,80436,1,10,1:2:0:0:
410,305,80598,2,1,B|411:319|421:328|421:328|410:337|400:349|400:349|397:335|390:325|390:325|403:318|410:305,1,110,2|0,0:0|3:0,0:0:0:0:
255,193,80923,2,1,P|196:194|125:203,1,110,2|8,3:2|1:2,0:0:0:0:
271,35,81247,6,1,P|297:87|322:154,1,110,2|0,3:2|0:0,0:0:0:0:
270,292,81571,2,1,P|230:280|201:246,1,55,2|0,3:2|0:0,0:0:0:0:
145,199,81733,2,1,P|90:215|19:228,1,110,8|2,1:2|0:0,0:0:0:0:
38,225,81977,1,0,1:0:0:0:
38,225,82058,1,2,3:2:0:0:
179,74,82220,1,2,3:2:0:0:
219,272,82382,1,8,1:2:0:0:
356,136,82544,6,1,B|372:109|349:71|349:71|398:103|372:186,1,165,2|0,3:2|0:0,0:0:0:0:
436,258,82869,1,2,3:2:0:0:
465,30,83031,5,10,1:2:0:0:
325,299,83193,1,2,3:2:0:0:
350,73,83355,5,10,1:2:0:0:
213,338,83517,1,0,3:0:0:0:
379,156,83679,1,10,1:2:0:0:
74,259,83841,6,1,P|56:203|35:89,1,165,6|0,3:2|0:0,0:0:0:0:
149,36,84166,1,10,1:2:0:0:
224,245,84328,1,10,1:2:0:0:
345,56,84490,1,2,1:2:0:0:
345,56,84571,1,0,1:0:0:0:
345,56,84652,1,2,1:2:0:0:
388,252,84814,2,0,L|398:353,2,55,8|4|8,3:0|3:0|3:0,0:0:0:0:
233,108,85139,5,4,3:1:0:0:
256,192,85220,12,2,87247,0:0:0:0:
