osu file format v14

[General]
AudioFilename: audio.mp3
AudioLeadIn: 0
PreviewTime: 48166
Countdown: 0
SampleSet: Soft
StackLeniency: 0.7
Mode: 3
LetterboxInBreaks: 0
SpecialStyle: 0
WidescreenStoryboard: 1

[Editor]
Bookmarks: 80311
DistanceSpacing: 0.5
BeatDivisor: 4
GridSize: 8
TimelineZoom: 2

[Metadata]
Title:Kaikai Kitan (TV Size)
TitleUnicode:廻廻奇譚 (TV Size)
Artist:Eve
ArtistUnicode:Eve
Creator:Syadow-
Version:Ein's 6K Normal
Source:呪術廻戦
Tags:numa opening op Anime Japanese jujutsu kaisen utaite jpop j-pop pop rock j-rock jrock Sorcery Fight Nabi- _Rokii FAMoss Zylin [OSC]Amagai Yuiazu- onii_ue noch einen pokesky
BeatmapID:2659482
BeatmapSetID:1276702

[Difficulty]
HPDrainRate:7.5
CircleSize:6
OverallDifficulty:7.5
ApproachRate:5
SliderMultiplier:1.4
SliderTickRate:1

[Events]
//Background and Video events
0,0,"juju.jpg",0,0
//Break Periods
//Storyboard Layer 0 (Background)
//Storyboard Layer 1 (Fail)
//Storyboard Layer 2 (Pass)
//Storyboard Layer 3 (Foreground)
//Storyboard Layer 4 (Overlay)
//Storyboard Sound Samples

[TimingPoints]
2275,324.324324324324,3,2,1,70,1,0
5518,324.324324324324,4,2,1,70,1,0
17842,324.324324324324,4,2,1,70,1,0
48814,-100,4,2,1,70,0,1
58544,-100,4,2,1,70,0,0
59193,-100,4,2,1,70,0,1
69733,-100,4,2,1,70,0,0

[HitObjects]
42,192,4,128,0,2275:0:0:0:0:
298,192,2275,1,4,0:0:0:0:
469,192,2275,1,8,0:0:0:0:
128,192,2437,1,2,0:0:0:0:
213,192,2599,1,2,0:0:0:0:
384,192,2761,1,4,0:0:0:0:
469,192,2761,1,8,0:0:0:0:
42,192,2923,1,2,0:0:0:0:
128,192,3085,1,2,0:0:0:0:
469,192,3247,128,4,3572:0:0:0:0:
298,192,3247,128,8,3572:0:0:0:0:
42,192,3572,1,2,0:0:0:0:
384,192,3734,1,8,0:0:0:0:
128,192,3734,1,0,0:0:0:0:
384,192,4058,1,2,0:0:0:0:
469,192,4220,1,8,0:0:0:0:
42,192,4220,1,2,0:0:0:0:
213,192,4464,1,2,0:0:0:0:
298,192,4464,1,8,0:0:0:0:
469,192,4707,1,8,0:0:0:0:
42,192,4707,1,2,0:0:0:0:
42,192,5518,1,2,0:0:0:0:
469,192,5518,1,4,0:0:0:0:
128,192,5680,1,0,0:0:0:0:
469,192,5842,1,8,0:0:0:0:
213,192,5842,1,0,0:0:0:0:
42,192,6004,1,0,0:0:0:0:
298,192,6166,1,2,0:0:0:0:
128,192,6328,1,2,0:0:0:0:
469,192,6490,1,8,0:0:0:0:
384,192,6490,1,0,0:0:0:0:
213,192,6653,1,2,0:0:0:0:
128,192,6977,1,2,0:0:0:0:
469,192,7139,1,8,0:0:0:0:
298,192,7139,1,0,0:0:0:0:
42,192,7301,1,0,0:0:0:0:
128,192,7463,1,2,0:0:0:0:
213,192,7626,1,2,0:0:0:0:
298,192,7788,1,8,0:0:0:0:
469,192,7788,1,0,0:0:0:0:
128,192,7950,1,2,0:0:0:0:
42,192,7950,1,0,0:0:0:0:
128,192,8274,1,2,0:0:0:0:
42,192,8436,1,8,0:0:0:0:
469,192,8436,1,0,0:0:0:0:
384,192,8599,1,0,0:0:0:0:
298,192,8761,1,2,0:0:0:0:
213,192,8923,1,2,0:0:0:0:
42,192,9085,1,8,0:0:0:0:
128,192,9085,1,0,0:0:0:0:
469,192,9247,1,2,0:0:0:0:
384,192,9247,1,0,0:0:0:0:
384,192,9572,1,2,0:0:0:0:
298,192,9734,1,8,0:0:0:0:
42,192,9734,1,0,0:0:0:0:
128,192,9896,1,2,0:0:0:0:
213,192,10058,1,2,0:0:0:0:
469,192,10058,1,0,0:0:0:0:
384,192,10220,1,8,0:0:0:0:
298,192,10382,1,2,0:0:0:0:
213,192,10545,1,8,0:0:0:0:
42,192,10707,1,2,0:0:0:0:
469,192,10707,1,4,0:0:0:0:
128,192,10869,1,0,0:0:0:0:
469,192,11031,1,8,0:0:0:0:
213,192,11031,1,0,0:0:0:0:
42,192,11193,1,0,0:0:0:0:
298,192,11355,1,2,0:0:0:0:
128,192,11517,1,2,0:0:0:0:
298,192,11680,1,8,0:0:0:0:
469,192,11680,1,0,0:0:0:0:
42,192,11842,1,2,0:0:0:0:
213,192,11842,1,0,0:0:0:0:
298,192,12166,1,2,0:0:0:0:
213,192,12166,1,0,0:0:0:0:
42,192,12328,1,8,0:0:0:0:
469,192,12328,1,0,0:0:0:0:
128,192,12490,1,0,0:0:0:0:
384,192,12653,1,2,0:0:0:0:
213,192,12815,1,2,0:0:0:0:
42,192,12977,1,8,0:0:0:0:
128,192,12977,1,0,0:0:0:0:
384,192,13139,1,2,0:0:0:0:
469,192,13139,1,0,0:0:0:0:
384,192,13463,1,2,0:0:0:0:
298,192,13626,1,8,0:0:0:0:
42,192,13626,1,0,0:0:0:0:
213,192,13788,1,2,0:0:0:0:
384,192,13950,1,8,0:0:0:0:
128,192,13950,1,0,0:0:0:0:
298,192,14112,1,2,0:0:0:0:
42,192,14274,1,8,0:0:0:0:
213,192,14274,1,0,0:0:0:0:
298,192,14436,1,2,0:0:0:0:
469,192,14436,1,4,0:0:0:0:
128,192,14761,1,2,0:0:0:0:
384,192,14761,1,0,0:0:0:0:
213,192,14923,1,2,0:0:0:0:
298,192,14923,1,0,0:0:0:0:
42,192,15085,128,8,15247:0:0:0:0:
469,192,15085,128,0,15247:0:0:0:0:
128,192,15247,1,8,0:0:0:0:
384,192,15247,1,2,0:0:0:0:
298,192,15409,1,2,0:0:0:0:
213,192,15572,1,2,0:0:0:0:
128,192,15734,1,2,0:0:0:0:
42,192,15896,1,2,0:0:0:0:
469,192,15896,128,4,17842:0:0:0:0:
42,192,17842,1,2,0:0:0:0:
213,192,18004,1,0,0:0:0:0:
384,192,18166,1,2,0:0:0:0:
384,192,18490,1,2,0:0:0:0:
298,192,18814,1,2,0:0:0:0:
469,192,18977,1,0,0:0:0:0:
128,192,19139,1,2,0:0:0:0:
384,192,19301,1,0,0:0:0:0:
213,192,19463,1,2,0:0:0:0:
42,192,19625,1,0,0:0:0:0:
298,192,19787,1,2,0:0:0:0:
128,192,19950,1,0,0:0:0:0:
384,192,20112,1,2,0:0:0:0:
213,192,20274,1,0,0:0:0:0:
298,192,20436,1,2,0:0:0:0:
128,192,20760,1,2,0:0:0:0:
384,192,20923,1,0,0:0:0:0:
213,192,21085,1,2,0:0:0:0:
469,192,21247,1,0,0:0:0:0:
298,192,21409,1,2,0:0:0:0:
42,192,21571,128,0,21896:0:0:0:0:
384,192,21733,1,2,0:0:0:0:
128,192,21896,1,0,0:0:0:0:
298,192,22058,1,2,0:0:0:0:
384,192,22301,1,0,0:0:0:0:
128,192,22382,1,2,0:0:0:0:
213,192,22706,1,2,0:0:0:0:
298,192,22869,1,0,0:0:0:0:
384,192,23031,1,2,0:0:0:0:
42,192,23193,1,0,0:0:0:0:
298,192,23355,1,2,0:0:0:0:
128,192,23679,1,2,0:0:0:0:
384,192,23841,1,0,0:0:0:0:
42,192,24004,1,2,0:0:0:0:
213,192,24166,1,0,0:0:0:0:
469,192,24328,1,2,0:0:0:0:
213,192,24571,1,0,0:0:0:0:
384,192,24652,1,2,0:0:0:0:
128,192,24814,1,0,0:0:0:0:
42,192,24977,1,2,0:0:0:0:
384,192,25139,1,0,0:0:0:0:
128,192,25301,1,2,0:0:0:0:
298,192,25463,1,0,0:0:0:0:
469,192,25625,1,2,0:0:0:0:
469,192,25869,1,0,0:0:0:0:
213,192,25950,1,2,0:0:0:0:
42,192,26112,1,0,0:0:0:0:
469,192,26274,1,2,0:0:0:0:
384,192,26598,1,2,0:0:0:0:
298,192,26760,1,8,0:0:0:0:
42,192,26760,1,4,0:0:0:0:
298,192,27085,1,2,0:0:0:0:
213,192,27247,1,2,0:0:0:0:
384,192,27409,1,2,0:0:0:0:
128,192,27571,1,8,0:0:0:0:
42,192,27571,1,2,0:0:0:0:
384,192,27733,1,8,0:0:0:0:
469,192,27733,1,2,0:0:0:0:
42,192,28220,1,4,0:0:0:0:
469,192,28220,1,2,0:0:0:0:
213,192,28382,1,0,0:0:0:0:
384,192,28544,1,8,0:0:0:0:
128,192,28544,1,0,0:0:0:0:
298,192,28869,1,2,0:0:0:0:
469,192,29031,1,2,0:0:0:0:
213,192,29355,1,8,0:0:0:0:
469,192,29355,1,0,0:0:0:0:
42,192,29517,1,0,0:0:0:0:
298,192,29679,1,2,0:0:0:0:
213,192,29760,1,0,0:0:0:0:
128,192,29841,1,8,0:0:0:0:
384,192,29841,1,0,0:0:0:0:
469,192,30004,1,0,0:0:0:0:
298,192,30166,1,2,0:0:0:0:
213,192,30328,1,2,0:0:0:0:
42,192,30652,1,8,0:0:0:0:
469,192,30652,1,0,0:0:0:0:
128,192,30977,1,2,0:0:0:0:
384,192,31139,1,8,0:0:0:0:
213,192,31139,1,0,0:0:0:0:
42,192,31301,1,0,0:0:0:0:
128,192,31463,1,2,0:0:0:0:
298,192,31625,1,2,0:0:0:0:
213,192,31950,1,8,0:0:0:0:
469,192,31950,1,0,0:0:0:0:
384,192,32274,1,2,0:0:0:0:
298,192,32436,1,8,0:0:0:0:
42,192,32436,1,0,0:0:0:0:
213,192,32760,1,2,0:0:0:0:
128,192,33085,1,8,0:0:0:0:
384,192,33085,1,0,0:0:0:0:
469,192,33247,1,0,0:0:0:0:
42,192,33409,1,2,0:0:0:0:
384,192,33571,1,0,0:0:0:0:
128,192,33733,1,8,0:0:0:0:
298,192,33733,1,0,0:0:0:0:
213,192,34058,1,2,0:0:0:0:
298,192,34220,1,2,0:0:0:0:
128,192,34544,1,8,0:0:0:0:
42,192,34544,1,0,0:0:0:0:
384,192,34706,1,0,0:0:0:0:
128,192,34869,1,2,0:0:0:0:
213,192,35031,1,8,0:0:0:0:
384,192,35031,1,0,0:0:0:0:
469,192,35193,1,0,0:0:0:0:
298,192,35355,1,2,0:0:0:0:
213,192,35517,1,2,0:0:0:0:
42,192,35679,1,0,0:0:0:0:
128,192,35841,1,8,0:0:0:0:
384,192,35841,1,0,0:0:0:0:
298,192,36004,1,0,0:0:0:0:
469,192,36166,1,2,0:0:0:0:
213,192,36328,1,8,0:0:0:0:
42,192,36328,1,0,0:0:0:0:
384,192,36490,1,0,0:0:0:0:
298,192,36652,1,2,0:0:0:0:
128,192,36814,1,2,0:0:0:0:
469,192,36977,1,0,0:0:0:0:
298,192,37139,1,8,0:0:0:0:
42,192,37139,1,0,0:0:0:0:
128,192,37463,1,2,0:0:0:0:
213,192,37625,1,8,0:0:0:0:
469,192,37625,1,4,0:0:0:0:
298,192,37787,1,8,0:0:0:0:
128,192,37950,1,2,0:0:0:0:
42,192,37950,1,0,0:0:0:0:
384,192,38112,1,2,0:0:0:0:
298,192,38274,1,2,0:0:0:0:
213,192,38436,1,2,0:0:0:0:
42,192,38436,128,4,38923:0:0:0:0:
469,192,38760,1,2,0:0:0:0:
298,192,38923,1,8,0:0:0:0:
213,192,38923,1,2,0:0:0:0:
298,192,39247,1,2,0:0:0:0:
213,192,39409,1,2,0:0:0:0:
128,192,39571,1,2,0:0:0:0:
384,192,39571,1,8,0:0:0:0:
298,192,39733,1,2,0:0:0:0:
213,192,39896,1,2,0:0:0:0:
469,192,40058,1,2,0:0:0:0:
384,192,40220,1,2,0:0:0:0:
128,192,40220,1,8,0:0:0:0:
42,192,40382,1,0,0:0:0:0:
128,192,40463,1,2,0:0:0:0:
213,192,40544,1,2,0:0:0:0:
298,192,40706,1,2,0:0:0:0:
128,192,40869,1,8,0:0:0:0:
384,192,40869,1,2,0:0:0:0:
213,192,41031,1,2,0:0:0:0:
469,192,41031,1,0,0:0:0:0:
298,192,41355,1,2,0:0:0:0:
469,192,41355,1,0,0:0:0:0:
213,192,41517,1,2,0:0:0:0:
42,192,41517,1,8,0:0:0:0:
384,192,41841,1,2,0:0:0:0:
128,192,42004,1,2,0:0:0:0:
298,192,42166,1,8,0:0:0:0:
469,192,42166,1,2,0:0:0:0:
213,192,42328,1,2,0:0:0:0:
42,192,42490,1,2,0:0:0:0:
384,192,42652,1,2,0:0:0:0:
128,192,42814,1,8,0:0:0:0:
298,192,42814,1,2,0:0:0:0:
469,192,42977,1,0,0:0:0:0:
298,192,43058,1,8,0:0:0:0:
128,192,43139,1,8,0:0:0:0:
384,192,43301,1,2,0:0:0:0:
213,192,43463,1,2,0:0:0:0:
298,192,43625,128,2,43950:0:0:0:0:
42,192,43787,1,2,0:0:0:0:
128,192,44112,1,0,0:0:0:0:
384,192,44274,128,0,44598:0:0:0:0:
213,192,44274,128,0,44598:0:0:0:0:
42,192,44760,1,0,0:0:0:0:
469,192,44923,128,0,45247:0:0:0:0:
298,192,44923,128,0,45247:0:0:0:0:
384,192,45409,1,0,0:0:0:0:
128,192,45571,1,2,0:0:0:0:
213,192,45652,1,2,0:0:0:0:
298,192,45733,1,8,0:0:0:0:
469,192,45733,1,0,0:0:0:0:
213,192,45896,1,2,0:0:0:0:
128,192,46058,1,8,0:0:0:0:
384,192,46058,1,2,0:0:0:0:
298,192,46220,1,2,0:0:0:0:
213,192,46382,1,8,0:0:0:0:
42,192,46382,1,4,0:0:0:0:
469,192,46544,1,2,0:0:0:0:
298,192,46706,1,2,0:0:0:0:
42,192,46869,1,8,0:0:0:0:
384,192,46869,1,4,0:0:0:0:
128,192,47031,1,2,0:0:0:0:
469,192,47193,1,2,0:0:0:0:
213,192,47193,1,0,0:0:0:0:
128,192,47355,1,8,0:0:0:0:
384,192,47355,1,4,0:0:0:0:
298,192,47517,128,2,47841:0:0:0:0:
42,192,47517,128,4,47841:0:0:0:0:
128,192,47841,1,8,0:0:0:0:
384,192,47841,1,2,0:0:0:0:
213,192,48004,1,8,0:0:0:0:
469,192,48004,1,2,0:0:0:0:
384,192,48166,1,0,0:0:0:0:
298,192,48328,1,0,0:0:0:0:
213,192,48490,1,0,0:0:0:0:
128,192,48652,1,0,0:0:0:0:
42,192,48814,128,2,49139:0:0:0:0:
469,192,48814,128,4,49139:0:0:0:0:
128,192,49139,1,2,0:0:0:0:
384,192,49139,1,0,0:0:0:0:
298,192,49301,1,8,0:0:0:0:
213,192,49301,1,0,0:0:0:0:
384,192,49463,1,0,0:0:0:0:
298,192,49625,1,2,0:0:0:0:
213,192,49787,1,2,0:0:0:0:
128,192,49950,1,8,0:0:0:0:
384,192,49950,1,0,0:0:0:0:
469,192,50112,128,2,50436:0:0:0:0:
42,192,50112,128,0,50436:0:0:0:0:
128,192,50436,1,2,0:0:0:0:
384,192,50436,1,0,0:0:0:0:
298,192,50598,1,8,0:0:0:0:
213,192,50598,1,0,0:0:0:0:
42,192,50760,1,0,0:0:0:0:
298,192,50923,1,2,0:0:0:0:
128,192,51085,1,2,0:0:0:0:
384,192,51247,1,8,0:0:0:0:
469,192,51247,1,0,0:0:0:0:
213,192,51409,128,2,51733:0:0:0:0:
42,192,51409,128,0,51733:0:0:0:0:
384,192,51733,1,2,0:0:0:0:
128,192,51896,1,8,0:0:0:0:
469,192,51896,1,0,0:0:0:0:
213,192,52058,1,0,0:0:0:0:
298,192,52220,1,2,0:0:0:0:
42,192,52382,1,2,0:0:0:0:
128,192,52544,1,8,0:0:0:0:
384,192,52544,1,0,0:0:0:0:
469,192,52706,128,2,53031:0:0:0:0:
213,192,52706,128,0,53031:0:0:0:0:
298,192,53031,1,2,0:0:0:0:
384,192,53193,1,8,0:0:0:0:
128,192,53193,1,0,0:0:0:0:
42,192,53355,1,2,0:0:0:0:
213,192,53517,1,2,0:0:0:0:
469,192,53517,1,4,0:0:0:0:
128,192,53760,1,8,0:0:0:0:
384,192,53760,1,0,0:0:0:0:
298,192,54004,1,8,0:0:0:0:
42,192,54004,1,0,0:0:0:0:
213,192,54166,1,6,0:0:0:0:
384,192,54328,1,0,0:0:0:0:
128,192,54490,1,8,0:0:0:0:
42,192,54490,1,0,0:0:0:0:
298,192,54652,1,0,0:0:0:0:
469,192,54814,1,2,0:0:0:0:
384,192,54814,1,0,0:0:0:0:
298,192,55058,1,0,0:0:0:0:
213,192,55058,1,0,0:0:0:0:
42,192,55301,1,2,0:0:0:0:
128,192,55301,1,0,0:0:0:0:
213,192,55625,1,2,0:0:0:0:
298,192,55787,1,8,0:0:0:0:
469,192,55787,1,0,0:0:0:0:
42,192,55950,1,0,0:0:0:0:
128,192,56112,1,2,0:0:0:0:
298,192,56274,1,2,0:0:0:0:
213,192,56436,1,8,0:0:0:0:
42,192,56436,1,0,0:0:0:0:
384,192,56598,1,2,0:0:0:0:
384,192,56923,1,2,0:0:0:0:
298,192,57085,1,8,0:0:0:0:
128,192,57085,1,0,0:0:0:0:
469,192,57247,1,2,0:0:0:0:
384,192,57409,1,8,0:0:0:0:
213,192,57409,1,0,0:0:0:0:
42,192,57571,1,2,0:0:0:0:
128,192,57733,1,8,0:0:0:0:
298,192,57733,1,0,0:0:0:0:
384,192,57896,128,2,58220:0:0:0:0:
469,192,57896,128,4,58220:0:0:0:0:
42,192,58220,1,8,0:0:0:0:
128,192,58220,1,2,0:0:0:0:
213,192,58382,1,8,0:0:0:0:
298,192,58382,1,2,0:0:0:0:
469,192,58544,1,8,0:0:0:0:
213,192,58706,1,2,0:0:0:0:
298,192,58869,1,8,0:0:0:0:
384,192,59031,1,2,0:0:0:0:
469,192,59193,128,2,59517:0:0:0:0:
42,192,59193,128,4,59517:0:0:0:0:
213,192,59517,1,2,0:0:0:0:
298,192,59517,1,0,0:0:0:0:
128,192,59679,1,8,0:0:0:0:
384,192,59679,1,0,0:0:0:0:
469,192,59841,1,0,0:0:0:0:
213,192,60004,1,2,0:0:0:0:
298,192,60166,1,2,0:0:0:0:
384,192,60328,1,8,0:0:0:0:
128,192,60328,1,0,0:0:0:0:
42,192,60490,128,2,60814:0:0:0:0:
469,192,60490,128,0,60814:0:0:0:0:
298,192,60814,1,2,0:0:0:0:
213,192,60814,1,0,0:0:0:0:
128,192,60977,1,8,0:0:0:0:
384,192,60977,1,0,0:0:0:0:
42,192,61139,1,0,0:0:0:0:
298,192,61301,1,2,0:0:0:0:
213,192,61463,1,2,0:0:0:0:
469,192,61625,1,8,0:0:0:0:
42,192,61625,1,0,0:0:0:0:
128,192,61787,128,2,62112:0:0:0:0:
384,192,61787,128,4,62112:0:0:0:0:
298,192,62112,1,2,0:0:0:0:
213,192,62274,1,8,0:0:0:0:
42,192,62274,1,0,0:0:0:0:
469,192,62436,1,0,0:0:0:0:
384,192,62517,1,8,0:0:0:0:
298,192,62598,1,2,0:0:0:0:
213,192,62760,1,2,0:0:0:0:
128,192,62923,1,8,0:0:0:0:
384,192,62923,1,0,0:0:0:0:
469,192,63085,1,2,0:0:0:0:
42,192,63247,1,8,0:0:0:0:
298,192,63247,1,0,0:0:0:0:
384,192,63409,1,2,0:0:0:0:
213,192,63571,1,8,0:0:0:0:
469,192,63571,1,0,0:0:0:0:
42,192,63733,1,8,0:0:0:0:
128,192,63896,1,2,0:0:0:0:
384,192,63896,1,0,0:0:0:0:
213,192,64058,1,2,0:0:0:0:
469,192,64058,1,0,0:0:0:0:
298,192,64220,1,8,0:0:0:0:
42,192,64382,1,4,0:0:0:0:
128,192,64382,1,2,0:0:0:0:
213,192,64706,1,2,0:0:0:0:
384,192,64869,1,8,0:0:0:0:
469,192,64869,1,0,0:0:0:0:
128,192,65031,1,0,0:0:0:0:
298,192,65193,1,2,0:0:0:0:
213,192,65355,1,2,0:0:0:0:
128,192,65517,1,8,0:0:0:0:
384,192,65517,1,0,0:0:0:0:
298,192,65679,1,0,0:0:0:0:
213,192,65841,1,2,0:0:0:0:
42,192,66004,1,2,0:0:0:0:
298,192,66166,1,8,0:0:0:0:
469,192,66166,1,0,0:0:0:0:
128,192,66328,1,2,0:0:0:0:
384,192,66490,1,0,0:0:0:0:
42,192,66652,1,2,0:0:0:0:
298,192,66814,1,8,0:0:0:0:
469,192,66814,1,0,0:0:0:0:
213,192,66977,1,8,0:0:0:0:
128,192,67139,1,2,0:0:0:0:
42,192,67139,1,4,0:0:0:0:
384,192,67301,1,2,0:0:0:0:
298,192,67463,1,8,0:0:0:0:
42,192,67463,1,0,0:0:0:0:
213,192,67625,1,2,0:0:0:0:
128,192,67787,1,8,0:0:0:0:
384,192,67787,1,0,0:0:0:0:
298,192,67950,1,2,0:0:0:0:
213,192,68112,1,8,0:0:0:0:
42,192,68112,1,0,0:0:0:0:
384,192,68274,128,2,68598:0:0:0:0:
469,192,68274,128,4,68598:0:0:0:0:
128,192,68598,1,8,0:0:0:0:
42,192,68598,1,2,0:0:0:0:
469,192,68760,1,10,0:0:0:0:
298,192,68923,1,8,0:0:0:0:
213,192,68923,1,0,0:0:0:0:
128,192,69247,1,2,0:0:0:0:
384,192,69247,1,0,0:0:0:0:
42,192,69571,1,2,0:0:0:0:
469,192,69571,1,0,0:0:0:0:
213,192,69733,1,2,0:0:0:0:
298,192,69733,1,4,0:0:0:0:
42,192,70058,1,2,0:0:0:0:
128,192,70220,1,8,0:0:0:0:
384,192,70220,1,0,0:0:0:0:
298,192,70382,1,0,0:0:0:0:
213,192,70544,1,2,0:0:0:0:
128,192,70706,1,8,0:0:0:0:
384,192,70706,1,4,0:0:0:0:
298,192,70869,1,0,0:0:0:0:
42,192,71031,1,2,0:0:0:0:
213,192,71193,1,8,0:0:0:0:
469,192,71193,1,4,0:0:0:0:
298,192,71517,1,2,0:0:0:0:
42,192,71679,1,8,0:0:0:0:
213,192,71841,1,8,0:0:0:0:
469,192,72004,1,8,0:0:0:0:
384,192,72004,1,2,0:0:0:0:
298,192,72166,1,8,0:0:0:0:
42,192,72328,1,2,0:0:0:0:
213,192,72328,1,4,0:0:0:0:
298,192,72652,1,2,0:0:0:0:
42,192,72814,1,8,0:0:0:0:
128,192,72814,1,0,0:0:0:0:
384,192,72977,1,0,0:0:0:0:
128,192,73301,1,8,0:0:0:0:
213,192,73301,1,0,0:0:0:0:
298,192,73463,1,4,0:0:0:0:
469,192,73463,1,2,0:0:0:0:
128,192,73706,1,0,0:0:0:0:
298,192,73787,1,2,0:0:0:0:
469,192,73787,1,0,0:0:0:0:
213,192,73950,1,8,0:0:0:0:
42,192,73950,1,0,0:0:0:0:
384,192,74112,1,8,0:0:0:0:
298,192,74274,1,8,0:0:0:0:
128,192,74274,1,0,0:0:0:0:
469,192,74436,1,2,0:0:0:0:
213,192,74598,1,8,0:0:0:0:
384,192,74598,1,4,0:0:0:0:
42,192,74760,1,0,0:0:0:0:
298,192,74923,128,2,75247:0:0:0:0:
469,192,74923,128,4,75247:0:0:0:0:
42,192,75247,1,2,0:0:0:0:
128,192,75409,128,8,75733:0:0:0:0:
384,192,75409,128,4,75733:0:0:0:0:
298,192,75733,1,2,0:0:0:0:
213,192,75896,128,4,76220:0:0:0:0:
42,192,75896,128,8,76220:0:0:0:0:
384,192,76220,1,2,0:0:0:0:
298,192,76382,1,8,0:0:0:0:
128,192,76382,1,0,0:0:0:0:
42,192,76544,1,2,0:0:0:0:
213,192,76706,1,2,0:0:0:0:
384,192,76869,1,8,0:0:0:0:
469,192,76869,1,4,0:0:0:0:
298,192,77031,1,2,0:0:0:0:
128,192,77193,1,8,0:0:0:0:
42,192,77193,1,0,0:0:0:0:
213,192,77355,128,2,78166:0:0:0:0:
469,192,77355,128,4,78814:0:0:0:0:
128,192,78977,1,8,0:0:0:0:
42,192,78977,1,2,0:0:0:0:
384,192,79139,1,8,0:0:0:0:
469,192,79139,1,2,0:0:0:0:
128,192,79463,1,2,0:0:0:0:
42,192,79463,1,8,0:0:0:0:
384,192,79625,1,2,0:0:0:0:
469,192,79625,1,8,0:0:0:0:
42,192,79950,1,2,0:0:0:0:
469,192,79950,1,4,0:0:0:0:
384,192,80274,1,2,0:0:0:0:
128,192,80436,1,8,0:0:0:0:
42,192,80436,1,0,0:0:0:0:
298,192,80598,1,0,0:0:0:0:
213,192,80760,1,2,0:0:0:0:
384,192,80923,1,2,0:0:0:0:
42,192,81085,1,8,0:0:0:0:
298,192,81085,1,0,0:0:0:0:
469,192,81247,1,2,0:0:0:0:
384,192,81571,1,2,0:0:0:0:
128,192,81733,1,8,0:0:0:0:
42,192,81733,1,0,0:0:0:0:
298,192,81896,1,0,0:0:0:0:
213,192,82058,1,2,0:0:0:0:
128,192,82220,1,2,0:0:0:0:
469,192,82382,1,8,0:0:0:0:
42,192,82382,1,0,0:0:0:0:
384,192,82544,1,2,0:0:0:0:
213,192,82544,1,0,0:0:0:0:
213,192,82869,1,2,0:0:0:0:
128,192,83031,1,8,0:0:0:0:
384,192,83031,1,0,0:0:0:0:
298,192,83193,1,2,0:0:0:0:
128,192,83355,1,8,0:0:0:0:
384,192,83355,1,0,0:0:0:0:
213,192,83517,1,2,0:0:0:0:
42,192,83679,1,8,0:0:0:0:
469,192,83679,1,0,0:0:0:0:
128,192,83841,1,2,0:0:0:0:
384,192,83841,1,4,0:0:0:0:
298,192,84166,1,2,0:0:0:0:
469,192,84166,1,8,0:0:0:0:
213,192,84328,1,2,0:0:0:0:
42,192,84328,1,8,0:0:0:0:
384,192,84490,1,8,0:0:0:0:
128,192,84571,1,8,0:0:0:0:
213,192,84652,1,8,0:0:0:0:
298,192,84814,1,2,0:0:0:0:
384,192,84977,1,2,0:0:0:0:
469,192,85139,128,2,87247:0:0:0:0:
42,192,85139,128,4,87247:0:0:0:0:
