osu file format v14

[General]
AudioFilename: audio.mp3
AudioLeadIn: 0
PreviewTime: 48166
Countdown: 0
SampleSet: Soft
StackLeniency: 0.7
Mode: 3
LetterboxInBreaks: 0
SpecialStyle: 0
WidescreenStoryboard: 0

[Editor]
Bookmarks: 80311
DistanceSpacing: 0.5
BeatDivisor: 4
GridSize: 8
TimelineZoom: 1.9

[Metadata]
Title:Kaikai Kitan (TV Size)
TitleUnicode:廻廻奇譚 (TV Size)
Artist:Eve
ArtistUnicode:Eve
Creator:Syadow-
Version:5K Hard
Source:呪術廻戦
Tags:numa opening op Anime Japanese jujutsu kaisen utaite jpop j-pop pop rock j-rock jrock Sorcery Fight Nabi- _Rokii FAMoss Zylin [OSC]Amagai Yuiazu- onii_ue noch einen pokesky
BeatmapID:2659479
BeatmapSetID:1276702

[Difficulty]
HPDrainRate:8
CircleSize:5
OverallDifficulty:8
ApproachRate:5
SliderMultiplier:1.4
SliderTickRate:1

[Events]
//Background and Video events
0,0,"juju.jpg",0,0
//Break Periods
//Storyboard Layer 0 (Background)
//Storyboard Layer 1 (Fail)
//Storyboard Layer 2 (Pass)
//Storyboard Layer 3 (Foreground)
//Storyboard Layer 4 (Overlay)
//Storyboard Sound Samples

[TimingPoints]
2275,324.324324324324,3,2,1,70,1,0
5518,324.324324324324,4,2,1,70,1,0
17842,324.324324324324,4,2,1,70,1,0
48814,-100,4,2,1,70,0,1
58544,-100,4,2,1,70,0,0
59193,-100,4,2,1,70,0,1
69733,-100,4,2,1,70,0,0

[HitObjects]
256,192,4,128,0,2275:0:0:0:0:
460,192,2275,1,4,0:0:0:0:
51,192,2275,1,8,0:0:0:0:
358,192,2437,1,2,0:0:0:0:
153,192,2437,1,0,0:0:0:0:
256,192,2599,1,2,0:0:0:0:
460,192,2599,1,0,0:0:0:0:
51,192,2761,1,4,0:0:0:0:
358,192,2761,1,8,0:0:0:0:
153,192,2923,1,2,0:0:0:0:
256,192,2923,1,0,0:0:0:0:
358,192,3085,1,2,0:0:0:0:
460,192,3085,1,0,0:0:0:0:
256,192,3247,1,4,0:0:0:0:
51,192,3247,1,8,0:0:0:0:
358,192,3572,1,2,0:0:0:0:
153,192,3572,1,0,0:0:0:0:
460,192,3734,1,8,0:0:0:0:
51,192,3734,1,0,0:0:0:0:
256,192,3896,1,0,0:0:0:0:
358,192,4058,1,2,0:0:0:0:
460,192,4058,1,0,0:0:0:0:
51,192,4220,1,8,0:0:0:0:
256,192,4220,1,2,0:0:0:0:
153,192,4464,1,2,0:0:0:0:
358,192,4464,1,8,0:0:0:0:
460,192,4707,1,8,0:0:0:0:
256,192,4707,1,2,0:0:0:0:
51,192,5518,1,2,0:0:0:0:
460,192,5518,1,4,0:0:0:0:
256,192,5518,1,0,0:0:0:0:
153,192,5842,1,8,0:0:0:0:
358,192,5842,1,0,0:0:0:0:
51,192,6004,1,0,0:0:0:0:
460,192,6166,1,2,0:0:0:0:
358,192,6166,1,0,0:0:0:0:
153,192,6328,1,2,0:0:0:0:
51,192,6328,1,0,0:0:0:0:
256,192,6490,1,8,0:0:0:0:
460,192,6490,1,0,0:0:0:0:
153,192,6653,1,2,0:0:0:0:
358,192,6653,1,0,0:0:0:0:
51,192,6815,1,0,0:0:0:0:
358,192,6977,1,2,0:0:0:0:
256,192,6977,1,0,0:0:0:0:
460,192,7139,1,8,0:0:0:0:
153,192,7139,1,0,0:0:0:0:
51,192,7382,1,8,0:0:0:0:
153,192,7463,1,2,0:0:0:0:
358,192,7463,1,0,0:0:0:0:
460,192,7626,1,2,0:0:0:0:
256,192,7626,1,0,0:0:0:0:
51,192,7788,1,8,0:0:0:0:
153,192,7788,1,0,0:0:0:0:
460,192,7950,1,2,0:0:0:0:
358,192,7950,1,0,0:0:0:0:
256,192,8112,1,0,0:0:0:0:
153,192,8274,1,2,0:0:0:0:
51,192,8274,1,0,0:0:0:0:
256,192,8436,1,8,0:0:0:0:
460,192,8436,1,0,0:0:0:0:
358,192,8680,1,8,0:0:0:0:
51,192,8761,1,2,0:0:0:0:
256,192,8761,1,0,0:0:0:0:
153,192,8923,1,2,0:0:0:0:
460,192,8923,1,0,0:0:0:0:
256,192,9085,1,8,0:0:0:0:
358,192,9085,1,0,0:0:0:0:
153,192,9247,1,2,0:0:0:0:
51,192,9247,1,0,0:0:0:0:
460,192,9409,1,0,0:0:0:0:
358,192,9572,1,2,0:0:0:0:
51,192,9572,1,0,0:0:0:0:
153,192,9734,1,8,0:0:0:0:
256,192,9734,1,0,0:0:0:0:
460,192,9896,1,2,0:0:0:0:
358,192,9896,1,0,0:0:0:0:
153,192,10058,1,2,0:0:0:0:
51,192,10058,1,0,0:0:0:0:
256,192,10220,1,8,0:0:0:0:
153,192,10301,1,8,0:0:0:0:
51,192,10382,1,2,0:0:0:0:
460,192,10382,1,0,0:0:0:0:
358,192,10463,1,2,0:0:0:0:
153,192,10545,1,8,0:0:0:0:
256,192,10626,1,8,0:0:0:0:
358,192,10707,1,2,0:0:0:0:
51,192,10707,1,4,0:0:0:0:
153,192,10869,1,0,0:0:0:0:
256,192,11031,1,8,0:0:0:0:
460,192,11031,1,0,0:0:0:0:
51,192,11193,1,0,0:0:0:0:
358,192,11355,1,2,0:0:0:0:
460,192,11355,1,0,0:0:0:0:
256,192,11517,1,2,0:0:0:0:
153,192,11517,1,0,0:0:0:0:
51,192,11680,1,8,0:0:0:0:
460,192,11680,1,0,0:0:0:0:
358,192,11842,1,2,0:0:0:0:
256,192,11842,1,0,0:0:0:0:
153,192,12004,1,0,0:0:0:0:
51,192,12166,1,2,0:0:0:0:
358,192,12166,1,0,0:0:0:0:
256,192,12328,1,8,0:0:0:0:
460,192,12328,1,0,0:0:0:0:
51,192,12572,1,8,0:0:0:0:
153,192,12653,1,2,0:0:0:0:
256,192,12653,1,0,0:0:0:0:
358,192,12815,1,2,0:0:0:0:
460,192,12815,1,0,0:0:0:0:
51,192,12977,1,8,0:0:0:0:
153,192,12977,1,0,0:0:0:0:
460,192,13139,1,2,0:0:0:0:
256,192,13139,1,0,0:0:0:0:
358,192,13301,1,0,0:0:0:0:
153,192,13463,1,2,0:0:0:0:
51,192,13463,1,0,0:0:0:0:
256,192,13626,1,8,0:0:0:0:
358,192,13626,1,0,0:0:0:0:
153,192,13788,1,2,0:0:0:0:
51,192,13788,1,0,0:0:0:0:
358,192,13950,1,8,0:0:0:0:
460,192,13950,1,0,0:0:0:0:
256,192,14112,1,2,0:0:0:0:
153,192,14112,1,0,0:0:0:0:
51,192,14274,1,8,0:0:0:0:
358,192,14274,1,0,0:0:0:0:
460,192,14436,1,2,0:0:0:0:
51,192,14436,1,4,0:0:0:0:
256,192,14436,1,0,0:0:0:0:
153,192,14761,1,2,0:0:0:0:
460,192,14761,1,0,0:0:0:0:
153,192,14923,1,2,0:0:0:0:
358,192,14923,1,0,0:0:0:0:
256,192,15085,1,8,0:0:0:0:
153,192,15166,1,8,0:0:0:0:
51,192,15247,1,8,0:0:0:0:
460,192,15247,1,2,0:0:0:0:
358,192,15409,1,2,0:0:0:0:
256,192,15490,1,2,0:0:0:0:
153,192,15572,1,2,0:0:0:0:
51,192,15572,1,0,0:0:0:0:
358,192,15734,1,2,0:0:0:0:
460,192,15734,1,0,0:0:0:0:
51,192,15896,1,2,0:0:0:0:
256,192,15896,1,4,0:0:0:0:
460,192,15896,128,0,17842:0:0:0:0:
51,192,17842,1,2,0:0:0:0:
153,192,17842,1,0,0:0:0:0:
256,192,18004,1,0,0:0:0:0:
358,192,18166,1,2,0:0:0:0:
460,192,18166,1,0,0:0:0:0:
153,192,18490,1,2,0:0:0:0:
358,192,18490,1,0,0:0:0:0:
256,192,18814,1,2,0:0:0:0:
51,192,18814,1,0,0:0:0:0:
358,192,18977,1,0,0:0:0:0:
153,192,19139,1,2,0:0:0:0:
460,192,19139,1,0,0:0:0:0:
51,192,19301,1,0,0:0:0:0:
256,192,19463,1,2,0:0:0:0:
358,192,19463,1,0,0:0:0:0:
460,192,19787,1,2,0:0:0:0:
153,192,19787,1,0,0:0:0:0:
256,192,19950,1,0,0:0:0:0:
51,192,20112,1,2,0:0:0:0:
358,192,20112,1,0,0:0:0:0:
153,192,20274,1,0,0:0:0:0:
256,192,20436,1,2,0:0:0:0:
460,192,20436,1,0,0:0:0:0:
358,192,20760,1,2,0:0:0:0:
153,192,20760,1,0,0:0:0:0:
51,192,20923,1,0,0:0:0:0:
460,192,21085,1,2,0:0:0:0:
256,192,21085,1,0,0:0:0:0:
153,192,21247,1,0,0:0:0:0:
358,192,21409,1,2,0:0:0:0:
460,192,21409,1,0,0:0:0:0:
51,192,21571,1,0,0:0:0:0:
256,192,21733,1,2,0:0:0:0:
460,192,21733,128,0,22058:0:0:0:0:
153,192,22058,128,2,22382:0:0:0:0:
358,192,22058,1,0,0:0:0:0:
256,192,22382,128,2,22706:0:0:0:0:
460,192,22382,1,0,0:0:0:0:
51,192,22706,128,2,23031:0:0:0:0:
153,192,22706,1,0,0:0:0:0:
460,192,23031,1,2,0:0:0:0:
358,192,23031,1,0,0:0:0:0:
256,192,23193,1,0,0:0:0:0:
153,192,23355,1,2,0:0:0:0:
460,192,23355,1,0,0:0:0:0:
51,192,23679,1,2,0:0:0:0:
256,192,23679,1,0,0:0:0:0:
358,192,23841,1,0,0:0:0:0:
153,192,24004,1,2,0:0:0:0:
460,192,24004,1,0,0:0:0:0:
51,192,24166,1,0,0:0:0:0:
256,192,24328,1,2,0:0:0:0:
358,192,24328,1,0,0:0:0:0:
153,192,24652,1,2,0:0:0:0:
460,192,24652,1,0,0:0:0:0:
256,192,24814,1,0,0:0:0:0:
358,192,24977,1,2,0:0:0:0:
51,192,24977,1,0,0:0:0:0:
153,192,25139,1,0,0:0:0:0:
256,192,25301,1,2,0:0:0:0:
358,192,25301,1,0,0:0:0:0:
51,192,25463,1,0,0:0:0:0:
460,192,25625,1,2,0:0:0:0:
256,192,25625,1,0,0:0:0:0:
153,192,25869,1,0,0:0:0:0:
358,192,25869,1,0,0:0:0:0:
51,192,26112,1,0,0:0:0:0:
256,192,26112,1,0,0:0:0:0:
460,192,26274,1,2,0:0:0:0:
358,192,26274,1,0,0:0:0:0:
256,192,26436,1,0,0:0:0:0:
153,192,26598,1,2,0:0:0:0:
358,192,26598,1,0,0:0:0:0:
51,192,26760,1,8,0:0:0:0:
460,192,26760,1,4,0:0:0:0:
256,192,26760,1,0,0:0:0:0:
358,192,27085,1,2,0:0:0:0:
153,192,27166,1,2,0:0:0:0:
358,192,27247,1,2,0:0:0:0:
256,192,27409,1,2,0:0:0:0:
51,192,27571,1,8,0:0:0:0:
153,192,27571,1,2,0:0:0:0:
51,192,27733,1,8,0:0:0:0:
153,192,27733,1,2,0:0:0:0:
460,192,28220,1,4,0:0:0:0:
153,192,28220,1,2,0:0:0:0:
51,192,28220,1,0,0:0:0:0:
256,192,28382,1,0,0:0:0:0:
460,192,28544,1,8,0:0:0:0:
358,192,28544,1,0,0:0:0:0:
153,192,28706,1,0,0:0:0:0:
358,192,28787,1,0,0:0:0:0:
256,192,28869,1,2,0:0:0:0:
51,192,28869,1,0,0:0:0:0:
51,192,29031,1,2,0:0:0:0:
256,192,29031,1,0,0:0:0:0:
460,192,29193,1,0,0:0:0:0:
153,192,29355,1,8,0:0:0:0:
358,192,29355,1,0,0:0:0:0:
51,192,29517,1,0,0:0:0:0:
256,192,29679,1,2,0:0:0:0:
460,192,29679,1,0,0:0:0:0:
51,192,29841,1,8,0:0:0:0:
153,192,29841,1,0,0:0:0:0:
358,192,30004,1,0,0:0:0:0:
256,192,30085,1,0,0:0:0:0:
153,192,30166,1,2,0:0:0:0:
460,192,30166,1,0,0:0:0:0:
153,192,30328,1,2,0:0:0:0:
460,192,30328,1,0,0:0:0:0:
358,192,30490,1,0,0:0:0:0:
51,192,30652,1,8,0:0:0:0:
153,192,30652,1,0,0:0:0:0:
460,192,30814,1,0,0:0:0:0:
256,192,30977,1,2,0:0:0:0:
51,192,30977,1,0,0:0:0:0:
358,192,31139,1,8,0:0:0:0:
460,192,31139,1,0,0:0:0:0:
153,192,31301,1,0,0:0:0:0:
256,192,31382,1,0,0:0:0:0:
358,192,31463,1,2,0:0:0:0:
51,192,31463,1,0,0:0:0:0:
51,192,31625,1,2,0:0:0:0:
358,192,31625,1,0,0:0:0:0:
153,192,31787,1,0,0:0:0:0:
256,192,31950,1,8,0:0:0:0:
460,192,31950,1,0,0:0:0:0:
51,192,32112,1,0,0:0:0:0:
460,192,32274,1,2,0:0:0:0:
358,192,32274,1,0,0:0:0:0:
153,192,32436,1,8,0:0:0:0:
51,192,32436,1,0,0:0:0:0:
256,192,32598,1,0,0:0:0:0:
358,192,32679,1,0,0:0:0:0:
460,192,32760,1,2,0:0:0:0:
153,192,32760,1,0,0:0:0:0:
153,192,32923,1,2,0:0:0:0:
460,192,32923,1,0,0:0:0:0:
51,192,33085,1,8,0:0:0:0:
358,192,33085,1,0,0:0:0:0:
256,192,33247,1,0,0:0:0:0:
153,192,33409,1,2,0:0:0:0:
460,192,33409,1,0,0:0:0:0:
358,192,33571,1,0,0:0:0:0:
153,192,33733,1,8,0:0:0:0:
51,192,33733,1,0,0:0:0:0:
460,192,33896,1,0,0:0:0:0:
358,192,33977,1,0,0:0:0:0:
256,192,34058,1,2,0:0:0:0:
51,192,34058,1,0,0:0:0:0:
51,192,34220,1,2,0:0:0:0:
256,192,34220,1,0,0:0:0:0:
358,192,34382,1,0,0:0:0:0:
153,192,34544,1,8,0:0:0:0:
51,192,34544,1,0,0:0:0:0:
256,192,34706,1,0,0:0:0:0:
358,192,34869,1,2,0:0:0:0:
460,192,34869,1,0,0:0:0:0:
51,192,35031,1,8,0:0:0:0:
153,192,35031,1,0,0:0:0:0:
358,192,35193,1,0,0:0:0:0:
256,192,35274,1,0,0:0:0:0:
153,192,35355,1,2,0:0:0:0:
460,192,35355,1,0,0:0:0:0:
460,192,35517,1,2,0:0:0:0:
153,192,35517,1,0,0:0:0:0:
358,192,35679,1,0,0:0:0:0:
256,192,35841,1,8,0:0:0:0:
51,192,35841,1,0,0:0:0:0:
460,192,36004,1,0,0:0:0:0:
153,192,36166,1,2,0:0:0:0:
51,192,36166,1,0,0:0:0:0:
256,192,36328,1,8,0:0:0:0:
358,192,36328,1,0,0:0:0:0:
51,192,36490,1,0,0:0:0:0:
153,192,36571,1,0,0:0:0:0:
256,192,36652,1,2,0:0:0:0:
460,192,36652,1,0,0:0:0:0:
256,192,36814,1,2,0:0:0:0:
460,192,36814,1,0,0:0:0:0:
51,192,36977,1,0,0:0:0:0:
358,192,37139,1,8,0:0:0:0:
460,192,37139,1,0,0:0:0:0:
256,192,37301,1,0,0:0:0:0:
153,192,37463,1,2,0:0:0:0:
51,192,37463,1,0,0:0:0:0:
460,192,37625,1,8,0:0:0:0:
358,192,37625,1,4,0:0:0:0:
51,192,37787,1,8,0:0:0:0:
153,192,37869,1,8,0:0:0:0:
256,192,37950,1,2,0:0:0:0:
460,192,37950,1,0,0:0:0:0:
460,192,38112,1,2,0:0:0:0:
256,192,38112,1,0,0:0:0:0:
358,192,38274,1,2,0:0:0:0:
153,192,38274,1,0,0:0:0:0:
51,192,38436,1,2,0:0:0:0:
460,192,38436,1,4,0:0:0:0:
256,192,38436,1,0,0:0:0:0:
256,192,38760,1,2,0:0:0:0:
358,192,38760,1,0,0:0:0:0:
153,192,38923,1,8,0:0:0:0:
51,192,38923,1,2,0:0:0:0:
460,192,39166,1,2,0:0:0:0:
358,192,39247,1,2,0:0:0:0:
153,192,39247,1,0,0:0:0:0:
153,192,39409,1,2,0:0:0:0:
358,192,39409,1,0,0:0:0:0:
256,192,39571,1,2,0:0:0:0:
51,192,39571,1,8,0:0:0:0:
358,192,39733,1,2,0:0:0:0:
460,192,39733,1,0,0:0:0:0:
153,192,39896,1,2,0:0:0:0:
51,192,39896,1,0,0:0:0:0:
358,192,40058,1,2,0:0:0:0:
256,192,40058,1,0,0:0:0:0:
460,192,40220,1,2,0:0:0:0:
51,192,40220,1,8,0:0:0:0:
358,192,40463,1,2,0:0:0:0:
256,192,40544,1,2,0:0:0:0:
153,192,40544,1,0,0:0:0:0:
256,192,40706,1,2,0:0:0:0:
153,192,40706,1,0,0:0:0:0:
358,192,40869,1,8,0:0:0:0:
460,192,40869,1,2,0:0:0:0:
153,192,41031,1,2,0:0:0:0:
51,192,41031,1,0,0:0:0:0:
256,192,41193,1,2,0:0:0:0:
358,192,41193,1,0,0:0:0:0:
460,192,41355,1,2,0:0:0:0:
153,192,41355,1,0,0:0:0:0:
51,192,41517,1,2,0:0:0:0:
358,192,41517,1,8,0:0:0:0:
153,192,41760,1,2,0:0:0:0:
256,192,41841,1,2,0:0:0:0:
460,192,41841,1,0,0:0:0:0:
460,192,42004,1,2,0:0:0:0:
256,192,42004,1,0,0:0:0:0:
51,192,42166,1,8,0:0:0:0:
153,192,42166,1,2,0:0:0:0:
358,192,42328,1,2,0:0:0:0:
460,192,42328,1,0,0:0:0:0:
256,192,42490,1,2,0:0:0:0:
153,192,42490,1,0,0:0:0:0:
51,192,42652,1,2,0:0:0:0:
460,192,42652,1,0,0:0:0:0:
358,192,42814,1,8,0:0:0:0:
256,192,42814,1,2,0:0:0:0:
51,192,43058,1,8,0:0:0:0:
153,192,43139,1,8,0:0:0:0:
460,192,43139,1,0,0:0:0:0:
153,192,43301,1,2,0:0:0:0:
358,192,43301,1,0,0:0:0:0:
358,192,43463,1,2,0:0:0:0:
256,192,43463,1,0,0:0:0:0:
256,192,43625,1,2,0:0:0:0:
51,192,43625,1,0,0:0:0:0:
460,192,43787,1,2,0:0:0:0:
51,192,43787,128,0,44436:0:0:0:0:
153,192,43787,1,0,0:0:0:0:
358,192,44436,128,0,44760:0:0:0:0:
153,192,44760,1,0,0:0:0:0:
460,192,44923,128,0,45571:0:0:0:0:
153,192,45571,1,2,0:0:0:0:
256,192,45652,1,2,0:0:0:0:
358,192,45733,1,8,0:0:0:0:
51,192,45733,1,0,0:0:0:0:
358,192,45896,1,2,0:0:0:0:
153,192,46058,1,8,0:0:0:0:
460,192,46058,1,2,0:0:0:0:
153,192,46220,1,2,0:0:0:0:
460,192,46382,1,8,0:0:0:0:
358,192,46382,1,4,0:0:0:0:
51,192,46544,1,2,0:0:0:0:
153,192,46544,1,0,0:0:0:0:
153,192,46706,1,2,0:0:0:0:
51,192,46706,1,0,0:0:0:0:
256,192,46869,1,8,0:0:0:0:
460,192,46869,1,4,0:0:0:0:
358,192,47031,1,2,0:0:0:0:
153,192,47031,1,0,0:0:0:0:
153,192,47193,1,2,0:0:0:0:
358,192,47193,1,0,0:0:0:0:
256,192,47355,1,8,0:0:0:0:
51,192,47355,1,4,0:0:0:0:
460,192,47517,1,2,0:0:0:0:
51,192,47517,128,4,47841:0:0:0:0:
358,192,47517,1,0,0:0:0:0:
460,192,47841,1,8,0:0:0:0:
256,192,47841,1,2,0:0:0:0:
460,192,48004,1,8,0:0:0:0:
256,192,48004,1,2,0:0:0:0:
460,192,48814,1,2,0:0:0:0:
51,192,48814,1,4,0:0:0:0:
256,192,48814,1,0,0:0:0:0:
358,192,49139,1,2,0:0:0:0:
460,192,49139,1,0,0:0:0:0:
153,192,49301,1,8,0:0:0:0:
51,192,49301,1,0,0:0:0:0:
358,192,49463,1,0,0:0:0:0:
256,192,49625,1,2,0:0:0:0:
153,192,49625,1,0,0:0:0:0:
358,192,49787,1,2,0:0:0:0:
460,192,49787,1,0,0:0:0:0:
51,192,49950,1,8,0:0:0:0:
153,192,49950,1,0,0:0:0:0:
256,192,50112,1,2,0:0:0:0:
460,192,50112,1,0,0:0:0:0:
51,192,50274,1,0,0:0:0:0:
358,192,50436,1,2,0:0:0:0:
460,192,50436,1,0,0:0:0:0:
256,192,50598,1,8,0:0:0:0:
153,192,50598,1,0,0:0:0:0:
358,192,50841,1,8,0:0:0:0:
153,192,50923,1,2,0:0:0:0:
51,192,50923,1,0,0:0:0:0:
460,192,51085,1,2,0:0:0:0:
358,192,51085,1,0,0:0:0:0:
153,192,51247,1,8,0:0:0:0:
256,192,51247,1,0,0:0:0:0:
51,192,51409,128,2,51733:0:0:0:0:
460,192,51409,1,0,0:0:0:0:
153,192,51733,1,2,0:0:0:0:
460,192,51896,1,8,0:0:0:0:
256,192,51896,1,0,0:0:0:0:
153,192,52139,1,8,0:0:0:0:
358,192,52220,1,2,0:0:0:0:
460,192,52220,1,0,0:0:0:0:
256,192,52382,1,2,0:0:0:0:
153,192,52544,1,8,0:0:0:0:
51,192,52544,1,0,0:0:0:0:
358,192,52706,128,2,53031:0:0:0:0:
460,192,52706,1,0,0:0:0:0:
153,192,53031,1,2,0:0:0:0:
460,192,53193,1,8,0:0:0:0:
256,192,53193,1,0,0:0:0:0:
51,192,53355,1,2,0:0:0:0:
51,192,53517,1,2,0:0:0:0:
256,192,53517,1,4,0:0:0:0:
358,192,53679,1,8,0:0:0:0:
256,192,53760,1,8,0:0:0:0:
153,192,53841,1,8,0:0:0:0:
51,192,53841,1,2,0:0:0:0:
460,192,53923,1,8,0:0:0:0:
358,192,54004,1,8,0:0:0:0:
256,192,54085,1,8,0:0:0:0:
153,192,54166,1,4,0:0:0:0:
460,192,54166,1,2,0:0:0:0:
51,192,54166,1,0,0:0:0:0:
358,192,54328,1,0,0:0:0:0:
256,192,54490,1,8,0:0:0:0:
51,192,54490,1,0,0:0:0:0:
153,192,54652,1,0,0:0:0:0:
358,192,54814,1,2,0:0:0:0:
460,192,54814,1,0,0:0:0:0:
256,192,54977,1,2,0:0:0:0:
153,192,54977,1,0,0:0:0:0:
51,192,55139,1,8,0:0:0:0:
358,192,55139,1,0,0:0:0:0:
460,192,55301,1,2,0:0:0:0:
153,192,55301,1,0,0:0:0:0:
256,192,55463,1,0,0:0:0:0:
358,192,55625,1,2,0:0:0:0:
460,192,55625,1,0,0:0:0:0:
51,192,55787,1,8,0:0:0:0:
153,192,55787,1,0,0:0:0:0:
358,192,56031,1,8,0:0:0:0:
256,192,56112,1,2,0:0:0:0:
51,192,56112,1,0,0:0:0:0:
358,192,56274,1,2,0:0:0:0:
460,192,56274,1,0,0:0:0:0:
153,192,56436,1,8,0:0:0:0:
51,192,56436,1,0,0:0:0:0:
256,192,56598,1,2,0:0:0:0:
358,192,56598,1,0,0:0:0:0:
460,192,56760,1,0,0:0:0:0:
256,192,56923,1,2,0:0:0:0:
51,192,56923,1,0,0:0:0:0:
153,192,57085,1,8,0:0:0:0:
51,192,57085,1,0,0:0:0:0:
358,192,57247,1,2,0:0:0:0:
460,192,57247,1,0,0:0:0:0:
358,192,57409,1,8,0:0:0:0:
256,192,57409,1,0,0:0:0:0:
153,192,57571,1,2,0:0:0:0:
51,192,57571,1,0,0:0:0:0:
153,192,57733,1,8,0:0:0:0:
256,192,57733,1,0,0:0:0:0:
51,192,57896,1,2,0:0:0:0:
460,192,57896,1,4,0:0:0:0:
256,192,57896,128,0,58220:0:0:0:0:
358,192,58220,1,8,0:0:0:0:
153,192,58220,1,2,0:0:0:0:
153,192,58382,1,8,0:0:0:0:
358,192,58382,1,2,0:0:0:0:
256,192,58544,1,8,0:0:0:0:
153,192,58625,1,8,0:0:0:0:
460,192,58706,1,2,0:0:0:0:
51,192,58706,1,0,0:0:0:0:
358,192,58869,1,8,0:0:0:0:
256,192,58869,1,0,0:0:0:0:
153,192,58950,1,8,0:0:0:0:
358,192,59031,1,2,0:0:0:0:
256,192,59112,1,2,0:0:0:0:
153,192,59193,1,2,0:0:0:0:
51,192,59193,1,4,0:0:0:0:
460,192,59193,1,0,0:0:0:0:
256,192,59517,1,2,0:0:0:0:
358,192,59517,1,0,0:0:0:0:
51,192,59679,1,8,0:0:0:0:
153,192,59679,1,0,0:0:0:0:
460,192,59923,1,8,0:0:0:0:
153,192,60004,1,2,0:0:0:0:
256,192,60004,1,0,0:0:0:0:
460,192,60166,1,2,0:0:0:0:
358,192,60166,1,0,0:0:0:0:
153,192,60328,1,8,0:0:0:0:
51,192,60328,1,0,0:0:0:0:
460,192,60490,1,2,0:0:0:0:
256,192,60490,1,0,0:0:0:0:
51,192,60652,1,0,0:0:0:0:
460,192,60814,1,2,0:0:0:0:
358,192,60814,1,0,0:0:0:0:
153,192,60977,1,8,0:0:0:0:
256,192,60977,1,0,0:0:0:0:
358,192,61220,1,8,0:0:0:0:
51,192,61301,1,2,0:0:0:0:
153,192,61301,1,0,0:0:0:0:
358,192,61463,1,2,0:0:0:0:
460,192,61463,1,0,0:0:0:0:
256,192,61625,1,8,0:0:0:0:
153,192,61625,1,0,0:0:0:0:
51,192,61787,1,2,0:0:0:0:
460,192,61787,1,4,0:0:0:0:
256,192,61787,128,0,62112:0:0:0:0:
358,192,62112,1,2,0:0:0:0:
460,192,62112,1,0,0:0:0:0:
51,192,62274,1,8,0:0:0:0:
153,192,62274,1,0,0:0:0:0:
358,192,62517,1,8,0:0:0:0:
256,192,62598,1,2,0:0:0:0:
51,192,62598,1,0,0:0:0:0:
256,192,62760,1,2,0:0:0:0:
460,192,62760,1,0,0:0:0:0:
153,192,62923,1,8,0:0:0:0:
358,192,62923,1,0,0:0:0:0:
153,192,63085,1,2,0:0:0:0:
51,192,63085,1,0,0:0:0:0:
460,192,63247,1,8,0:0:0:0:
256,192,63247,1,0,0:0:0:0:
460,192,63409,1,2,0:0:0:0:
358,192,63409,1,0,0:0:0:0:
51,192,63571,1,8,0:0:0:0:
153,192,63571,1,0,0:0:0:0:
51,192,63733,1,8,0:0:0:0:
460,192,63733,1,0,0:0:0:0:
358,192,63814,1,8,0:0:0:0:
153,192,63896,1,2,0:0:0:0:
256,192,63977,1,8,0:0:0:0:
460,192,64058,1,2,0:0:0:0:
358,192,64139,1,2,0:0:0:0:
51,192,64220,1,8,0:0:0:0:
153,192,64301,1,8,0:0:0:0:
460,192,64382,1,4,0:0:0:0:
256,192,64382,1,2,0:0:0:0:
358,192,64382,1,0,0:0:0:0:
51,192,64706,1,2,0:0:0:0:
153,192,64706,1,0,0:0:0:0:
358,192,64869,1,8,0:0:0:0:
460,192,64869,1,0,0:0:0:0:
153,192,65112,1,8,0:0:0:0:
256,192,65193,1,2,0:0:0:0:
460,192,65193,1,0,0:0:0:0:
153,192,65355,1,2,0:0:0:0:
51,192,65355,1,0,0:0:0:0:
358,192,65517,1,8,0:0:0:0:
460,192,65517,1,0,0:0:0:0:
256,192,65679,1,0,0:0:0:0:
153,192,65841,1,2,0:0:0:0:
51,192,65841,1,0,0:0:0:0:
256,192,66004,1,2,0:0:0:0:
358,192,66004,1,0,0:0:0:0:
51,192,66166,1,8,0:0:0:0:
460,192,66166,1,0,0:0:0:0:
153,192,66328,1,2,0:0:0:0:
256,192,66328,1,0,0:0:0:0:
358,192,66490,1,0,0:0:0:0:
460,192,66652,1,2,0:0:0:0:
153,192,66652,1,0,0:0:0:0:
51,192,66814,1,8,0:0:0:0:
256,192,66814,1,0,0:0:0:0:
460,192,66977,1,8,0:0:0:0:
358,192,67058,1,8,0:0:0:0:
256,192,67139,1,2,0:0:0:0:
153,192,67139,1,4,0:0:0:0:
358,192,67301,1,2,0:0:0:0:
460,192,67301,1,0,0:0:0:0:
153,192,67463,1,8,0:0:0:0:
51,192,67463,1,0,0:0:0:0:
256,192,67625,1,2,0:0:0:0:
358,192,67625,1,0,0:0:0:0:
460,192,67787,1,8,0:0:0:0:
51,192,67787,1,0,0:0:0:0:
153,192,67950,1,2,0:0:0:0:
256,192,67950,1,0,0:0:0:0:
358,192,68112,1,8,0:0:0:0:
460,192,68112,1,0,0:0:0:0:
256,192,68274,1,2,0:0:0:0:
51,192,68274,1,4,0:0:0:0:
153,192,68274,1,0,0:0:0:0:
153,192,68598,1,8,0:0:0:0:
358,192,68598,1,2,0:0:0:0:
153,192,68760,1,8,0:0:0:0:
358,192,68760,1,2,0:0:0:0:
256,192,68923,1,8,0:0:0:0:
358,192,69004,1,8,0:0:0:0:
460,192,69085,1,2,0:0:0:0:
153,192,69085,1,0,0:0:0:0:
51,192,69247,1,2,0:0:0:0:
153,192,69328,1,2,0:0:0:0:
256,192,69409,1,2,0:0:0:0:
460,192,69409,1,0,0:0:0:0:
358,192,69571,1,2,0:0:0:0:
153,192,69571,1,0,0:0:0:0:
460,192,69733,1,2,0:0:0:0:
51,192,69733,128,4,70058:0:0:0:0:
256,192,69733,1,0,0:0:0:0:
358,192,70058,1,2,0:0:0:0:
256,192,70058,1,0,0:0:0:0:
153,192,70220,1,8,0:0:0:0:
51,192,70220,1,0,0:0:0:0:
460,192,70382,1,0,0:0:0:0:
51,192,70544,1,2,0:0:0:0:
256,192,70544,1,0,0:0:0:0:
460,192,70706,1,8,0:0:0:0:
358,192,70706,128,4,71031:0:0:0:0:
153,192,70706,1,0,0:0:0:0:
51,192,71031,1,2,0:0:0:0:
153,192,71031,1,0,0:0:0:0:
460,192,71193,1,8,0:0:0:0:
256,192,71193,128,4,71517:0:0:0:0:
358,192,71193,1,0,0:0:0:0:
153,192,71517,1,2,0:0:0:0:
51,192,71517,1,0,0:0:0:0:
358,192,71679,1,8,0:0:0:0:
460,192,71679,1,0,0:0:0:0:
153,192,71760,1,8,0:0:0:0:
256,192,71841,1,8,0:0:0:0:
358,192,71923,1,8,0:0:0:0:
51,192,72004,1,8,0:0:0:0:
460,192,72004,1,2,0:0:0:0:
153,192,72085,1,8,0:0:0:0:
358,192,72166,1,8,0:0:0:0:
256,192,72247,1,8,0:0:0:0:
51,192,72328,1,2,0:0:0:0:
460,192,72328,1,4,0:0:0:0:
153,192,72328,128,0,72652:0:0:0:0:
358,192,72652,1,2,0:0:0:0:
460,192,72652,1,0,0:0:0:0:
256,192,72814,1,8,0:0:0:0:
51,192,72814,1,0,0:0:0:0:
358,192,72977,1,0,0:0:0:0:
153,192,73139,1,2,0:0:0:0:
51,192,73139,1,0,0:0:0:0:
256,192,73301,1,8,0:0:0:0:
358,192,73301,1,0,0:0:0:0:
51,192,73463,1,4,0:0:0:0:
460,192,73463,128,2,73787:0:0:0:0:
153,192,73463,1,0,0:0:0:0:
153,192,73787,1,2,0:0:0:0:
256,192,73787,1,0,0:0:0:0:
358,192,73950,1,8,0:0:0:0:
460,192,73950,1,0,0:0:0:0:
256,192,74112,1,8,0:0:0:0:
153,192,74193,1,8,0:0:0:0:
51,192,74274,1,8,0:0:0:0:
460,192,74274,1,0,0:0:0:0:
358,192,74436,1,2,0:0:0:0:
256,192,74436,1,0,0:0:0:0:
153,192,74598,1,8,0:0:0:0:
51,192,74598,1,4,0:0:0:0:
358,192,74923,128,2,75247:0:0:0:0:
460,192,74923,1,4,0:0:0:0:
153,192,74923,1,0,0:0:0:0:
51,192,75247,1,2,0:0:0:0:
153,192,75247,1,0,0:0:0:0:
256,192,75409,128,8,75733:0:0:0:0:
460,192,75409,1,4,0:0:0:0:
358,192,75409,1,0,0:0:0:0:
51,192,75733,1,2,0:0:0:0:
358,192,75733,1,0,0:0:0:0:
153,192,75896,128,4,76220:0:0:0:0:
460,192,75896,1,8,0:0:0:0:
256,192,75896,1,0,0:0:0:0:
358,192,76220,1,2,0:0:0:0:
460,192,76220,1,0,0:0:0:0:
51,192,76382,1,8,0:0:0:0:
153,192,76382,1,0,0:0:0:0:
256,192,76544,1,2,0:0:0:0:
358,192,76544,1,0,0:0:0:0:
460,192,76706,1,2,0:0:0:0:
51,192,76706,1,0,0:0:0:0:
153,192,76869,1,8,0:0:0:0:
256,192,76869,1,4,0:0:0:0:
358,192,77031,1,2,0:0:0:0:
460,192,77031,1,0,0:0:0:0:
51,192,77193,1,8,0:0:0:0:
153,192,77193,1,0,0:0:0:0:
256,192,77355,1,2,0:0:0:0:
51,192,77355,1,4,0:0:0:0:
460,192,77355,128,0,78652:0:0:0:0:
51,192,78977,5,8,0:0:0:0:
256,192,78977,1,2,0:0:0:0:
256,192,79139,1,8,0:0:0:0:
51,192,79139,1,2,0:0:0:0:
358,192,79463,1,2,0:0:0:0:
153,192,79463,1,8,0:0:0:0:
153,192,79625,1,2,0:0:0:0:
358,192,79625,1,8,0:0:0:0:
256,192,79950,1,2,0:0:0:0:
51,192,79950,1,4,0:0:0:0:
460,192,79950,128,0,80436:0:0:0:0:
51,192,80274,1,2,0:0:0:0:
153,192,80436,1,8,0:0:0:0:
256,192,80436,1,0,0:0:0:0:
358,192,80598,1,0,0:0:0:0:
51,192,80760,1,2,0:0:0:0:
153,192,80760,1,0,0:0:0:0:
358,192,80923,1,2,0:0:0:0:
256,192,80923,1,0,0:0:0:0:
51,192,81085,1,8,0:0:0:0:
460,192,81085,1,0,0:0:0:0:
256,192,81247,1,2,0:0:0:0:
153,192,81247,1,0,0:0:0:0:
358,192,81409,1,0,0:0:0:0:
153,192,81571,1,2,0:0:0:0:
460,192,81571,1,0,0:0:0:0:
51,192,81733,1,8,0:0:0:0:
256,192,81733,1,0,0:0:0:0:
460,192,81977,1,0,0:0:0:0:
256,192,82058,1,2,0:0:0:0:
358,192,82058,1,0,0:0:0:0:
51,192,82220,1,2,0:0:0:0:
153,192,82220,1,0,0:0:0:0:
358,192,82382,1,8,0:0:0:0:
460,192,82382,1,0,0:0:0:0:
51,192,82544,1,2,0:0:0:0:
256,192,82544,128,0,82869:0:0:0:0:
153,192,82706,1,0,0:0:0:0:
460,192,82869,1,2,0:0:0:0:
358,192,82869,1,0,0:0:0:0:
153,192,83031,1,8,0:0:0:0:
256,192,83031,1,0,0:0:0:0:
460,192,83193,1,2,0:0:0:0:
358,192,83193,1,0,0:0:0:0:
51,192,83355,1,8,0:0:0:0:
153,192,83355,1,0,0:0:0:0:
358,192,83517,1,2,0:0:0:0:
256,192,83517,1,0,0:0:0:0:
153,192,83679,1,8,0:0:0:0:
460,192,83679,1,0,0:0:0:0:
256,192,83841,1,2,0:0:0:0:
460,192,83841,1,4,0:0:0:0:
51,192,83841,128,0,84166:0:0:0:0:
358,192,84166,1,2,0:0:0:0:
256,192,84166,1,8,0:0:0:0:
153,192,84328,1,2,0:0:0:0:
51,192,84328,1,8,0:0:0:0:
460,192,84490,1,8,0:0:0:0:
358,192,84571,1,8,0:0:0:0:
256,192,84652,1,8,0:0:0:0:
51,192,84652,1,0,0:0:0:0:
153,192,84814,1,2,0:0:0:0:
358,192,84814,1,0,0:0:0:0:
256,192,84977,1,2,0:0:0:0:
460,192,84977,1,0,0:0:0:0:
51,192,85139,1,2,0:0:0:0:
153,192,85139,1,4,0:0:0:0:
460,192,85139,128,0,87247:0:0:0:0:
153,192,87247,1,0,0:0:0:0:
