osu file format v14

[General]
AudioFilename: audio.mp3
AudioLeadIn: 0
PreviewTime: 48166
Countdown: 0
SampleSet: Normal
StackLeniency: 0.7
Mode: 1
LetterboxInBreaks: 0
WidescreenStoryboard: 1

[Editor]
DistanceSpacing: 0.5
BeatDivisor: 2
GridSize: 32
TimelineZoom: 0.4999998

[Metadata]
Title:Kaikai Kitan (TV Size)
TitleUnicode:廻廻奇譚 (TV Size)
Artist:Eve
ArtistUnicode:Eve
Creator:Servatory
Version:Kantan
Source:呪術廻戦
Tags:opening op anime japanese sorcery fight jujutsu kaisen j-pop pop jpop rock j-rock jrock cycle of mystery
BeatmapID:3198647
BeatmapSetID:1566548

[Difficulty]
HPDrainRate:7.5
CircleSize:4
OverallDifficulty:2
ApproachRate:9
SliderMultiplier:1.4
SliderTickRate:1

[Events]
//Background and Video events
0,0,"jujutsubg.jpg",0,70
Video,-580,"output.mp4"
//Break Periods
//Storyboard Layer 0 (Background)
//Storyboard Layer 1 (Fail)
//Storyboard Layer 2 (Pass)
//Storyboard Layer 3 (Foreground)
//Storyboard Layer 4 (Overlay)
//Storyboard Sound Samples

[TimingPoints]
10,324.324324324324,4,1,0,60,1,0
2280,324.324324324324,4,1,0,60,1,0
2280,-111.111111111111,4,1,0,60,0,0
5523,324.324324324324,4,1,0,60,1,0
5523,-111.111111111111,4,1,0,60,0,0
17847,324.324324324324,4,1,0,60,1,0
17847,-111.111111111111,4,1,0,60,0,0
48819,-111.111111111111,4,1,0,75,0,1
69738,-111.111111111111,4,1,0,75,0,0
70053,-111.111111111111,4,1,0,60,0,0

[HitObjects]
256,256,2280,5,12,0:0:0:0:
256,192,2766,1,0,0:0:0:0:
256,192,3252,1,8,0:0:0:0:
256,192,3739,1,0,0:0:0:0:
256,256,4225,1,12,0:0:0:0:
256,256,5523,1,4,0:0:0:0:
256,192,5847,1,8,0:0:0:0:
256,192,6496,1,8,0:0:0:0:
256,192,6820,1,0,0:0:0:0:
256,192,7144,1,8,0:0:0:0:
256,192,7793,1,8,0:0:0:0:
256,192,8442,1,8,0:0:0:0:
256,192,8766,1,0,0:0:0:0:
256,192,9090,1,8,0:0:0:0:
256,192,9739,1,8,0:0:0:0:
256,192,10063,1,0,0:0:0:0:
256,256,10712,1,12,0:0:0:0:
256,192,11685,1,8,0:0:0:0:
256,192,12009,1,0,0:0:0:0:
256,192,12333,1,8,0:0:0:0:
256,192,12982,1,0,0:0:0:0:
256,192,13631,1,8,0:0:0:0:
256,192,13955,1,0,0:0:0:0:
256,256,14441,1,12,0:0:0:0:
256,192,14928,1,8,0:0:0:0:
256,192,15252,1,0,0:0:0:0:
256,256,15901,1,12,0:0:0:0:
256,192,16225,12,8,17523,0:0:0:0:
256,192,17847,5,0,0:0:0:0:
256,192,18496,1,0,0:0:0:0:
256,192,19144,1,0,0:0:0:0:
256,192,20442,1,0,0:0:0:0:
256,192,21090,1,0,0:0:0:0:
256,192,21739,1,0,0:0:0:0:
256,192,23036,1,0,0:0:0:0:
256,192,23685,1,0,0:0:0:0:
256,192,24334,1,0,0:0:0:0:
256,192,25630,1,8,0:0:0:0:
256,192,26279,1,0,0:0:0:0:
256,256,26765,1,12,0:0:0:0:
256,192,28225,1,0,0:0:0:0:
256,192,28549,1,8,0:0:0:0:
256,192,28874,1,0,0:0:0:0:
256,192,29360,1,8,0:0:0:0:
256,192,29846,1,8,0:0:0:0:
256,192,30171,1,0,0:0:0:0:
256,192,30657,1,8,0:0:0:0:
256,192,31144,1,0,0:0:0:0:
256,192,31469,1,8,0:0:0:0:
256,192,31955,1,8,0:0:0:0:
256,192,32442,1,8,0:0:0:0:
256,192,32766,1,0,0:0:0:0:
256,192,33414,1,0,0:0:0:0:
256,192,33738,1,8,0:0:0:0:
256,192,34063,1,0,0:0:0:0:
256,192,34549,1,8,0:0:0:0:
256,192,35036,1,0,0:0:0:0:
256,192,35360,1,8,0:0:0:0:
256,192,35846,1,8,0:0:0:0:
256,192,36333,1,8,0:0:0:0:
256,192,36657,1,0,0:0:0:0:
256,192,37144,1,8,0:0:0:0:
256,192,37630,1,0,0:0:0:0:
256,192,37955,1,8,0:0:0:0:
256,256,38441,1,4,0:0:0:0:
256,192,39577,1,8,0:0:0:0:
256,192,39901,1,0,0:0:0:0:
256,192,40550,1,8,0:0:0:0:
256,192,41036,1,0,0:0:0:0:
256,192,42171,1,0,0:0:0:0:
256,192,42496,1,8,0:0:0:0:
256,192,42819,1,0,0:0:0:0:
256,192,43144,1,8,0:0:0:0:
256,256,43792,1,12,0:0:0:0:
256,192,45739,1,8,0:0:0:0:
256,192,46063,1,8,0:0:0:0:
256,192,46388,1,0,0:0:0:0:
256,192,46874,1,8,0:0:0:0:
256,192,47360,1,0,0:0:0:0:
256,192,47846,1,8,0:0:0:0:
256,256,48819,1,4,0:0:0:0:
256,192,49144,1,8,0:0:0:0:
256,192,49631,1,0,0:0:0:0:
256,192,50117,1,8,0:0:0:0:
256,192,50441,1,8,0:0:0:0:
256,192,50928,1,0,0:0:0:0:
256,192,51414,1,8,0:0:0:0:
256,192,51901,1,8,0:0:0:0:
256,192,52225,1,0,0:0:0:0:
256,192,52711,1,8,0:0:0:0:
256,192,53198,1,0,0:0:0:0:
256,192,53522,1,8,0:0:0:0:
256,192,54171,1,0,0:0:0:0:
256,192,54495,1,0,0:0:0:0:
256,192,54819,1,8,0:0:0:0:
256,192,55306,1,0,0:0:0:0:
256,192,55792,1,8,0:0:0:0:
256,192,56117,1,0,0:0:0:0:
256,192,56603,1,0,0:0:0:0:
256,192,57090,1,0,0:0:0:0:
256,192,57415,1,8,0:0:0:0:
256,256,57901,1,12,0:0:0:0:
256,256,59198,1,12,0:0:0:0:
256,192,59522,1,8,0:0:0:0:
256,192,60009,1,0,0:0:0:0:
256,192,60495,1,8,0:0:0:0:
256,192,60819,1,8,0:0:0:0:
256,192,61306,1,0,0:0:0:0:
256,256,61792,1,12,0:0:0:0:
256,192,62279,1,0,0:0:0:0:
256,192,62604,1,8,0:0:0:0:
256,192,63252,1,8,0:0:0:0:
256,192,63576,1,8,0:0:0:0:
256,192,63901,1,0,0:0:0:0:
256,256,64387,1,12,0:0:0:0:
256,192,65523,1,8,0:0:0:0:
256,192,65847,1,8,0:0:0:0:
256,192,66496,1,0,0:0:0:0:
256,192,66819,1,0,0:0:0:0:
256,256,67144,1,12,0:0:0:0:
256,192,67793,1,0,0:0:0:0:
256,256,68279,1,12,0:0:0:0:
256,192,68765,1,0,0:0:0:0:
256,192,69090,1,8,0:0:0:0:
256,192,69414,1,8,0:0:0:0:
256,256,69739,1,4,0:0:0:0:
256,192,70712,1,8,0:0:0:0:
256,192,71198,1,8,0:0:0:0:
256,192,71684,1,8,0:0:0:0:
256,192,72009,1,8,0:0:0:0:
256,192,72334,1,0,0:0:0:0:
256,192,72982,1,0,0:0:0:0:
256,192,73468,1,8,0:0:0:0:
256,192,73955,1,8,0:0:0:0:
256,192,74279,1,0,0:0:0:0:
256,256,74928,1,12,0:0:0:0:
256,192,75414,1,8,0:0:0:0:
256,256,75901,1,4,0:0:0:0:
256,192,76387,1,8,0:0:0:0:
256,192,76874,1,0,0:0:0:0:
256,256,77360,1,12,0:0:0:0:
256,256,79955,1,4,0:0:0:0:
256,192,80441,1,8,0:0:0:0:
256,192,81090,1,8,0:0:0:0:
256,192,81414,1,0,0:0:0:0:
256,192,81738,1,8,0:0:0:0:
256,192,82387,1,8,0:0:0:0:
256,192,83036,1,8,0:0:0:0:
256,192,83360,1,0,0:0:0:0:
256,256,83846,1,12,0:0:0:0:
256,192,84333,1,8,0:0:0:0:
256,192,84657,1,0,0:0:0:0:
256,256,85144,1,12,0:0:0:0:
256,192,85468,12,0,87252,0:0:0:0:
