osu file format v14

[General]
AudioFilename: audio.mp3
AudioLeadIn: 0
PreviewTime: 48085
Countdown: 0
SampleSet: Soft
StackLeniency: 0.4
Mode: 2
LetterboxInBreaks: 0
WidescreenStoryboard: 1

[Editor]
Bookmarks: 28220
DistanceSpacing: 1.1
BeatDivisor: 4
GridSize: 16
TimelineZoom: 2.14

[Metadata]
Title:Kaikai Kitan (TV Size)
TitleUnicode:廻廻奇譚 (TV Size)
Artist:Eve
ArtistUnicode:Eve
Creator:Secre
Version:Cup
Source:呪術廻戦
Tags:chickenbible greaper utaite sorcery fight toys factory japanese anime op opening jujutsu kaisen jrock j-pop pop j-rock pop-rock rock
BeatmapID:2748079
BeatmapSetID:1316755

[Difficulty]
HPDrainRate:2
CircleSize:2.5
OverallDifficulty:6
ApproachRate:6
SliderMultiplier:1.5
SliderTickRate:1

[Events]
//Background and Video events
0,0,"god hes so cute just like pekora.jpg",0,0
//Break Periods
//Storyboard Layer 0 (Background)
//Storyboard Layer 1 (Fail)
//Storyboard Layer 2 (Pass)
//Storyboard Layer 3 (Foreground)
//Storyboard Layer 4 (Overlay)
//Storyboard Sound Samples

[TimingPoints]
2275,324.324324324324,4,2,1,70,1,0
5518,324.324324324324,4,2,1,75,1,0
15896,-181.818181818182,4,2,1,75,0,0
17842,324.324324324324,4,2,1,60,1,0
17842,-100,4,2,1,60,0,0
26760,-100,4,2,1,70,0,0
48814,-100,4,2,1,80,0,1
49139,-100,4,2,1,80,0,1
50112,-100,4,2,1,80,0,1
50436,-100,4,2,1,80,0,1
54490,-100,4,2,1,80,0,1
55625,-100,4,2,1,80,0,1
57896,-100,4,2,1,80,0,0
59193,-100,4,2,1,80,0,1
59517,-100,4,2,1,80,0,1
59841,-100,4,2,1,80,0,1
60490,-100,4,2,1,80,0,1
60814,-100,4,2,1,80,0,1
61139,-100,4,2,1,80,0,1
67139,-100,4,2,1,80,0,1
67463,-100,4,2,1,80,0,1
67787,-100,4,2,1,80,0,1
68598,-100,4,2,1,80,0,1
69733,-100,4,2,1,80,0,0
71517,-86.9565217391304,4,2,1,80,0,0
72328,-100,4,2,1,80,0,0
74923,-100,4,2,1,80,0,0
77355,-117.647058823529,4,2,1,80,0,0
78977,-100,4,2,1,80,0,0
85625,-100,4,2,1,60,0,0
86598,-100,4,2,1,40,0,0
87247,-100,4,2,1,20,0,0

[Colours]
Combo1 : 85,85,85
Combo2 : 139,31,31
Combo3 : 254,121,106

[HitObjects]
371,183,2275,5,8,0:0:0:0:
371,265,2437,1,8,3:0:0:0:
297,266,2599,1,8,3:0:0:0:
371,265,2761,1,8,0:0:0:0:
371,265,3085,1,8,3:0:0:0:
297,266,3247,6,0,L|116:266,1,150,8|8,0:0|3:0,0:0:0:0:
218,202,3734,1,8,0:0:0:0:
293,200,3896,1,2,3:0:0:0:
218,202,4058,1,8,3:0:0:0:
143,202,4220,1,8,0:0:0:0:
249,130,4464,1,8,0:0:0:0:
355,121,4707,1,8,0:0:0:0:
355,121,5518,5,4,0:0:0:0:
355,121,5680,1,0,0:0:0:0:
281,154,5842,1,8,0:0:0:0:
207,157,6004,1,0,3:0:0:0:
207,157,6328,6,0,L|375:157,2,150,8|8|8,3:0|3:0|3:0,0:0:0:0:
57,134,7301,1,0,3:0:0:0:
130,130,7463,1,8,3:0:0:0:
203,135,7626,1,8,3:0:0:0:
354,211,7950,6,0,L|175:211,1,150,8|8,3:0|3:0,0:0:0:0:
132,146,8436,1,8,0:0:0:0:
274,129,8761,1,8,3:0:0:0:
349,161,8923,1,8,3:0:0:0:
423,161,9085,1,8,0:0:0:0:
349,161,9247,6,0,L|175:161,1,150,8|8,3:0|3:0,0:0:0:0:
124,89,9734,1,8,0:0:0:0:
273,151,10058,1,8,0:0:0:0:
349,161,10220,1,0,3:0:0:0:
273,151,10382,1,8,3:0:0:0:
199,138,10545,5,8,0:0:0:0:
413,101,11031,1,8,0:0:0:0:
413,101,11193,1,0,3:0:0:0:
272,155,11517,6,0,L|102:155,2,150,8|8|8,3:0|3:0|3:0,0:0:0:0:
418,153,12490,1,0,3:0:0:0:
345,153,12653,1,8,3:0:0:0:
271,154,12815,1,8,3:0:0:0:
122,204,13139,6,0,L|277:204,1,150,8|8,3:0|3:0,0:0:0:0:
345,153,13626,1,8,0:0:0:0:
198,129,13950,1,8,3:0:0:0:
125,127,14112,1,8,3:0:0:0:
198,129,14274,1,8,0:0:0:0:
274,129,14436,5,12,0:0:0:0:
421,175,14761,1,8,3:0:0:0:
349,176,14923,1,8,0:0:0:0:
276,178,15085,1,8,0:0:0:0:
349,176,15247,1,8,0:0:0:0:
421,175,15409,1,0,3:0:0:0:
349,176,15572,1,8,3:0:0:0:
180,78,15896,5,4,0:0:0:0:
256,192,16220,12,0,17517,0:0:0:0:
243,127,17842,6,0,L|421:129,2,150,0|0|0,3:0|3:0|3:0,0:0:0:0:
104,217,18814,1,0,3:0:0:0:
100,142,18976,1,0,0:0:0:0:
247,118,19301,5,0,0:0:0:0:
179,114,19463,1,0,3:0:0:0:
110,97,19625,1,0,0:0:0:0:
179,114,19787,1,0,3:0:0:0:
247,118,19950,1,0,0:0:0:0:
385,139,20274,1,0,0:0:0:0:
385,139,20436,5,0,3:0:0:0:
242,179,20760,1,0,3:0:0:0:
242,179,20923,1,0,0:0:0:0:
91,135,21247,1,0,0:0:0:0:
91,135,21409,1,0,3:0:0:0:
162,127,21571,6,0,L|335:129,1,150
381,78,22058,1,0,3:0:0:0:
244,63,22382,1,0,3:0:0:0:
101,68,22706,1,0,3:0:0:0:
244,63,23031,6,0,L|408:66,1,150,0|0,3:0|3:0,0:0:0:0:
260,165,23679,1,0,3:0:0:0:
260,165,23841,1,0,0:0:0:0:
121,120,24166,1,0,0:0:0:0:
121,120,24328,5,0,3:0:0:0:
258,108,24652,1,0,3:0:0:0:
258,108,24814,1,0,0:0:0:0:
405,112,25139,1,0,0:0:0:0:
336,75,25301,1,0,3:0:0:0:
266,56,25463,1,0,0:0:0:0:
336,75,25625,6,0,L|470:80,2,112.5,0|0|0,3:0|0:0|0:0,0:0:0:0:
265,109,26274,1,0,3:0:0:0:
265,109,26598,1,0,3:0:0:0:
342,111,26760,6,0,L|506:113,1,150,8|8,0:0|3:0,0:0:0:0:
415,196,27247,1,8,3:0:0:0:
268,153,27571,1,8,0:0:0:0:
196,152,27733,1,8,0:0:0:0:
413,219,28220,5,4,0:0:0:0:
411,145,28382,1,2,3:0:0:0:
341,148,28544,1,8,0:0:0:0:
200,250,28869,1,8,3:0:0:0:
131,250,29031,1,8,3:0:0:0:
273,174,29355,1,8,0:0:0:0:
343,169,29517,6,0,L|483:169,2,112.5,2|0|0,3:0|3:0|3:0,0:0:0:0:
273,174,30166,1,8,3:0:0:0:
201,174,30328,1,8,3:0:0:0:
336,222,30652,6,0,L|507:227,1,150,8|8,0:0|3:0,0:0:0:0:
412,161,31139,1,8,0:0:0:0:
265,128,31463,1,8,3:0:0:0:
191,130,31625,1,8,3:0:0:0:
335,119,31950,6,0,P|390:174|323:196,1,150,8|8,0:0|3:0,0:0:0:0:
283,200,32436,1,8,0:0:0:0:
137,184,32760,2,0,L|346:189,1,150,8|8,3:0|0:0,0:0:0:0:
421,177,33409,5,8,3:0:0:0:
351,174,33571,1,2,3:0:0:0:
281,173,33733,1,8,0:0:0:0:
137,206,34058,1,8,3:0:0:0:
209,203,34220,1,8,3:0:0:0:
355,205,34544,1,8,0:0:0:0:
283,203,34706,5,2,3:0:0:0:
139,152,35031,1,8,0:0:0:0:
210,147,35193,1,0,3:0:0:0:
358,155,35517,1,8,3:0:0:0:
358,155,35679,1,2,3:0:0:0:
218,199,36004,5,2,3:0:0:0:
218,199,36166,1,8,3:0:0:0:
355,146,36490,1,2,3:0:0:0:
284,131,36652,1,8,3:0:0:0:
215,122,36814,1,8,3:0:0:0:
284,131,36977,1,2,3:0:0:0:
355,146,37139,5,8,0:0:0:0:
355,146,37625,1,8,0:0:0:0:
284,131,37787,1,0,3:0:0:0:
215,121,37950,2,0,L|51:119,1,150,8|8,3:0|0:0,0:0:0:0:
141,191,38436,6,0,L|342:194,1,150,4|0,0:0|3:0,0:0:0:0:
216,122,38923,1,8,0:0:0:0:
71,195,39247,2,0,L|66:29,1,150,8|8,3:0|0:0,0:0:0:0:
218,94,39896,6,0,L|380:93,1,150,8|8,3:0|0:0,0:0:0:0:
293,168,40382,1,0,3:0:0:0:
219,182,40544,2,0,L|211:23,1,150,8|8,3:0|0:0,0:0:0:0:
287,47,41031,6,0,L|468:48,1,150,0|0,3:0|3:0,0:0:0:0:
222,125,41841,1,8,3:0:0:0:
150,128,42004,1,0,3:0:0:0:
222,125,42166,1,8,0:0:0:0:
359,122,42490,6,0,L|369:282,1,150,8|8,3:0|0:0,0:0:0:0:
289,264,42977,1,8,0:0:0:0:
213,248,43139,1,8,0:0:0:0:
213,248,43301,1,8,3:0:0:0:
289,264,43463,1,0,3:0:0:0:
363,269,43625,1,8,3:0:0:0:
431,280,43787,6,0,P|469:210|409:151,1,150,4|0,0:0|0:0,0:0:0:0:
280,152,44436,2,0,L|127:152,1,150
277,234,45085,6,0,L|429:235,1,150
356,168,45571,1,8,3:0:0:0:
280,163,45733,1,8,0:0:0:0:
212,127,45896,1,8,3:0:0:0:
137,167,46058,1,8,0:0:0:0:
137,167,46220,1,8,3:0:0:0:
286,121,46544,5,0,3:0:0:0:
361,124,46706,1,8,3:0:0:0:
218,205,47031,1,8,3:0:0:0:
146,208,47193,1,8,3:0:0:0:
218,205,47355,1,8,0:0:0:0:
289,209,47517,6,0,L|468:207,1,150,0|8,3:0|0:0,0:0:0:0:
366,139,48004,1,8,0:0:0:0:
100,224,48652,1,0,0:0:0:0:
95,144,48814,5,12,0:0:0:0:
251,145,49139,2,0,L|447:148,1,150,8|2,3:0|3:0,0:0:0:0:
328,211,49625,1,0,3:0:0:0:
189,326,49950,1,8,0:0:0:0:
191,244,50112,5,8,3:0:0:0:
341,219,50436,2,0,L|527:220,1,150,8|2,3:0|3:0,0:0:0:0:
415,143,50923,1,0,3:0:0:0:
341,143,51085,1,8,3:0:0:0:
188,221,51409,6,0,L|39:221,1,150,8|8,3:0|3:0,0:0:0:0:
125,147,51896,1,8,0:0:0:0:
286,172,52220,1,0,3:0:0:0:
208,172,52382,1,8,3:0:0:0:
138,148,52544,1,8,0:0:0:0:
225,150,52706,6,0,L|403:148,1,150,8|8,3:0|3:0,0:0:0:0:
299,84,53193,1,8,0:0:0:0:
137,207,53517,6,0,L|14:208,2,112.5,2|0|8,3:0|3:0|0:0,0:0:0:0:
295,159,54328,1,2,3:0:0:0:
220,130,54490,1,8,0:0:0:0:
143,121,54652,1,2,3:0:0:0:
220,130,54814,6,0,L|344:133,2,112.5,0|0|8,3:0|0:0|3:0,0:0:0:0:
73,156,55625,1,8,3:0:0:0:
73,156,55787,1,8,0:0:0:0:
148,157,55950,1,2,3:0:0:0:
226,162,56112,5,8,3:0:0:0:
303,162,56274,1,8,3:0:0:0:
226,162,56436,1,8,0:0:0:0:
148,157,56598,1,8,3:0:0:0:
148,157,56923,5,0,3:0:0:0:
226,162,57085,2,0,L|400:160,2,150,8|8|8,0:0|0:0|0:0,0:0:0:0:
139,171,57896,6,0,P|98:137|160:68,1,150,12|8,0:0|3:0,0:0:0:0:
227,64,58382,1,8,3:0:0:0:
366,73,58706,1,8,0:0:0:0:
437,75,58869,1,8,0:0:0:0:
366,73,59031,1,8,3:0:0:0:
282,128,59193,6,0,L|120:128,1,150,12|8,0:0|3:0,0:0:0:0:
204,56,59679,1,8,0:0:0:0:
347,240,60004,1,0,3:0:0:0:
423,241,60166,1,8,3:0:0:0:
347,240,60328,1,8,0:0:0:0:
277,232,60490,6,0,L|107:227,1,150,8|8,3:0|3:0,0:0:0:0:
275,146,61139,1,2,3:0:0:0:
345,143,61301,1,0,3:0:0:0:
345,143,61463,1,8,3:0:0:0:
275,146,61625,1,8,0:0:0:0:
205,139,61787,6,0,L|35:135,1,150,8|8,3:0|3:0,0:0:0:0:
128,67,62274,1,8,0:0:0:0:
275,80,62598,1,0,3:0:0:0:
421,121,62923,1,8,0:0:0:0:
275,80,63247,5,2,3:0:0:0:
128,67,63571,1,8,0:0:0:0:
128,67,63733,1,8,0:0:0:0:
203,69,63896,2,0,L|354:70,1,150,8|8,0:0|0:0,0:0:0:0:
267,185,64382,6,0,L|260:34,1,150,0|8,3:0|3:0,0:0:0:0:
332,33,64869,1,8,0:0:0:0:
195,141,65193,1,8,3:0:0:0:
127,141,65355,1,8,3:0:0:0:
127,141,65517,1,8,0:0:0:0:
195,141,65679,1,2,3:0:0:0:
267,142,65841,5,8,3:0:0:0:
336,145,66004,1,8,3:0:0:0:
203,232,66328,1,8,3:0:0:0:
203,232,66490,1,0,3:0:0:0:
342,232,66814,1,8,0:0:0:0:
342,232,66977,1,8,0:0:0:0:
257,174,67139,5,12,0:0:0:0:
186,171,67301,1,8,3:0:0:0:
257,174,67463,1,8,0:0:0:0:
328,171,67625,1,8,3:0:0:0:
257,174,67787,2,0,L|90:173,1,150,8|8,0:0|0:0,0:0:0:0:
176,105,68274,1,8,3:0:0:0:
332,97,68598,5,8,3:0:0:0:
468,103,68923,1,8,0:0:0:0:
332,97,69247,1,8,3:0:0:0:
188,108,69571,1,8,3:0:0:0:
107,154,69733,6,0,P|60:116|136:68,1,150,12|8,0:0|3:0,0:0:0:0:
189,70,70220,2,0,L|353:72,1,150,8|8,0:0|3:0,0:0:0:0:
267,171,70706,1,8,0:0:0:0:
127,176,71031,5,8,3:0:0:0:
199,178,71193,2,0,L|373:180,1,150,8|0,0:0|3:0,0:0:0:0:
271,113,71679,1,8,0:0:0:0:
109,106,72004,1,8,3:0:0:0:
260,179,72328,5,8,3:0:0:0:
405,196,72652,1,2,3:0:0:0:
405,196,72814,1,8,0:0:0:0:
328,200,72977,2,0,L|142:201,1,150,2|8,3:0|0:0,0:0:0:0:
255,144,73463,1,12,3:0:0:0:
400,144,73787,5,8,3:0:0:0:
255,144,74112,1,8,0:0:0:0:
255,144,74274,1,8,0:0:0:0:
397,104,74598,1,8,0:0:0:0:
255,144,74923,6,0,L|86:144,1,150,12|8,3:0|3:0,0:0:0:0:
177,212,75409,2,0,L|329:215,1,150,8|8,0:0|3:0,0:0:0:0:
254,144,75896,1,8,0:0:0:0:
60,158,76382,5,8,0:0:0:0:
60,158,76544,1,8,3:0:0:0:
135,159,76706,2,0,L|299:158,1,150,8|8,3:0|3:0,0:0:0:0:
217,94,77193,1,8,0:0:0:0:
152,91,77355,5,12,3:0:0:0:
256,192,77679,12,0,78652,0:0:0:0:
179,181,78977,5,8,0:0:0:0:
179,181,79139,1,8,0:0:0:0:
323,170,79463,1,8,0:0:0:0:
323,170,79625,1,8,0:0:0:0:
323,170,79950,6,0,L|153:169,1,150,8|8,0:0|3:0,0:0:0:0:
249,102,80436,1,8,0:0:0:0:
323,103,80598,1,2,3:0:0:0:
323,103,80923,6,0,L|166:103,2,150,8|12|8,3:0|3:0|3:0,0:0:0:0:
325,100,81896,1,2,3:0:0:0:
249,101,82058,1,12,3:0:0:0:
173,103,82220,1,8,3:0:0:0:
173,103,82544,6,0,L|330:103,1,150,8|8,0:0|3:0,0:0:0:0:
255,174,83031,1,8,0:0:0:0:
178,176,83193,1,8,3:0:0:0:
255,174,83355,1,8,0:0:0:0:
330,174,83517,1,8,3:0:0:0:
255,174,83679,1,8,0:0:0:0:
178,176,83841,1,8,0:0:0:0:
178,176,84166,5,8,3:0:0:0:
255,174,84328,1,8,0:0:0:0:
255,174,84652,1,8,0:0:0:0:
178,176,84814,1,8,3:0:0:0:
105,176,84977,1,8,3:0:0:0:
178,176,85139,5,12,3:0:0:0:
256,192,85463,12,0,87247,0:0:0:0:
