osu file format v14

[General]
AudioFilename: audio.mp3
AudioLeadIn: 0
PreviewTime: 48085
Countdown: 0
SampleSet: Soft
StackLeniency: 0.7
Mode: 0
LetterboxInBreaks: 0
WidescreenStoryboard: 0

[Editor]
DistanceSpacing: 1
BeatDivisor: 4
GridSize: 32
TimelineZoom: 2.2

[Metadata]
Title:Kaikai Kitan (TV Size)
TitleUnicode:廻廻奇譚 (TV Size)
Artist:Eve
ArtistUnicode:Eve
Creator:Kudosu
Version:FuJu's Insane
Source:呪術廻戦
Tags:utaite sorcery fight toys factory japanese anime op opening jujutsu kaisen jrock j-pop pop j-rock pop-rock rock ermi modding queue fuju ren derandom otaku soop so0p chiga
BeatmapID:2640146
BeatmapSetID:1270438

[Difficulty]
HPDrainRate:5
CircleSize:4.1
OverallDifficulty:8
ApproachRate:9
SliderMultiplier:1.6
SliderTickRate:1

[Events]
//Background and Video events
0,0,"bg.jpg",0,0
Video,-550,"video.mp4"
//Break Periods
//Storyboard Layer 0 (Background)
//Storyboard Layer 1 (Fail)
//Storyboard Layer 2 (Pass)
//Storyboard Layer 3 (Foreground)
//Storyboard Layer 4 (Overlay)
//Storyboard Sound Samples

[TimingPoints]
2275,324.324324324324,4,2,1,70,1,0
2275,-95.2380952380952,4,2,1,70,0,0
4220,-74.0740740740741,4,2,1,70,0,0
5518,324.324324324324,4,2,1,75,1,0
5518,-95.2380952380952,4,2,1,75,0,0
15896,-250,4,2,1,75,0,0
17842,324.324324324324,4,2,1,80,1,0
17842,-250,4,2,1,60,0,0
18004,-117.647058823529,4,2,1,60,0,0
26761,-117.647058823529,4,2,1,70,0,0
28220,-105.263157894737,4,2,1,65,0,0
45733,-105.263157894737,4,2,1,60,0,0
46381,-105.263157894737,4,2,1,75,0,0
48815,-95.2380952380954,4,2,1,80,0,0
69733,-95.2380952380954,4,2,1,75,0,0
74922,-95.2380952380954,4,2,1,70,0,0
77356,-217.391304347826,4,2,1,70,0,0
79950,-95.2380952380952,4,2,1,75,0,0
85138,-95.2380952380952,4,2,1,70,0,0
85219,-95.2380952380952,4,2,1,5,0,0

[Colours]
Combo1 : 248,214,75
Combo2 : 119,255,255
Combo3 : 254,121,106

[HitObjects]
166,26,2275,5,14,0:0:0:0:
215,108,2437,2,0,P|247:133|288:128,1,83.9999974365235,2|2,1:2|1:2,0:0:0:0:
160,209,2761,2,0,P|80:212|40:282,1,167.999994873047,14|2,0:0|1:2,0:0:0:0:
108,373,3247,2,0,P|111:331|129:293,1,83.9999974365235,14|0,0:0|0:0,0:0:0:0:
268,345,3572,5,0,1:0:0:0:
350,284,3734,2,0,B|402:274|442:308|422:332|452:359|507:348,1,167.999994873047,10|2,0:0|1:2,0:0:0:0:
282,204,4220,6,0,B|247:266|163:267|151:212|200:183|234:255,2,162.000000617981,8|8|8,0:0|0:0|0:0,0:0:0:0:
282,204,5518,6,0,P|287:162|296:121,1,83.9999974365235,6|0,1:2|0:0,0:0:0:0:
205,277,5842,1,10,0:0:0:0:
276,352,6004,2,0,P|316:361|353:343,1,83.9999974365235,2|0,0:0|1:0,0:0:0:0:
205,277,6329,2,0,P|163:286|122:291,1,83.9999974365235,2|8,1:2|0:0,0:0:0:0:
43,243,6653,2,0,P|61:161|70:77,1,167.999994873047,2|2,1:2|1:2,0:0:0:0:
188,30,7139,1,10,0:0:0:0:
282,204,7302,5,2,0:0:0:0:
287,197,7383,1,8,0:0:0:0:
292,190,7464,1,2,1:2:0:0:
371,164,7626,1,2,1:2:0:0:
450,138,7788,1,8,2:2:0:0:
301,321,7950,6,0,B|265:279|209:291|209:291|182:327|143:315,1,167.999994873047,2|2,1:2|1:2,0:0:0:0:
35,283,8437,1,10,0:0:0:0:
115,167,8599,1,2,0:0:0:0:
121,162,8680,1,8,0:0:0:0:
126,157,8761,2,0,P|115:197|108:238,1,83.9999974365235,2|2,1:2|1:2,0:0:0:0:
68,60,9085,5,10,2:2:0:0:
205,10,9247,2,0,B|271:30|271:30|282:66|282:66|341:88,1,167.999994873047,2|2,1:2|1:2,0:0:0:0:
458,90,9734,2,0,P|482:58|472:19,1,83.9999974365235,8|2,0:0|1:2,0:0:0:0:
339,196,10058,1,10,0:0:0:0:
420,308,10220,1,10,0:0:0:0:
426,303,10302,1,8,0:0:0:0:
432,298,10383,2,0,L|422:257,1,41.9999987182618,8|8,0:3|0:0,0:0:0:0:
341,383,10545,5,8,0:0:0:0:
336,375,10627,1,8,0:0:0:0:
330,368,10708,2,0,P|284:338|219:358,1,125.999996154785,6|0,1:2|0:0,0:0:0:0:
219,357,11031,1,10,0:0:0:0:
141,311,11193,2,0,P|128:273|147:236,1,83.9999974365235,2|0,0:0|1:0,0:0:0:0:
82,155,11518,2,0,P|41:163|2:176,1,83.9999974365235,2|8,1:2|0:0,0:0:0:0:
151,75,11842,2,0,B|239:97|239:97|281:72|261:24,1,167.999994873047,2|2,1:2|1:2,0:0:0:0:
401,49,12329,1,10,0:0:0:0:
475,214,12491,5,2,0:0:0:0:
472,205,12572,1,8,0:0:0:0:
469,197,12653,1,2,1:2:0:0:
388,178,12815,1,2,1:2:0:0:
307,159,12977,1,8,2:2:0:0:
200,256,13139,6,0,B|141:268|141:268|108:312|108:312|57:328,1,167.999994873047,2|2,1:2|1:2,0:0:0:0:
10,151,13626,2,0,P|48:167|90:171,1,83.9999974365235,10|2,0:0|1:2,0:0:0:0:
189,346,13950,1,10,2:2:0:0:
288,257,14112,1,2,1:2:0:0:
381,368,14274,1,10,2:2:0:0:
485,232,14437,6,0,B|506:183|470:140|452:161|421:129|444:75,1,167.999994873047,6|10,1:2|2:0,0:0:0:0:
288,257,14923,1,10,2:0:0:0:
191,135,15085,5,10,0:0:0:0:
193,127,15166,1,8,0:0:0:0:
195,119,15247,1,10,0:0:0:0:
130,65,15410,2,0,P|110:71|89:76,2,41.9999987182618,8|8|8,0:3|0:0|0:3,0:0:0:0:
260,173,15734,2,0,P|279:166|300:161,1,41.9999987182618,8|0,0:3|0:0,0:0:0:0:
293,268,15896,6,0,B|228:220|148:255|181:321|106:356|35:336|9:282|23:225|72:204|109:230,1,384,4|0,1:2|1:0,0:0:0:0:
193,377,18004,5,2,0:0:0:0:
199,368,18166,2,0,P|231:358|264:354,1,68.0000012969971,2|0,1:2|0:0,0:0:0:0:
293,268,18491,2,0,P|325:278|358:282,1,68.0000012969971,2|0,1:2|0:0,0:0:0:0:
449,258,18815,1,2,1:2:0:0:
491,171,18977,6,0,P|506:108|465:56,1,136.000002593994,2|2,0:0|0:0,0:0:0:0:
373,21,19464,2,0,P|340:31|307:35,1,68.0000012969971,2|2,1:2|0:0,0:0:0:0:
199,132,19788,1,2,1:2:0:0:
226,0,19950,2,0,P|216:67|199:132,1,136.000002593994,2|2,0:0|0:0,0:0:0:0:
126,224,20437,6,0,B|72:237|72:237|54:265|54:265|8:280,1,136.000002593994,2|2,1:2|1:2,0:0:0:0:
116,358,20923,2,0,P|179:376|231:336,1,136.000002593994,2|2,0:0|0:0,0:0:0:0:
289,272,21410,1,2,1:2:0:0:
359,328,21572,2,0,P|393:333|426:342,1,68.0000012969971,2|2,0:0|1:2,0:0:0:0:
426,342,21896,1,2,0:0:0:0:
357,212,22058,5,2,1:2:0:0:
356,212,22383,2,0,P|373:182|369:149,1,68.0000012969971,2|0,1:2|0:0,0:0:0:0:
303,9,22707,2,0,P|290:75|275:142,1,136.000002593994,2|0,1:2|1:2,0:0:0:0:
186,257,23193,1,2,0:0:0:0:
137,322,23356,2,0,P|110:340|76:342,1,68.0000012969971,2|0,1:2|0:0,0:0:0:0:
186,257,23680,1,2,1:2:0:0:
259,300,23842,2,0,P|292:307|323:321,1,68.0000012969971,2|0,0:0|1:2,0:0:0:0:
421,338,24166,1,2,0:0:0:0:
472,256,24329,6,0,B|461:203|461:203|471:179|471:179|456:113,1,136.000002593994,2|2,1:2|1:2,0:0:0:0:
393,58,24815,2,0,P|361:71|328:79,1,68.0000012969971,2|0,0:0|1:2,0:0:0:0:
261,137,25139,1,2,0:0:0:0:
191,78,25302,2,0,P|181:47|193:15,1,68.0000012969971,2|0,1:2|0:0,0:0:0:0:
103,235,25626,6,0,P|113:203|101:171,1,68.0000012969971,2|0,1:2|0:0,0:0:0:0:
37,124,25869,1,2,0:0:0:0:
43,121,25950,2,0,P|52:88|57:54,1,68.0000012969971,0|2,1:2|0:0,0:0:0:0:
191,78,26274,2,0,P|181:110|176:144,1,68.0000012969971,2|2,1:2|0:0,0:0:0:0:
103,235,26599,1,2,1:2:0:0:
168,337,26761,6,0,P|214:315|264:315,1,102.000001945496,14|0,0:0|0:0,0:0:0:0:
270,319,27085,1,8,0:3:0:0:
275,323,27166,1,8,0:3:0:0:
279,327,27247,1,2,0:2:0:0:
344,277,27410,1,2,1:2:0:0:
291,214,27572,5,10,0:0:0:0:
435,78,27734,1,10,0:0:0:0:
435,77,28220,6,0,P|436:115|440:153,1,75.9999979705811,4|2,1:2|0:0,0:0:0:0:
497,24,28545,1,10,0:0:0:0:
360,121,28707,1,0,3:0:0:0:
360,121,28788,1,0,3:0:0:0:
360,121,28869,1,2,1:2:0:0:
512,253,29031,6,0,B|478:216|428:228|428:228|406:257|368:251,1,151.999995941162,2|10,1:2|3:2,0:0:0:0:
275,381,29518,2,0,P|283:343|289:306,1,75.9999979705811,2|0,0:0|1:0,0:0:0:0:
232,252,29761,1,2,0:0:0:0:
225,247,29842,2,0,P|187:255|150:261,1,75.9999979705811,8|0,0:0|3:0,0:0:0:0:
163,13,30166,5,2,1:2:0:0:
51,102,30329,1,2,1:2:0:0:
51,102,30653,6,0,B|107:124|107:124|117:157|117:157|175:179,1,151.999995941162,10|2,2:0|1:2,0:0:0:0:
251,136,31139,2,0,P|270:103|264:66,1,75.9999979705811,10|2,2:2|3:2,0:0:0:0:
259,61,31383,5,8,3:2:0:0:
253,55,31464,1,2,1:2:0:0:
361,133,31626,1,2,3:2:0:0:
361,133,31950,2,0,P|397:197|369:270,1,151.999995941162,10|2,0:0|1:2,0:0:0:0:
296,351,32437,2,0,P|260:340|223:335,1,75.9999979705811,10|0,2:0|3:0,0:0:0:0:
160,280,32680,1,8,3:2:0:0:
153,283,32761,2,0,P|132:313|132:351,1,75.9999979705811,2|0,1:2|1:0,0:0:0:0:
83,231,33085,6,0,P|121:167|114:92,1,151.999995941162,10|0,2:0|1:0,0:0:0:0:
196,17,33572,1,2,3:2:0:0:
271,95,33734,2,0,P|304:112|341:110,1,75.9999979705811,8|0,2:2|3:0,0:0:0:0:
462,186,34058,1,2,1:2:0:0:
335,357,34220,2,0,P|356:284|369:209,1,151.999995941162,2|10,1:2|2:0,0:0:0:0:
262,202,34707,6,0,P|188:198|141:254,1,151.999995941162,0|10,3:0|0:0,0:0:0:0:
71,94,35193,1,2,3:2:0:0:
76,98,35274,1,8,3:2:0:0:
81,103,35356,2,0,P|117:111|155:118,1,75.9999979705811,0|2,1:2|1:2,0:0:0:0:
141,254,35680,2,0,P|104:245|66:238,1,75.9999979705811,2|8,3:2|2:2,0:0:0:0:
176,380,36004,1,2,3:2:0:0:
221,303,36166,2,0,B|274:295|303:323|287:347|313:366|362:354,1,151.999995941162,2|2,1:2|3:2,0:0:0:0:
424,321,36572,5,8,3:2:0:0:
430,316,36653,1,2,1:2:0:0:
400,237,36815,1,2,3:2:0:0:
366,160,36977,1,2,3:2:0:0:
305,47,37139,6,0,P|236:76|160:82,1,151.999995941162,10|2,0:0|1:2,0:0:0:0:
73,48,37626,1,14,0:0:0:0:
159,176,37788,5,10,3:2:0:0:
153,181,37869,1,8,2:0:0:0:
147,186,37950,1,10,0:0:0:0:
90,247,38112,1,8,0:3:0:0:
149,306,38274,1,8,0:3:0:0:
7,346,38437,6,0,B|35:311|24:269|7:284|-4:238|30:195,1,151.999995941162,6|0,1:2|1:2,0:0:0:0:
156,315,38923,2,0,P|193:319|229:330,1,75.9999979705811,8|0,2:2|0:0,0:0:0:0:
290,380,39166,1,8,0:3:0:0:
297,384,39247,2,0,P|313:349|312:312,1,75.9999979705811,8|2,0:3|0:0,0:0:0:0:
306,127,39572,1,10,0:0:0:0:
386,271,39734,1,2,1:2:0:0:
475,136,39896,6,0,B|416:151|416:151|399:183|399:183|346:199,1,151.999995941162,8|10,0:3|2:2,0:0:0:0:
229,147,40383,1,2,0:0:0:0:
221,144,40464,1,8,0:3:0:0:
214,140,40545,2,0,P|225:103|233:66,1,75.9999979705811,8|0,0:3|1:0,0:0:0:0:
152,216,40869,5,10,2:2:0:0:
90,292,41031,2,0,P|58:312|21:314,1,75.9999979705811,2|0,1:2|1:0,0:0:0:0:
169,349,41356,2,0,P|206:356|242:368,1,75.9999979705811,2|8,1:2|0:0,0:0:0:0:
332,337,41680,1,0,0:0:0:0:
336,330,41761,1,8,0:3:0:0:
340,324,41842,1,8,0:3:0:0:
503,311,42004,6,0,P|465:303|429:291,1,75.9999979705811,2|8,1:2|0:0,0:0:0:0:
427,148,42329,1,2,1:2:0:0:
329,58,42491,2,0,P|266:93|264:166,1,151.999995941162,2|10,2:2|0:0,0:0:0:0:
199,273,42977,5,10,0:0:0:0:
194,280,43058,1,8,0:0:0:0:
190,287,43139,1,10,0:0:0:0:
121,240,43302,1,8,0:3:0:0:
160,166,43464,1,8,0:3:0:0:
103,104,43626,2,0,P|67:116|30:125,1,75.9999979705811,8|4,0:3|1:2,0:0:0:0:
483,27,45572,5,8,0:3:0:0:
478,32,45653,1,8,0:3:0:0:
472,37,45734,2,0,P|461:73|454:110,1,75.9999979705811,8|2,0:0|1:2,0:0:0:0:
337,234,46058,2,0,P|347:197|354:160,1,75.9999979705811,10|2,0:0|1:2,0:0:0:0:
269,174,46383,5,12,2:2:0:0:
402,284,46545,1,2,1:2:0:0:
240,344,46707,1,2,1:2:0:0:
442,374,46869,6,0,P|431:337|424:300,1,75.9999979705811,14|2,0:0|1:2,0:0:0:0:
354,160,47193,1,2,1:2:0:0:
499,71,47356,1,10,0:0:0:0:
265,0,47518,6,0,B|208:13|208:13|185:49|185:49|126:68,1,151.999995941162,6|8,1:2|0:0,0:0:0:0:
354,160,48004,1,8,0:0:0:0:
228,231,48166,5,2,0:0:0:0:
230,224,48329,5,2,0:0:0:0:
233,217,48491,5,2,0:0:0:0:
262,348,48653,5,2,0:0:0:0:
52,255,48815,6,0,P|24:283|25:324,1,83.9999974365235,6|0,1:2|0:0,0:0:0:0:
131,164,49139,2,0,P|121:123|116:81,1,83.9999974365235,2|8,1:2|0:0,0:0:0:0:
40,140,49464,1,2,0:0:0:0:
102,315,49626,2,0,P|141:302|183:300,1,83.9999974365235,2|2,1:2|1:2,0:0:0:0:
293,231,49950,1,10,0:0:0:0:
371,384,50112,6,0,P|398:353|395:311,1,83.9999974365235,2|0,1:2|0:0,0:0:0:0:
293,231,50436,2,0,P|302:190|307:148,1,83.9999974365235,2|8,1:2|0:0,0:0:0:0:
392,80,50761,5,2,0:0:0:0:
388,72,50842,1,8,0:0:0:0:
385,64,50923,1,2,1:2:0:0:
222,173,51085,1,2,1:2:0:0:
367,304,51247,1,8,2:2:0:0:
221,373,51410,6,0,B|158:361|158:361|141:326|141:326|76:312,1,167.999994873047,2|2,1:2|1:2,0:0:0:0:
21,185,51896,2,0,P|31:144|38:102,1,83.9999974365235,10|2,2:2|0:0,0:0:0:0:
7,30,52139,5,8,0:0:0:0:
0,24,52220,1,2,1:2:0:0:
106,160,52383,1,2,1:2:0:0:
211,78,52545,1,10,2:2:0:0:
293,231,52707,6,0,B|333:194|379:212|379:212|402:246|444:240,1,167.999994873047,2|2,1:2|1:2,0:0:0:0:
211,384,53193,2,0,P|203:342|193:301,1,83.9999974365235,10|0,0:0|0:0,0:0:0:0:
296,333,53518,1,2,1:2:0:0:
161,202,53680,1,10,0:0:0:0:
154,207,53761,2,0,L|113:218,2,41.9999987182618,8|8|8,0:0|0:3|0:0,0:0:0:0:
249,139,54004,5,10,0:0:0:0:
242,135,54085,1,8,0:0:0:0:
234,130,54166,2,0,P|218:92|244:45,1,83.9999974365235,4|2,1:2|0:0,0:0:0:0:
313,15,54491,1,8,0:0:0:0:
146,114,54653,1,2,0:0:0:0:
303,257,54815,6,0,P|314:216|319:174,1,83.9999974365235,2|0,1:2|1:2,0:0:0:0:
376,117,55058,1,2,0:0:0:0:
382,112,55139,1,8,0:0:0:0:
355,346,55302,2,0,P|296:289|216:315,1,167.999994873047,2|2,1:2|1:2,0:0:0:0:
140,243,55788,2,0,P|113:274|112:315,1,83.9999974365235,10|2,2:2|0:0,0:0:0:0:
216,175,56112,5,2,1:2:0:0:
197,93,56274,1,2,1:2:0:0:
178,11,56437,1,10,2:2:0:0:
318,174,56599,2,0,B|378:197|378:197|398:236|398:236|454:257,1,167.999994873047,2|2,1:2|1:2,0:0:0:0:
483,113,57085,2,0,P|443:105|406:124,1,83.9999974365235,10|0,0:0|1:0,0:0:0:0:
274,339,57410,2,0,P|314:347|351:328,1,83.9999974365235,10|0,0:0|1:0,0:0:0:0:
171,339,57734,1,14,2:0:0:0:
136,238,57896,6,0,P|153:155|169:73,1,167.999994873047,6|8,1:2|0:0,0:0:0:0:
71,122,58383,1,8,0:0:0:0:
223,281,58545,1,10,0:0:0:0:
228,275,58626,2,0,L|217:234,1,41.9999987182618,8|10,0:0|0:0,0:0:0:0:
79,318,58869,1,10,0:0:0:0:
74,324,58950,2,0,L|84:364,1,41.9999987182618,8|8,0:0|0:3,0:0:0:0:
162,384,59112,5,8,0:3:0:0:
168,376,59193,2,0,P|207:361|248:358,1,83.9999974365235,6|0,1:2|0:0,0:0:0:0:
382,215,59518,2,0,P|342:230|301:233,1,83.9999974365235,2|8,1:2|0:0,0:0:0:0:
244,148,59842,5,2,0:0:0:0:
247,140,59923,1,8,0:0:0:0:
250,132,60004,1,2,1:2:0:0:
357,309,60166,1,2,1:2:0:0:
453,141,60329,1,10,0:0:0:0:
279,354,60491,6,0,P|239:338|198:335,1,83.9999974365235,2|0,1:2|0:0,0:0:0:0:
59,245,60815,2,0,P|48:206|68:171,1,83.9999974365235,2|8,1:2|0:0,0:0:0:0:
10,89,61139,5,2,0:0:0:0:
7,80,61220,1,8,0:0:0:0:
4,71,61302,1,2,1:2:0:0:
136,220,61464,1,2,1:2:0:0:
24,331,61626,1,8,2:2:0:0:
149,212,61788,6,0,B|202:207|239:238|217:260|248:291|306:273,1,167.999994873047,6|2,1:2|1:2,0:0:0:0:
411,209,62274,2,0,P|400:169|394:127,1,83.9999974365235,10|2,2:2|0:0,0:0:0:0:
336,68,62518,1,10,0:0:0:0:
329,64,62599,2,0,P|304:96|308:144,1,83.9999974365235,2|2,1:2|1:2,0:0:0:0:
472,272,62923,2,0,P|497:240|493:192,1,83.9999974365235,10|2,2:2|1:2,0:0:0:0:
284,285,63247,6,0,P|295:325|300:366,1,83.9999974365235,10|0,0:0|1:0,0:0:0:0:
381,304,63572,1,10,2:0:0:0:
235,204,63734,1,8,0:0:0:0:
197,196,63815,1,8,0:0:0:0:
163,206,63896,1,10,0:0:0:0:
134,230,63977,1,8,0:0:0:0:
122,265,64058,1,10,0:0:0:0:
92,287,64139,1,8,0:0:0:0:
57,295,64220,2,0,L|48:253,1,41.9999987182618,8|8,0:0|0:0,0:0:0:0:
139,383,64383,6,0,P|216:353|300:354,1,167.999994873047,4|2,1:2|1:2,0:0:0:0:
402,299,64869,2,0,P|419:262|411:222,1,83.9999974365235,10|2,0:0|0:0,0:0:0:0:
360,157,65112,5,8,0:0:0:0:
354,151,65193,1,2,1:2:0:0:
466,68,65356,1,0,1:2:0:0:
325,9,65518,2,0,P|317:50|308:91,1,83.9999974365235,10|2,0:0|0:0,0:0:0:0:
208,291,65842,5,2,1:2:0:0:
152,217,66004,2,0,B|113:177|64:197|64:197|36:231|-2:218,1,167.999994873047,2|2,1:2|1:2,0:0:0:0:
264,365,66491,2,0,P|304:354|345:346,1,83.9999974365235,2|2,0:0|1:2,0:0:0:0:
431,266,66815,1,10,0:0:0:0:
343,188,66977,5,10,0:0:0:0:
346,180,67058,1,8,0:0:0:0:
348,171,67139,2,0,P|339:129|333:88,1,83.9999974365235,6|2,1:2|1:2,0:0:0:0:
112,0,67464,2,0,P|120:41|126:82,1,83.9999974365235,10|2,0:0|1:2,0:0:0:0:
78,331,67788,5,10,2:2:0:0:
197,214,67950,1,2,1:2:0:0:
36,169,68112,1,10,0:0:0:0:
200,336,68274,6,0,B|290:310|290:310|331:327|311:377,1,167.999994873047,6|10,1:2|2:2,0:0:0:0:
197,214,68761,1,10,0:0:0:0:
313,100,68923,1,10,2:2:0:0:
317,106,69004,1,8,2:2:0:0:
321,111,69085,2,0,P|310:151|303:193,1,83.9999974365235,2|8,1:2|2:3,0:0:0:0:
358,267,69329,1,8,2:3:0:0:
363,274,69410,2,0,L|403:261,1,41.9999987182618,0|0,1:2|0:0,0:0:0:0:
467,154,69572,2,0,L|426:166,1,41.9999987182618,8|0,0:3|0:0,0:0:0:0:
305,344,69734,6,0,B|216:318|216:318|196:356|153:355,1,167.999994873047,6|0,1:2|1:2,0:0:0:0:
56,347,70220,1,8,0:0:0:0:
166,212,70383,1,2,0:0:0:0:
57,162,70545,2,0,P|67:202|74:244,1,83.9999974365235,2|12,1:2|0:0,0:0:0:0:
226,112,70869,2,0,P|215:71|208:29,1,83.9999974365235,2|0,0:0|1:2,0:0:0:0:
252,277,71193,6,0,P|307:336|387:328,1,167.999994873047,12|0,0:0|1:0,0:0:0:0:
463,236,71680,1,10,0:0:0:0:
469,231,71761,1,8,0:0:0:0:
475,226,71842,2,0,L|463:185,1,41.9999987182618,10|8,0:0|0:0,0:0:0:0:
382,130,72004,1,10,0:0:0:0:
376,125,72085,1,8,0:0:0:0:
370,120,72166,2,0,L|381:79,1,41.9999987182618,8|8,0:0|0:0,0:0:0:0:
312,7,72329,6,0,B|260:-1|229:34|246:52|212:82|161:73,1,167.999994873047,4|2,1:2|1:2,0:0:0:0:
238,197,72815,1,8,0:0:0:0:
159,305,72977,2,0,P|119:295|77:289,1,83.9999974365235,2|0,0:0|1:0,0:0:0:0:
238,197,73302,1,8,0:0:0:0:
317,383,73464,6,0,P|337:348|331:307,1,83.9999974365235,6|0,1:2|0:0,0:0:0:0:
317,89,73788,2,0,P|357:99|399:105,1,83.9999974365235,2|8,1:2|0:0,0:0:0:0:
488,41,74112,5,10,2:2:0:0:
492,33,74193,1,8,2:2:0:0:
496,25,74274,1,8,2:2:0:0:
399,105,74437,1,0,1:0:0:0:
479,206,74599,1,8,2:2:0:0:
483,198,74761,1,2,2:0:0:0:
393,305,74923,6,0,P|353:295|311:289,1,83.9999974365235,6|0,1:2|0:0,0:0:0:0:
206,231,75247,1,2,1:2:0:0:
235,384,75410,2,0,B|254:333|228:299|206:314|183:270|206:230,1,167.999994873047,14|2,2:2|1:2,0:0:0:0:
141,37,75896,6,0,B|75:68|75:68|108:157,1,167.999994873047,14|0,2:2|1:0,0:0:0:0:
289,256,76383,1,10,0:0:0:0:
352,184,76545,2,0,P|391:197|433:204,1,83.9999974365235,2|2,1:2|1:2,0:0:0:0:
368,313,76869,1,10,0:0:0:0:
304,384,77031,2,0,P|264:370|222:363,1,83.9999974365235,2|8,1:2|0:0,0:0:0:0:
6,278,77356,6,0,B|17:195|99:128|207:177|222:252|167:304|110:280,1,349.599988264161,6|0,1:2|0:0,0:0:0:0:
112,281,78977,5,10,0:0:0:0:
28,125,79139,1,10,0:0:0:0:
250,311,79464,5,10,0:0:0:0:
165,154,79626,1,10,0:0:0:0:
369,323,79950,6,0,P|380:263|397:200,1,125.999996154785,6|0,1:2|0:0,0:0:0:0:
397,200,80274,1,0,1:2:0:0:
481,112,80437,1,10,0:0:0:0:
397,25,80599,2,0,P|356:35|314:42,1,83.9999974365235,2|0,0:0|1:0,0:0:0:0:
165,154,80923,2,0,P|175:113|182:71,1,83.9999974365235,2|8,1:2|2:2,0:0:0:0:
94,247,81247,2,0,P|154:194|232:216,1,167.999994873047,2|2,1:2|1:2,0:0:0:0:
91,102,81734,1,10,0:0:0:0:
167,291,81896,5,2,0:0:0:0:
171,283,81977,1,8,0:0:0:0:
175,275,82058,1,2,1:2:0:0:
232,216,82220,1,2,1:2:0:0:
308,250,82383,1,8,0:0:0:0:
443,184,82545,6,0,P|424:101|415:18,1,167.999994873047,2|2,1:2|1:2,0:0:0:0:
512,92,83031,1,10,0:0:0:0:
355,176,83193,1,2,1:2:0:0:
511,254,83356,1,10,0:0:0:0:
354,338,83518,1,2,1:2:0:0:
255,154,83680,5,10,0:0:0:0:
204,241,83842,2,0,B|149:228|114:265|132:286|104:317|44:305,1,167.999994873047,4|8,1:2|0:0,0:0:0:0:
24,184,84329,1,8,0:0:0:0:
189,325,84491,5,8,0:0:0:0:
193,332,84572,1,8,0:0:0:0:
197,340,84653,1,10,0:0:0:0:
279,323,84815,1,8,0:3:0:0:
361,306,84977,1,8,0:3:0:0:
181,99,85139,5,6,1:2:0:0:
256,192,85220,12,0,87247,0:0:0:0:
