osu file format v14

[General]
AudioFilename: audio.mp3
AudioLeadIn: 0
PreviewTime: 48044
Countdown: 0
SampleSet: Soft
StackLeniency: 0.8
Mode: 0
LetterboxInBreaks: 0
WidescreenStoryboard: 1

[Editor]
Bookmarks: 5518,17842,38436,48814,69733,79965
DistanceSpacing: 1.3
BeatDivisor: 4
GridSize: 16
TimelineZoom: 2.1

[Metadata]
Title:Kaikai Kitan (TV Size)
TitleUnicode:廻廻奇譚 (TV Size)
Artist:Eve
ArtistUnicode:Eve
Creator:Irohas
Version:Pentori's Insane
Source:呪術廻戦
Tags:mugiwarasekai pentori jujutsu kaisen sorcery fight opening pop j-pop jpop japanese anime
BeatmapID:2678563
BeatmapSetID:1276213

[Difficulty]
HPDrainRate:5
CircleSize:4
OverallDifficulty:8
ApproachRate:9
SliderMultiplier:1.5
SliderTickRate:1

[Events]
//Background and Video events
0,0,"bgs.png",0,0
Video,-550,"video.mp4"
//Break Periods
//Storyboard Layer 0 (Background)
//Storyboard Layer 1 (Fail)
//Storyboard Layer 2 (Pass)
//Storyboard Layer 3 (Foreground)
//Storyboard Layer 4 (Overlay)
//Storyboard Sound Samples

[TimingPoints]
5518,324.324324324324,4,2,1,70,1,0
17680,-100,4,2,1,70,0,0
17760,-100,4,2,1,5,0,0
17842,324.324324324324,4,2,1,50,1,0
17842,-111.111111111111,4,2,1,50,0,0
26760,-99.9999999999999,4,2,1,60,0,0
28220,-99.9999999999999,4,2,1,60,0,0
43787,-142.857142857143,4,2,1,60,0,0
44436,-111.111111111111,4,2,1,60,0,0
45733,-100,4,2,1,60,0,0
47517,-83.3333333333333,4,2,1,60,0,0
47760,-83.3333333333333,4,2,1,5,0,0
47841,-83.3333333333333,4,2,1,60,0,0
47923,-83.3333333333333,4,2,1,5,0,0
48004,-83.3333333333333,4,2,1,60,0,0
48166,-83.3333333333333,4,2,1,40,0,0
48814,-100,4,2,7,87,0,1
48977,-100,4,2,1,70,0,0
53841,-83.3333333333333,4,2,1,70,0,0
54166,-100,4,2,1,70,0,0
58544,-83.3333333333333,4,2,1,70,0,0
59193,-100,4,2,1,70,0,1
59355,-100,4,2,1,70,0,0
63896,-83.3333333333333,4,2,1,70,0,0
64382,-100,4,2,1,70,0,0
78085,-100,4,2,1,40,0,0
78814,-100,4,2,1,5,0,0
78977,-111.111111111111,4,2,1,70,0,0
79950,-100,4,2,1,70,0,0
85220,-100,4,2,1,40,0,0
87240,-100,4,2,1,40,0,0
87247,-100,4,2,1,20,0,0

[Colours]
Combo1 : 149,149,149
Combo2 : 211,211,211
Combo3 : 245,106,82

[HitObjects]
320,235,5518,6,0,L|331:155,1,75,4|0,0:1|0:0,0:0:0:0:
144,119,5842,2,0,B|188:127|215:95|202:88|230:61|283:75,1,150,8|0,0:0|3:3,0:0:0:0:
405,90,6328,2,0,P|408:53|389:21,1,75,2|8,0:3|0:0,0:0:0:0:
426,191,6653,6,0,L|500:180,1,75,2|0,0:1|0:0,0:0:0:0:
331,161,6977,1,2,0:1:0:0:
291,321,7139,2,0,P|259:339|222:336,1,75,8|2,0:0|0:3,0:0:0:0:
156,380,7382,1,8,0:0:0:0:
156,380,7463,2,0,P|124:361|108:327,1,75,0|2,3:3|0:0,0:0:0:0:
176,249,7788,5,8,0:0:0:0:
11,288,7950,2,0,L|31:139,1,150,6|0,0:0|3:0,0:0:0:0:
131,160,8436,2,0,L|120:80,1,75,8|2,0:0|0:2,0:0:0:0:
267,307,8761,2,0,L|278:227,1,75,0|0,3:3|3:0,0:0:0:0:
176,249,9085,5,8,0:0:0:0:
404,180,9247,2,0,B|360:188|333:156|346:149|318:122|265:136,1,150,2|0,0:0|3:0,0:0:0:0:
120,85,9734,2,0,P|156:88|188:69,1,75,8|0,0:0|3:0,0:0:0:0:
288,27,10058,5,8,0:0:0:0:
176,249,10220,2,0,L|181:211,2,37.5,8|8|0,0:0|0:0|3:0,0:0:0:0:
277,142,10545,5,8,0:0:0:0:
277,142,10626,1,8,0:0:0:0:
277,142,10707,2,0,B|345:133|345:133|353:130|353:130|428:120,1,150,0|8,3:0|0:0,0:0:0:0:
492,190,11193,2,0,L|481:264,1,75,2|0,0:2|3:3,0:0:0:0:
373,346,11517,2,0,P|370:309|389:277,1,75,2|8,0:3|0:0,0:0:0:0:
425,120,11842,6,0,L|414:45,1,75,2|0,0:1|0:0,0:0:0:0:
342,183,12166,1,2,0:1:0:0:
272,116,12328,2,0,P|235:112|202:130,1,75,8|2,0:0|0:3,0:0:0:0:
132,103,12572,1,8,0:0:0:0:
132,103,12653,2,0,P|110:133|110:170,1,75,8|2,0:3|0:0,0:0:0:0:
187,228,12977,5,8,0:0:0:0:
15,184,13139,2,0,B|24:256|24:256|27:264|27:264|36:332,1,150,6|0,0:0|3:0,0:0:0:0:
134,310,13626,2,0,L|123:384,1,75,8|0,0:0|3:0,0:0:0:0:
242,79,13950,2,0,L|253:153,1,75,8|0,0:0|3:0,0:0:0:0:
187,228,14274,5,8,0:0:0:0:
456,147,14436,2,0,B|423:160|414:206|414:206|385:177|342:183,1,150,6|8,0:0|0:0,0:0:0:0:
472,287,14923,2,0,P|440:305|403:302,1,75,8|8,0:0|0:0,0:0:0:0:
403,302,15166,1,8,0:0:0:0:
403,302,15247,1,0,3:0:0:0:
379,89,15409,6,0,L|384:51,2,37.5,0|0|0,3:0|3:0|3:0,0:0:0:0:
216,158,15734,2,0,L|254:153,1,37.5,0|0,3:0|3:0,0:0:0:0:
347,183,15896,5,4,0:0:0:0:
256,192,15977,12,0,17680,0:0:0:0:
133,269,17842,6,0,P|118:299|122:332,1,67.4999979400635,0|2,3:0|0:0,0:0:0:0:
201,202,18166,2,0,B|193:140|193:140|191:133|191:133|183:69,1,134.999995880127,2|2,3:0|3:0,0:0:0:0:
283,251,18652,5,0,0:0:0:0:
283,251,18814,2,0,L|363:262,1,67.4999979400635,2|2,3:0|0:0,0:0:0:0:
331,163,19139,2,0,P|384:125|448:141,2,134.999995880127,2|2|2,3:0|3:0|3:0,0:0:0:0:
438,231,19950,6,0,L|447:297,1,67.4999979400635,2|2,0:0|3:0,0:0:0:0:
350,260,20274,1,2,0:0:0:0:
397,379,20436,2,0,L|249:358,1,134.999995880127,2|2,3:0|3:0,0:0:0:0:
217,277,20923,2,0,P|153:261|100:299,1,134.999995880127,2|2,0:0|0:0,0:0:0:0:
7,317,21409,2,0,P|2:283|17:253,1,67.4999979400635,2|2,3:0|0:0,0:0:0:0:
82,187,21733,6,0,L|71:112,1,67.4999979400635,2|0,3:0|0:0,0:0:0:0:
234,318,22058,2,0,L|100:299,2,134.999995880127,2|2|2,3:0|3:0|3:0,0:0:0:0:
437,48,23031,6,0,P|452:78|448:111,1,67.4999979400635,2|2,3:0|0:0,0:0:0:0:
375,171,23355,2,0,B|333:175|311:149|323:142|293:118|249:130,1,134.999995880127,2|2,3:0|3:0,0:0:0:0:
463,203,23841,2,0,L|442:351,1,134.999995880127,2|2,0:0|0:0,0:0:0:0:
298,272,24328,6,0,L|364:262,2,67.4999979400635,2|0|2,3:0|0:0|3:0,0:0:0:0:
214,227,24814,2,0,P|176:280|192:343,1,134.999995880127,2|2,0:0|0:1,0:0:0:0:
100,367,25301,2,0,L|34:357,1,67.4999979400635,2|2,3:0|0:0,0:0:0:0:
71,163,25625,6,0,L|86:272,2,101.249996910095,2|2|2,3:0|0:1|0:0,0:0:0:0:
14,33,26274,2,0,P|0:62|3:96,1,67.4999979400635,2|0,3:0|0:0,0:0:0:0:
150,109,26598,5,2,3:0:0:0:
85,263,26760,2,0,B|118:276|127:322|127:322|156:293|199:299,1,150,12|8,0:0|0:3,0:0:0:0:
277,318,27166,1,0,3:0:0:0:
277,318,27247,2,0,P|280:281|262:248,1,75,0|0,3:0|3:0,0:0:0:0:
167,203,27571,5,8,0:0:0:0:
386,248,27733,1,8,0:0:0:0:
386,248,28220,6,0,L|366:99,1,150,4|8,0:0|0:0,0:0:0:0:
478,296,28706,2,0,L|483:258,2,37.5,0|2|0,0:0|0:1|3:0,0:0:0:0:
308,361,29031,6,0,P|344:364|377:346,1,75,2|2,3:0|0:0,0:0:0:0:
377,345,29355,2,0,B|333:353|306:321|319:314|291:287|238:301,1,150,8|0,0:0|0:0,0:0:0:0:
33,363,29841,2,0,B|71:357|100:386|100:386|109:340|142:327,1,150,8|0,0:0|3:3,0:0:0:0:
63,263,30328,1,2,3:0:0:0:
63,263,30652,6,0,B|72:195|72:195|75:187|75:187|85:112,1,150,8|0,0:0|3:0,0:0:0:0:
248,12,31139,2,0,P|265:44|262:81,1,75,8|2,0:0|0:0,0:0:0:0:
241,161,31382,1,0,3:3:0:0:
241,161,31463,2,0,L|161:172,2,75,8|0|0,0:3|3:0|0:0,0:0:0:0:
472,133,31950,6,0,P|424:87|340:100,1,150,8|2,0:0|0:0,0:0:0:0:
484,241,32436,2,0,P|451:259|414:256,1,75,8|0,0:0|0:0,0:0:0:0:
414,256,32679,1,0,3:3:0:0:
414,256,32760,1,8,0:3:0:0:
394,174,32923,5,0,3:0:0:0:
346,333,33085,2,0,B|302:341|275:309|288:302|260:275|207:289,1,150,8|4,0:0|0:0,0:0:0:0:
298,200,33571,5,2,0:0:0:0:
137,226,33733,2,0,P|119:193|123:156,1,75,8|0,0:0|0:0,0:0:0:0:
123,156,33977,1,2,0:1:0:0:
123,156,34058,1,0,3:0:0:0:
215,292,34220,6,0,L|295:303,1,75,0|2,3:0|0:0,0:0:0:0:
289,302,34544,2,0,B|221:311|221:311|213:314|213:314|138:324,1,150,8|0,0:0|3:0,0:0:0:0:
370,371,35031,2,0,P|416:323|403:239,1,150,8|0,0:0|3:3,0:0:0:0:
459,162,35517,2,0,P|426:144|389:147,1,75,2|2,3:0|0:0,0:0:0:0:
255,11,35841,6,0,L|240:160,1,150,8|0,0:0|3:0,0:0:0:0:
145,135,36328,2,0,P|127:167|130:204,1,75,8|2,0:0|0:0,0:0:0:0:
86,270,36571,1,8,0:3:0:0:
86,270,36652,2,0,P|105:302|139:318,1,75,0|2,3:0|3:0,0:0:0:0:
213,255,36977,5,0,3:0:0:0:
31,170,37139,2,0,P|20:98|68:43,1,150,8|2,0:0|0:0,0:0:0:0:
314,150,37625,6,0,L|234:161,1,75,8|0,0:0|0:0,0:0:0:0:
239,160,37869,1,8,0:3:0:0:
239,160,37950,1,0,3:0:0:0:
278,39,38112,2,0,P|246:22|209:24,1,75,0|0,3:0|3:0,0:0:0:0:
124,268,38436,6,0,B|133:200|133:200|136:192|136:192|146:117,1,150,4|2,1:2|0:0,0:0:0:0:
185,343,38923,2,0,L|259:332,1,75,8|0,0:0|0:0,0:0:0:0:
300,266,39166,1,8,0:3:0:0:
300,266,39247,2,0,P|336:263|369:280,1,75,0|2,3:0|0:0,0:0:0:0:
512,356,39571,5,8,0:0:0:0:
420,384,39733,2,0,P|409:312|457:257,1,150,2|0,0:0|3:0,0:0:0:0:
386,189,40220,2,0,L|397:115,1,75,8|2,0:0|0:0,0:0:0:0:
356,53,40463,1,8,0:3:0:0:
356,53,40544,2,0,L|282:64,1,75,0|0,3:3|3:0,0:0:0:0:
246,244,40869,5,8,0:0:0:0:
123,198,41031,2,0,B|167:206|194:174|181:167|209:140|262:154,1,150,2|0,0:0|3:0,0:0:0:0:
346,191,41517,2,0,P|364:223|361:260,1,75,8|0,0:0|0:0,0:0:0:0:
405,326,41760,1,8,0:3:0:0:
405,326,41841,2,0,P|386:358|352:374,1,75,0|2,3:0|0:0,0:0:0:0:
246,244,42166,5,8,0:0:0:0:
271,334,42328,2,0,B|198:324|198:324|190:321|190:321|122:312,1,150,2|0,0:0|3:0,0:0:0:0:
65,227,42814,5,8,0:0:0:0:
0,371,42977,2,0,L|37:366,2,37.5,2|8|8,0:3|0:0|0:0,0:0:0:0:
250,276,43301,6,0,P|195:323|123:312,1,150,8|0,0:3|3:0,0:0:0:0:
65,227,43787,2,0,L|88:66,1,157.499995193482,6|2,0:0|0:0,0:0:0:0:
289,124,44436,6,0,B|258:132|247:173|247:173|223:145|185:147,1,134.999995880127,2|2,0:3|0:0,0:0:0:0:
87,71,44923,2,0,L|220:51,1,134.999995880127,2|2,0:3|0:3,0:0:0:0:
420,110,45571,5,8,0:3:0:0:
420,110,45652,1,0,3:0:0:0:
420,110,45733,2,0,L|409:184,1,75,12|0,0:0|3:0,0:0:0:0:
512,312,46058,2,0,P|515:275|497:242,1,75,12|2,0:0|0:0,0:0:0:0:
336,264,46382,2,0,L|262:275,1,75,12|0,0:0|3:0,0:0:0:0:
277,171,46706,5,0,3:0:0:0:
182,346,46869,2,0,B|138:354|111:322|124:315|96:288|43:302,1,150,12|0,0:0|3:0,0:0:0:0:
262,275,47355,5,8,0:0:0:0:
434,384,47517,2,0,P|449:320|411:267,1,134.999995880127,6|0,0:0|0:0,0:0:0:0:
411,267,47841,2,0,L|366:274,1,44.999998626709,8|0,0:0|0:0,0:0:0:0:
182,346,48004,5,8,0:0:0:0:
182,346,48814,6,0,B|191:278|191:278|194:270|194:270|204:195,1,150,10|2,3:2|0:3,0:0:0:0:
94,267,49301,6,0,L|8:279,1,75,8|2,0:0|0:0,0:0:0:0:
197,84,49625,2,0,P|233:80|265:99,1,75,0|0,3:0|3:0,0:0:0:0:
204,198,49950,5,8,0:0:0:0:
0,105,50112,2,0,B|33:118|42:164|42:164|71:135|114:141,1,150,2|2,0:3|0:3,0:0:0:0:
191,294,50598,6,0,P|227:298|259:279,1,75,8|2,0:0|0:0,0:0:0:0:
340,296,50841,1,2,0:1:0:0:
340,296,50923,2,0,P|361:266|361:229,1,75,0|0,3:0|3:0,0:0:0:0:
204,198,51247,5,8,0:0:0:0:
431,155,51409,2,0,P|441:83|393:28,1,150,4|2,0:0|0:2,0:0:0:0:
512,216,51896,6,0,L|500:302,1,75,8|0,0:0|0:0,0:0:0:0:
305,70,52220,2,0,L|317:156,1,75,0|0,3:0|3:0,0:0:0:0:
431,155,52544,5,8,0:0:0:0:
269,245,52706,2,0,B|225:253|198:221|211:214|183:187|130:201,1,150,2|0,0:3|3:0,0:0:0:0:
336,315,53193,2,0,P|355:346|351:383,1,75,8|8,0:0|0:3,0:0:0:0:
315,144,53517,5,12,0:0:0:0:
142,207,53679,1,8,0:0:0:0:
142,207,53760,1,8,0:0:0:0:
142,207,53841,2,0,P|145:178|163:159,1,44.999998626709,8|0,0:3|3:0,0:0:0:0:
133,88,54004,2,0,P|159:77|185:82,1,44.999998626709,8|8,0:0|0:0,0:0:0:0:
315,144,54166,6,0,B|387:134|387:134|395:131|395:131|463:122,2,150,4|8|0,0:0|0:0|3:0,0:0:0:0:
453,321,54977,1,0,0:0:0:0:
502,230,55139,2,0,L|416:218,1,75,8|2,0:0|3:2,0:0:0:0:
228,92,55463,6,0,P|209:123|214:160,1,75,0|0,0:0|3:0,0:0:0:0:
390,74,55787,2,0,L|378:-12,1,75,8|2,0:0|0:0,0:0:0:0:
329,241,56112,5,0,3:0:0:0:
315,144,56274,1,2,0:3:0:0:
428,220,56436,5,8,0:0:0:0:
214,160,56598,2,0,P|166:214|176:286,1,150,2|0,0:3|3:0,0:0:0:0:
134,97,57085,6,0,L|59:107,1,75,8|0,0:0|3:0,0:0:0:0:
331,335,57409,2,0,L|256:345,1,75,8|0,0:0|3:0,0:0:0:0:
176,286,57733,5,12,0:0:0:0:
348,114,57896,2,0,B|299:101|271:128|284:135|257:167|213:159,1,150,12|8,0:0|0:0,0:0:0:0:
134,97,58382,5,8,0:0:0:0:
337,200,58544,2,0,L|328:262,1,44.999998626709,8|8,0:0|0:0,0:0:0:0:
487,96,58706,5,8,0:3:0:0:
487,96,58869,2,0,L|442:102,1,44.999998626709,8|8,0:0|0:0,0:0:0:0:
348,114,59031,5,8,0:0:0:0:
411,297,59193,2,0,B|378:310|369:356|369:356|340:327|301:333,1,150,4|2,0:2|0:3,0:0:0:0:
483,242,59679,6,0,P|488:205|468:174,1,75,8|2,0:0|0:0,0:0:0:0:
491,100,59923,1,2,0:1:0:0:
491,100,60004,2,0,P|461:77|424:78,1,75,0|0,3:0|0:0,0:0:0:0:
337,200,60328,5,8,0:0:0:0:
375,1,60490,2,0,L|226:21,1,150,2|2,0:3|3:0,0:0:0:0:
78,138,60977,6,0,L|3:127,1,75,8|2,0:0|0:0,0:0:0:0:
58,42,61301,2,0,L|133:53,1,75,0|0,3:0|3:0,0:0:0:0:
226,21,61625,5,8,0:0:0:0:
337,200,61787,2,0,B|293:208|266:176|279:169|251:142|198:156,1,150,4|2,0:0|3:2,0:0:0:0:
414,150,62274,6,0,P|418:113|400:81,1,75,8|0,0:0|0:0,0:0:0:0:
137,223,62598,2,0,L|62:212,1,75,0|0,3:0|3:0,0:0:0:0:
305,369,62923,2,0,L|294:294,1,75,8|2,0:0|0:3,0:0:0:0:
243,62,63247,5,8,0:0:0:0:
203,155,63409,1,0,3:0:0:0:
351,228,63571,2,0,P|387:232|419:214,1,75,8|8,0:0|0:3,0:0:0:0:
493,258,63814,1,8,0:0:0:0:
493,258,63896,2,0,P|504:238|504:216,2,44.999998626709,8|8|0,0:0|0:0|3:0,0:0:0:0:
253,307,64220,6,0,P|275:306|294:295,1,44.999998626709,8|8,0:0|0:0,0:0:0:0:
368,145,64382,2,0,B|377:77|377:77|380:69|380:69|390:-6,1,150,4|2,0:0|0:0,0:0:0:0:
260,186,64869,6,0,L|248:100,1,75,8|2,0:0|0:3,0:0:0:0:
185,74,65112,1,2,3:0:0:0:
185,74,65193,2,0,L|197:-12,1,75,2|2,3:2|0:0,0:0:0:0:
109,161,65517,2,0,P|77:179|40:175,1,75,8|2,0:0|0:0,0:0:0:0:
58,82,65841,5,2,1:2:0:0:
250,111,66004,2,0,L|336:123,1,75,2|8,0:3|0:0,0:0:0:0:
109,161,66328,5,2,0:3:0:0:
82,261,66490,2,0,B|121:256|150:285|150:285|159:239|192:226,1,150,0|8,3:0|0:0,0:0:0:0:
205,376,66977,5,8,0:0:0:0:
205,376,67058,1,8,0:0:0:0:
205,376,67139,1,4,0:0:0:0:
254,149,67301,1,0,3:0:0:0:
264,291,67463,6,0,L|338:280,1,75,12|2,0:0|0:0,0:0:0:0:
35,172,67787,2,0,L|109:161,1,75,12|0,0:0|3:0,0:0:0:0:
254,149,68112,5,12,0:0:0:0:
391,365,68274,2,0,P|438:310|428:238,1,150,4|10,0:0|0:0,0:0:0:0:
480,155,68760,2,0,P|448:136|411:140,1,75,8|10,0:0|0:0,0:0:0:0:
411,140,69004,1,8,0:0:0:0:
411,140,69085,1,0,3:0:0:0:
151,246,69247,6,0,L|188:240,2,37.5,2|0|0,3:0|3:0|3:0,0:0:0:0:
338,279,69571,2,0,L|300:273,1,37.5,2|0,3:0|3:0,0:0:0:0:
263,192,69733,6,0,L|243:43,1,150,4|0,0:0|3:0,0:0:0:0:
42,0,70220,2,0,B|75:13|84:59|84:59|113:30|151:35,1,150,8|2,0:0|3:0,0:0:0:0:
160,172,70706,6,0,B|92:163|92:163|84:160|84:160|9:150,1,150,8|0,0:0|3:0,0:0:0:0:
263,192,71193,2,0,P|310:247|300:319,1,150,12|8,0:0|0:3,0:0:0:0:
178,262,71679,5,8,0:0:0:0:
176,274,71760,1,8,0:0:0:0:
175,285,71841,1,8,0:0:0:0:
173,296,71923,1,0,3:0:0:0:
172,307,72004,2,8,L|209:301,3,37.5,8|8|8|8,0:0|0:0|0:0|0:0,0:0:0:0:
300,319,72328,6,0,B|349:306|377:333|364:340|391:372|435:364,1,150,4|0,0:0|3:0,0:0:0:0:
512,306,72814,2,0,P|522:233|475:178,1,150,8|0,0:0|3:0,0:0:0:0:
402,239,73301,5,8,0:0:0:0:
446,84,73463,2,0,L|297:104,1,150,2|2,0:3|0:3,0:0:0:0:
206,68,73950,2,0,P|202:31|221:0,1,75,8|0,0:0|3:0,0:0:0:0:
221,0,74194,1,0,3:0:0:0:
221,0,74275,1,8,0:0:0:0:
228,165,74436,5,0,3:0:0:0:
57,138,74598,2,0,L|132:149,1,75,12|2,0:0|0:0,0:0:0:0:
131,148,74923,6,0,B|126:110|155:81|155:81|111:73|96:39,1,150,12|0,0:0|3:0,0:0:0:0:
181,239,75410,2,0,B|216:253|227:293|227:293|255:259|292:263,1,150,12|0,0:0|0:0,0:0:0:0:
77,236,75896,2,0,B|46:259|6:248|6:248|22:290|0:320,1,150,12|0,0:0|3:3,0:0:0:0:
131,148,76382,6,0,P|134:111|115:79,2,75,8|0|0,0:0|3:0|3:0,0:0:0:0:
238,20,76869,2,0,P|208:-1|171:0,1,75,12|0,0:0|3:0,0:0:0:0:
17,74,77193,5,12,0:0:0:0:
238,117,77355,1,4,0:0:0:0:
256,192,77436,12,0,78814,0:0:0:0:
176,84,78977,6,0,L|187:4,1,67.4999979400635,8|8,0:0|0:0,0:0:0:0:
421,237,79463,2,0,L|432:157,1,67.4999979400635,8|8,0:0|0:0,0:0:0:0:
430,170,79950,6,0,B|357:179|357:179|349:182|349:182|281:191,1,150,4|0,0:0|3:0,0:0:0:0:
208,255,80436,2,0,B|164:263|137:231|150:224|122:197|69:211,1,150,8|0,0:0|3:0,0:0:0:0:
269,331,80923,2,0,P|306:334|338:315,1,75,2|8,0:3|0:0,0:0:0:0:
293,117,81247,6,0,L|282:191,1,75,2|0,0:1|0:0,0:0:0:0:
224,36,81571,1,2,0:1:0:0:
136,79,81733,2,0,P|118:111|121:148,1,75,8|2,0:0|0:3,0:0:0:0:
77,214,81977,1,8,0:0:0:0:
77,214,82058,2,0,P|96:246|130:262,1,75,8|2,0:3|0:0,0:0:0:0:
195,198,82382,5,8,0:0:0:0:
143,382,82544,2,0,P|197:334|269:345,1,150,6|0,0:0|3:0,0:0:0:0:
360,315,83031,2,0,P|378:347|375:384,1,75,8|0,0:0|3:0,0:0:0:0:
443,165,83355,2,0,P|479:161|512:179,1,75,8|0,0:0|3:0,0:0:0:0:
457,266,83679,5,8,0:0:0:0:
246,178,83841,2,0,B|279:191|288:237|288:237|317:208|360:214,1,150,6|8,0:0|0:0,0:0:0:0:
459,4,84328,2,0,L|385:15,1,75,8|8,0:0|0:0,0:0:0:0:
384,15,84571,1,8,0:0:0:0:
384,15,84652,1,0,3:0:0:0:
325,124,84814,6,0,L|330:86,2,37.5,4|0|8,0:3|3:0|0:3,0:0:0:0:
178,0,85139,1,4,0:0:0:0:
256,192,85220,12,0,87247,0:0:0:0:
