osu file format v14

[General]
AudioFilename: audio.mp3
AudioLeadIn: 0
PreviewTime: 48044
Countdown: 0
SampleSet: Soft
StackLeniency: 0.4
Mode: 0
LetterboxInBreaks: 0
WidescreenStoryboard: 1

[Editor]
Bookmarks: 5518,17842,38436,48814,69733,79965
DistanceSpacing: 1.3
BeatDivisor: 4
GridSize: 8
TimelineZoom: 1.4

[Metadata]
Title:Kaikai Kitan (TV Size)
TitleUnicode:廻廻奇譚 (TV Size)
Artist:Eve
ArtistUnicode:Eve
Creator:Irohas
Version:Hard
Source:呪術廻戦
Tags:mugiwarasekai pentori jujutsu kaisen sorcery fight opening pop j-pop jpop japanese anime
BeatmapID:2678561
BeatmapSetID:1276213

[Difficulty]
HPDrainRate:4.5
CircleSize:4.1
OverallDifficulty:6
ApproachRate:8
SliderMultiplier:1.3
SliderTickRate:1

[Events]
//Background and Video events
0,0,"bgs.png",0,0
Video,-550,"video.mp4"
//Break Periods
//Storyboard Layer 0 (Background)
//Storyboard Layer 1 (Fail)
//Storyboard Layer 2 (Pass)
//Storyboard Layer 3 (Foreground)
//Storyboard Layer 4 (Overlay)
//Storyboard Sound Samples

[TimingPoints]
5518,324.324324324324,4,2,1,70,1,0
10382,-76.9230769230769,4,2,1,70,0,0
11031,-100,4,2,1,70,0,0
15896,-370.37037037037,4,2,1,70,0,0
17517,-370.37037037037,4,2,1,30,0,0
17760,-370.37037037037,4,2,1,5,0,0
17842,324.324324324324,4,2,1,50,1,0
17842,-125,4,2,1,50,0,0
26760,-100,4,2,1,50,0,0
28220,-105.263157894737,4,2,1,60,0,0
31950,-100,4,2,1,60,0,0
32274,-105.263157894737,4,2,1,60,0,0
37950,-100,4,2,1,60,0,0
38436,-117.647058823529,4,2,1,60,0,0
43787,-153.846153846153,4,2,1,60,0,0
45733,-100,4,2,1,60,0,0
46382,-100,4,2,1,60,0,0
47517,-100,4,2,1,60,0,0
47760,-58.8235294117647,4,2,1,5,0,0
47841,-58.8235294117647,4,2,1,60,0,0
47923,-58.8235294117647,4,2,1,5,0,0
48004,-58.8235294117647,4,2,1,60,0,0
48085,-58.8235294117647,4,2,1,60,0,0
48166,-100,4,2,1,40,0,0
48328,-71.4285714285714,4,2,1,40,0,0
48490,-125,4,2,1,40,0,0
48814,-100,4,2,7,87,0,1
48977,-100,4,2,1,70,0,0
58869,-90.9090909090909,4,2,1,70,0,0
59193,-100,4,2,1,70,0,1
59355,-100,4,2,1,70,0,0
63896,-100,4,2,1,70,0,0
64382,-100,4,2,1,70,0,0
69733,-111.111111111111,4,2,1,70,0,0
72004,-76.9230769230769,4,2,1,70,0,0
72328,-111.111111111111,4,2,1,70,0,0
74923,-100,4,2,1,70,0,0
78085,-100,4,2,1,40,0,0
78814,-100,4,2,1,5,0,0
78977,-111.111111111111,4,2,1,70,0,0
79950,-100,4,2,1,70,0,0
85220,-100,4,2,1,40,0,0
87247,-100,4,2,1,20,0,0

[Colours]
Combo1 : 149,149,149
Combo2 : 211,211,211
Combo3 : 245,106,82

[HitObjects]
0,225,5518,6,0,P|48:216|131:201,1,130,4|8,0:1|0:0,0:0:0:0:
194,150,6004,1,2,0:2:0:0:
253,210,6166,2,0,L|240:287,1,65,0|2,3:3|0:3,0:0:0:0:
177,328,6490,1,8,0:0:0:0:
247,374,6653,6,0,B|310:384|314:339|385:358,1,130,2|2,0:1|0:1,0:0:0:0:
485,306,7139,2,0,P|458:291|425:288,1,65,8|2,0:0|0:3,0:0:0:0:
375,219,7463,2,0,P|386:157|399:83,1,130,0|8,3:3|0:0,0:0:0:0:
445,20,7950,6,0,P|362:55|320:46,1,130,6|0,0:0|3:0,0:0:0:0:
253,91,8436,2,0,L|179:80,1,65,8|2,0:0|0:2,0:0:0:0:
127,148,8761,2,0,B|109:178|109:178|129:273,1,130,0|8,3:3|0:0,0:0:0:0:
211,333,9247,6,0,B|262:320|262:320|297:350|349:331,1,130,2|0,0:0|3:0,0:0:0:0:
404,287,9734,2,0,L|470:299,1,65,8|0,0:0|3:0,0:0:0:0:
345,229,10058,1,8,0:0:0:0:
395,161,10220,2,8,L|386:117,2,32.5,8|8|0,0:0|0:0|3:0,0:0:0:0:
345,229,10545,1,8,0:0:0:0:
339,232,10626,1,8,0:0:0:0:
334,235,10707,1,0,3:0:0:0:
334,235,11031,6,0,B|275:243|267:200|196:219,1,130,8|0,0:0|3:3,0:0:0:0:
140,165,11517,2,0,P|142:128|155:94,1,65,2|8,0:3|0:0,0:0:0:0:
95,37,11842,6,0,P|37:45|6:105,2,130,2|2|2,0:1|0:1|0:3,0:0:0:0:
169,77,12653,2,0,L|281:60,1,97.5,8|0,0:3|0:0,0:0:0:0:
265,62,12977,1,8,0:0:0:0:
378,40,13139,6,0,P|350:104|356:172,1,130,6|0,0:0|3:0,0:0:0:0:
421,224,13626,2,0,L|494:215,1,65,8|0,0:0|3:0,0:0:0:0:
360,286,13950,2,0,P|321:277|287:280,1,65,8|0,0:0|3:0,0:0:0:0:
220,315,14274,1,8,0:0:0:0:
171,245,14436,6,0,P|180:192|195:105,1,130,6|8,0:0|0:0,0:0:0:0:
133,56,14923,1,8,0:0:0:0:
204,10,15085,6,0,L|243:16,2,32.5,8|8|0,0:0|0:0|3:0,0:0:0:0:
303,76,15409,6,0,L|342:70,2,32.5,0|0|0,3:0|3:0|3:0,0:0:0:0:
402,23,15734,6,0,L|441:29,2,32.5,0|0|4,3:0|3:0|0:0,0:0:0:0:
256,192,15977,12,0,17517,0:0:0:0:
253,173,17842,6,0,L|237:60,1,104,0|2,3:0|3:0,0:0:0:0:
414,194,18490,2,0,L|397:304,1,104,2|2,3:0|3:0,0:0:0:0:
337,354,18977,6,0,P|295:364|241:337,1,104,2|0,0:0|0:0,0:0:0:0:
169,297,19463,2,0,L|110:310,1,52,2|0,3:0|0:0,0:0:0:0:
50,269,19787,1,2,3:0:0:0:
49,263,19950,2,0,P|56:220|68:150,1,104,2|2,0:0|0:0,0:0:0:0:
18,92,20436,5,2,3:0:0:0:
161,161,20760,1,2,3:0:0:0:
161,161,20923,2,0,L|270:145,1,104,2|2,0:0|0:0,0:0:0:0:
328,91,21409,2,0,P|335:64|336:38,1,52,2|2,3:0|0:0,0:0:0:0:
417,0,21733,6,0,P|462:4|496:53,2,104,2|2|2,3:0|3:0|3:0,0:0:0:0:
347,183,22706,2,0,L|362:287,1,104,2|2,3:0|3:0,0:0:0:0:
424,339,23193,1,2,0:0:0:0:
350,384,23355,6,0,P|295:354|252:355,1,104,2|2,3:0|3:0,0:0:0:0:
177,323,23841,2,0,P|125:333|69:344,1,104,2|2,0:0|0:0,0:0:0:0:
7,289,24328,6,0,P|15:254|16:227,1,52,2|0,3:0|0:0,0:0:0:0:
66,172,24652,1,2,3:0:0:0:
66,172,24814,2,0,P|60:120|45:56,1,104,2|2,0:0|0:1,0:0:0:0:
115,18,25301,2,0,L|171:27,1,52,2|2,3:0|0:0,0:0:0:0:
247,76,25625,6,0,P|253:37|263:-11,2,78,2|2|2,3:0|0:1|0:0,0:0:0:0:
188,141,26274,2,0,L|203:249,1,104,2|2,3:0|3:0,0:0:0:0:
149,304,26760,1,12,0:0:0:0:
374,340,27085,5,8,0:3:0:0:
374,340,27166,1,0,3:0:0:0:
374,340,27247,2,0,P|402:267|382:212,1,130,0|8,3:0|0:0,0:0:0:0:
336,154,27733,1,8,0:0:0:0:
330,162,28220,6,0,P|269:173|204:185,1,123.499996702194,4|8,0:0|0:0,0:0:0:0:
150,128,28706,2,0,L|159:88,2,30.8749991755486,0|2|0,0:0|0:1|3:0,0:0:0:0:
100,191,29031,2,0,P|127:235|130:312,1,123.499996702194,2|8,3:0|0:0,0:0:0:0:
113,381,29517,6,0,P|164:349|206:352,1,92.6249975266457,2|2,0:1|0:1,0:0:0:0:
206,342,29841,2,0,L|285:358,1,61.7499983510972,8|2,0:0|0:1,0:0:0:0:
343,320,30166,1,0,3:3:0:0:
406,380,30328,2,0,P|414:341|432:247,1,123.499996702194,2|8,3:0|0:0,0:0:0:0:
328,147,30977,5,2,0:0:0:0:
262,198,31139,2,0,L|190:187,1,61.7499983510972,8|2,0:0|0:0,0:0:0:0:
137,247,31463,1,8,0:3:0:0:
137,247,31625,2,0,P|146:278|149:320,1,61.7499983510972,0|0,3:0|0:0,0:0:0:0:
213,367,31950,6,0,B|276:377|280:332|351:351,1,130,8|2,0:0|0:0,0:0:0:0:
426,316,32436,2,0,P|438:357|436:384,1,61.7499983510972,8|0,0:0|0:0,0:0:0:0:
356,264,32760,2,0,L|379:132,2,123.499996702194,8|8|4,0:3|0:0|0:0,0:0:0:0:
294,316,33571,1,2,0:0:0:0:
234,262,33733,6,0,P|167:236|115:249,1,123.499996702194,8|0,0:0|3:0,0:0:0:0:
54,198,34220,2,0,P|56:163|69:124,1,61.7499983510972,0|2,3:0|0:0,0:0:0:0:
0,100,34544,6,0,P|45:92|121:79,1,123.499996702194,8|0,0:0|0:0,0:0:0:0:
185,24,35031,1,8,0:0:0:0:
255,69,35193,2,0,P|302:73|366:31,1,123.499996702194,2|2,0:1|3:0,0:0:0:0:
418,103,35679,2,0,L|406:172,1,61.7499983510972,2|8,0:0|0:0,0:0:0:0:
345,216,36004,1,2,3:2:0:0:
403,282,36166,6,0,P|363:261|280:272,1,123.499996702194,0|2,3:0|0:0,0:0:0:0:
215,309,36652,2,0,L|154:298,1,61.7499983510972,0|2,3:0|3:0,0:0:0:0:
82,253,36977,1,0,3:0:0:0:
21,317,37139,6,0,P|11:263|-2:186,1,123.499996702194,8|2,0:0|0:0,0:0:0:0:
106,109,37625,2,0,P|99:143|97:170,1,61.7499983510972,8|0,0:0|0:0,0:0:0:0:
167,226,37950,2,0,B|230:236|234:191|305:210,1,130,0|0,3:0|3:0,0:0:0:0:
368,163,38436,1,4,1:2:0:0:
368,163,38760,5,2,0:0:0:0:
419,231,38923,2,0,L|406:291,1,55.2500010538101,8|0,0:0|0:0,0:0:0:0:
349,340,39247,2,0,P|298:339|250:376,1,110.50000210762,0|8,3:0|0:0,0:0:0:0:
175,335,39733,1,2,0:0:0:0:
103,375,39896,6,0,P|52:376|4:339,2,110.50000210762,2|8|0,3:0|0:0|3:3,0:0:0:0:
266,277,40869,1,8,0:0:0:0:
339,312,41031,2,0,L|397:303,1,55.2500010538101,2|0,0:0|3:0,0:0:0:0:
469,338,41355,2,0,L|492:222,1,110.50000210762,0|0,3:0|0:0,0:0:0:0:
508,144,41841,6,0,L|449:157,1,55.2500010538101,0|2,3:0|0:0,0:0:0:0:
382,202,42166,2,0,P|351:194|326:195,1,55.2500010538101,8|2,0:0|0:0,0:0:0:0:
257,149,42490,6,0,P|209:168|148:159,1,110.50000210762,2|8,3:0|0:0,0:0:0:0:
89,105,42977,2,0,L|96:72,2,27.6250005269051,2|8|8,0:3|0:0|0:0,0:0:0:0:
40,172,43301,2,0,L|57:292,1,110.50000210762,8|0,0:3|3:0,0:0:0:0:
152,367,43787,6,0,B|239:369|223:309|321:326,1,168.999992263794,6|2,0:0|0:3,0:0:0:0:
444,210,44760,1,2,0:0:0:0:
446,206,44923,2,0,L|430:119,2,84.4999961318971,2|2|8,0:3|0:3|0:3,0:0:0:0:
394,270,45733,2,8,L|264:251,1,130,12|12,0:0|0:0,0:0:0:0:
265,251,46220,1,2,0:0:0:0:
207,332,46382,6,0,B|160:321|160:321|121:349|78:336,1,130,12|0,0:0|3:0,0:0:0:0:
5,259,46869,1,12,0:0:0:0:
11,264,47031,2,0,L|78:251,1,65,0|0,3:0|3:0,0:0:0:0:
133,190,47355,1,8,0:0:0:0:
221,252,47517,6,0,P|232:191|244:119,1,130,6|8,0:0|0:0,0:0:0:0:
188,40,48004,1,8,0:0:0:0:
188,40,48814,6,0,P|126:49|95:106,1,130,10|2,3:2|0:3,0:0:0:0:
40,169,49301,2,0,P|49:201|53:238,1,65,8|2,0:0|0:0,0:0:0:0:
97,329,49625,2,0,P|62:334|27:346,1,65,0|0,3:0|3:0,0:0:0:0:
156,256,49950,1,8,0:0:0:0:
156,256,50112,6,0,L|287:274,1,130,2|2,0:3|0:3,0:0:0:0:
355,226,50598,2,0,P|354:189|343:156,1,65,8|2,0:0|0:0,0:0:0:0:
295,94,50923,2,0,L|308:25,1,65,0|0,3:0|3:0,0:0:0:0:
213,140,51247,1,8,0:0:0:0:
213,140,51409,6,0,B|132:136|156:102|76:112,1,130,4|2,0:0|0:2,0:0:0:0:
2,62,51896,2,0,P|60:16|124:25,1,130,8|0,0:0|3:0,0:0:0:0:
88,110,52382,2,0,L|77:182,1,65,0|8,3:0|0:0,0:0:0:0:
13,232,52706,5,2,0:3:0:0:
159,346,53031,1,0,3:0:0:0:
159,346,53193,2,0,L|224:335,1,65,8|0,0:0|3:3,0:0:0:0:
298,297,53517,2,8,P|333:295|375:352,2,97.5,12|8|8,0:0|0:0|0:0,0:0:0:0:
242,231,54166,6,0,P|246:197|255:159,1,65,0|2,3:0|0:0,0:0:0:0:
151,86,54490,2,0,L|162:159,1,65,8|2,0:0|0:0,0:0:0:0:
97,210,54814,2,8,P|40:191|3:196,2,97.5,0|2|2,3:0|0:1|3:2,0:0:0:0:
191,285,55463,6,0,P|256:275|324:264,1,130,0|8,0:0|0:0,0:0:0:0:
389,217,55950,1,2,0:0:0:0:
351,141,56112,2,0,L|363:78,2,65,0|2|8,3:0|0:3|0:0,0:0:0:0:
278,184,56598,6,0,B|215:194|211:149|140:168,1,130,2|0,0:3|3:0,0:0:0:0:
75,229,57085,2,8,P|65:179|48:93,2,130,8|8|12,0:0|0:0|0:0,0:0:0:0:
147,313,57896,6,0,P|105:342|23:334,1,130,12|8,0:0|0:0,0:0:0:0:
171,223,58382,2,0,L|240:234,1,65,8|8,0:0|0:0,0:0:0:0:
310,184,58706,1,8,0:3:0:0:
265,108,58869,2,8,L|274:64,2,35.7500010910034,8|8|8,0:0|0:0|0:0,0:0:0:0:
310,184,59193,6,0,P|383:173|442:165,1,130,4|2,0:2|0:3,0:0:0:0:
499,233,59679,2,0,L|484:305,1,65,8|2,0:0|0:0,0:0:0:0:
416,346,60004,2,0,P|382:336|350:336,1,65,0|0,3:0|0:0,0:0:0:0:
278,294,60328,1,8,0:0:0:0:
206,338,60490,6,0,B|171:340|144:319|144:319|105:316|76:336,1,130,2|2,0:3|3:0,0:0:0:0:
0,250,60977,2,0,P|34:253|66:244,1,65,8|2,0:0|0:0,0:0:0:0:
109,174,61301,2,0,L|98:105,1,65,0|0,3:0|3:0,0:0:0:0:
145,39,61625,1,8,0:0:0:0:
222,73,61787,6,0,B|301:70|269:35|358:45,1,130,4|2,0:0|3:2,0:0:0:0:
422,82,62274,2,0,P|487:71|512:9,2,130,8|0|8,0:0|3:0|0:0,0:0:0:0:
349,125,63085,1,2,0:3:0:0:
412,180,63247,6,0,P|435:238|422:319,1,130,8|8,0:0|0:0,0:0:0:0:
362,353,63733,1,8,0:3:0:0:
362,353,63814,1,8,0:0:0:0:
362,353,63896,2,0,L|289:341,1,65,8|0,0:0|3:0,0:0:0:0:
223,382,64220,1,8,0:0:0:0:
147,341,64382,6,0,B|92:329|92:329|58:355|16:344,1,130,4|2,0:0|0:0,0:0:0:0:
148,241,64869,2,0,P|141:204|133:165,2,65,8|2|2,0:0|0:3|3:2,0:0:0:0:
224,291,65355,1,2,0:0:0:0:
224,291,65517,2,0,L|297:278,1,65,8|2,0:0|0:0,0:0:0:0:
353,223,65841,1,2,1:2:0:0:
424,269,66004,6,0,P|441:227|432:144,1,130,2|2,0:3|0:3,0:0:0:0:
484,74,66490,2,0,P|414:108|363:98,1,130,0|8,3:0|0:0,0:0:0:0:
309,43,66977,1,8,0:0:0:0:
309,43,67058,1,8,0:0:0:0:
309,43,67139,6,0,P|272:35|231:27,1,65,4|0,0:0|3:0,0:0:0:0:
204,139,67463,2,0,P|238:145|278:154,1,65,12|2,0:0|0:0,0:0:0:0:
141,70,67787,2,0,L|2:93,1,130,12|12,0:0|0:0,0:0:0:0:
12,91,68274,1,4,0:0:0:0:
116,203,68598,6,8,L|107:272,1,65,10|8,0:0|0:0,0:0:0:0:
37,318,68923,2,8,L|1:312,2,32.5,10|8|0,0:0|0:0|3:0,0:0:0:0:
106,366,69247,2,0,B|157:357|157:357|171:367|171:367|238:355,1,130,2|2,3:0|3:0,0:0:0:0:
231,356,69733,5,4,0:0:0:0:
375,305,70058,2,0,P|345:299|311:294,1,58.4999982147217,0|8,3:0|0:0,0:0:0:0:
256,233,70382,1,2,0:0:0:0:
256,233,70544,2,0,P|266:173|277:112,1,116.999996429443,2|2,3:0|0:0,0:0:0:0:
244,35,71031,1,0,3:0:0:0:
328,57,71193,6,0,P|369:66|456:12,1,146.249995536804,12|0,0:0|0:0,0:0:0:0:
471,28,71679,6,8,L|459:70,3,29.2499991073609,8|8|8|0,0:0|0:0|0:0|3:0,0:0:0:0:
512,123,72004,6,8,L|500:172,3,42.2499980659486,8|8|8|8,0:0|0:0|0:0|0:0,0:0:0:0:
440,222,72328,5,4,0:0:0:0:
440,222,72652,2,0,L|425:291,1,58.4999982147217,0|8,3:0|0:0,0:0:0:0:
362,345,72977,2,0,P|320:322|245:332,1,116.999996429443,2|8,0:0|0:0,0:0:0:0:
179,373,73463,2,0,L|114:363,1,58.4999982147217,2|0,0:3|0:0,0:0:0:0:
8,305,73787,2,0,P|41:303|66:294,1,58.4999982147217,2|8,0:3|0:0,0:0:0:0:
121,221,74112,5,0,3:0:0:0:
121,221,74274,2,8,L|109:153,2,58.4999982147217,8|0|12,0:0|3:0|0:0,0:0:0:0:
121,221,74760,1,2,0:0:0:0:
228,296,74923,6,0,P|270:289|359:276,1,130,12|0,0:0|3:0,0:0:0:0:
430,215,75409,1,12,0:0:0:0:
432,209,75733,5,0,3:0:0:0:
403,117,75896,2,0,P|373:117|328:201,1,130,12|0,0:0|3:3,0:0:0:0:
259,249,76382,2,0,P|222:239|191:240,1,65,8|0,0:0|3:0,0:0:0:0:
129,186,76706,2,0,L|-9:209,1,130,0|0,3:0|3:0,0:0:0:0:
53,117,77193,1,8,0:0:0:0:
0,49,77355,5,4,0:0:0:0:
47,85,78977,5,8,0:0:0:0:
61,0,79139,1,8,0:0:0:0:
61,0,79463,5,8,0:0:0:0:
47,85,79625,1,8,0:0:0:0:
53,90,79950,6,0,P|101:81|183:67,1,130,4|0,0:0|3:0,0:0:0:0:
246,14,80436,1,8,0:0:0:0:
303,75,80598,2,0,L|294:151,1,65,2|0,0:0|3:0,0:0:0:0:
239,202,80923,2,0,L|249:279,1,65,2|8,0:3|0:0,0:0:0:0:
193,331,81247,6,0,B|113:334|139:298|54:312,2,130,2|2|2,0:1|0:1|0:3,0:0:0:0:
269,367,82058,2,0,P|307:358|339:360,1,65,8|2,0:3|0:0,0:0:0:0:
414,336,82382,1,8,0:0:0:0:
369,264,82544,6,0,P|379:213|397:127,1,130,6|0,0:0|3:0,0:0:0:0:
429,59,83031,2,8,P|474:58|510:133,2,130,8|8|8,0:0|0:0|0:0,0:0:0:0:
356,15,83841,5,6,0:0:0:0:
218,113,84166,2,8,P|177:111|150:99,1,65,8|8,0:0|0:0,0:0:0:0:
92,46,84490,2,8,L|99:11,2,32.5,8|8|0,0:0|0:0|3:0,0:0:0:0:
35,108,84814,2,0,L|46:177,1,65,4|8,0:3|0:3,0:0:0:0:
0,245,85139,5,4,0:0:0:0:
256,192,85220,12,0,87247,0:0:0:0:
