osu file format v14

[General]
AudioFilename: audio.mp3
AudioLeadIn: 0
PreviewTime: 48044
Countdown: 0
SampleSet: Soft
StackLeniency: 0.5
Mode: 0
LetterboxInBreaks: 0
WidescreenStoryboard: 1

[Editor]
Bookmarks: 5518,17842,38436,48814,69733,79965
DistanceSpacing: 1
BeatDivisor: 8
GridSize: 16
TimelineZoom: 1.7

[Metadata]
Title:Kaikai Kitan (TV Size)
TitleUnicode:廻廻奇譚 (TV Size)
Artist:Eve
ArtistUnicode:Eve
Creator:Irohas
Version:Expert
Source:呪術廻戦
Tags:mugiwarasekai pentori jujutsu kaisen sorcery fight opening pop j-pop jpop japanese anime
BeatmapID:2651581
BeatmapSetID:1276213

[Difficulty]
HPDrainRate:6
CircleSize:4.2
OverallDifficulty:8.5
ApproachRate:9
SliderMultiplier:1.6
SliderTickRate:1

[Events]
//Background and Video events
0,0,"bgs.png",0,0
Video,-550,"video.mp4"
//Break Periods
//Storyboard Layer 0 (Background)
//Storyboard Layer 1 (Fail)
//Storyboard Layer 2 (Pass)
//Storyboard Layer 3 (Foreground)
//Storyboard Layer 4 (Overlay)
//Storyboard Sound Samples

[TimingPoints]
5518,324.324324324324,4,2,1,70,1,0
10382,-76.9230769230769,4,2,1,70,0,0
11031,-100,4,2,1,70,0,0
15896,-370.37037037037,4,2,1,70,0,0
17760,-370.37037037037,4,2,1,5,0,0
17842,324.324324324324,4,2,1,50,1,0
17842,-125,4,2,1,50,0,0
28220,-100,4,2,1,60,0,0
38436,-117.647058823529,4,2,1,60,0,0
43787,-166.666666666667,4,2,1,60,0,0
47517,-58.8235294117647,4,2,1,60,0,0
47760,-58.8235294117647,4,2,1,5,0,0
47841,-58.8235294117647,4,2,1,60,0,0
47923,-58.8235294117647,4,2,1,5,0,0
48004,-58.8235294117647,4,2,1,60,0,0
48085,-58.8235294117647,4,2,1,5,0,0
48166,-100,4,2,1,40,0,0
48328,-71.4285714285714,4,2,1,40,0,0
48490,-125,4,2,1,40,0,0
48814,-100,4,2,7,87,0,1
48977,-100,4,2,1,70,0,0
58869,-58.8235294117647,4,2,1,70,0,0
59193,-100,4,2,1,70,0,1
59355,-100,4,2,1,70,0,0
63896,-76.9230769230769,4,2,1,70,0,0
64382,-100,4,2,1,70,0,0
69733,-125,4,2,1,70,0,0
78085,-125,4,2,1,40,0,0
78814,-125,4,2,1,5,0,0
78977,-125,4,2,1,70,0,0
79950,-100,4,2,1,70,0,0
85220,-100,4,2,1,40,0,0
87247,-100,4,2,1,20,0,0

[Colours]
Combo1 : 149,149,149
Combo2 : 211,211,211
Combo3 : 245,106,82

[HitObjects]
304,270,5518,6,0,P|313:220|321:178,1,80,4|0,0:1|0:0,0:0:0:0:
177,86,5842,2,0,P|186:136|194:178,1,80,8|2,0:0|0:2,0:0:0:0:
77,337,6166,1,0,3:0:0:0:
14,245,6328,2,0,B|52:231|52:231|100:240,1,80,2|8,0:3|0:0,0:0:0:0:
282,342,6653,6,0,P|234:350|192:357,1,80,2|0,0:1|0:0,0:0:0:0:
415,253,6977,2,0,P|445:258|493:266,1,80,2|8,0:1|0:0,0:0:0:0:
297,143,7301,1,2,0:3:0:0:
297,143,7382,1,8,0:0:0:0:
297,143,7463,2,0,L|310:227,1,80,0|2,3:3|0:0,0:0:0:0:
387,92,7788,1,8,0:0:0:0:
198,218,7950,6,0,P|117:250|45:226,1,160,6|0,0:0|3:0,0:0:0:0:
104,49,8436,2,0,L|115:135,1,80,8|2,0:0|0:2,0:0:0:0:
199,221,8680,1,8,0:0:0:0:
199,221,8761,2,0,P|211:177|198:139,1,80,0|0,3:0|3:0,0:0:0:0:
76,282,9085,1,8,0:0:0:0:
199,339,9247,6,0,B|279:350|268:292|360:317,1,160,2|0,0:0|3:0,0:0:0:0:
463,270,9734,2,0,P|477:309|471:354,1,80,8|0,0:0|3:0,0:0:0:0:
358,219,10058,2,0,P|366:174|373:134,1,80,8|8,0:0|0:0,0:0:0:0:
321,55,10301,1,8,0:0:0:0:
321,55,10382,2,8,L|382:45,1,51.999997619629,0|0,3:0|3:0,0:0:0:0:
240,149,10545,2,8,L|188:140,1,51.999997619629,8|8,0:0|0:0,0:0:0:0:
0,90,10707,5,0,3:0:0:0:
168,28,10869,1,0,0:0:0:0:
108,209,11031,2,0,P|100:160|93:123,1,80,8|2,0:0|0:2,0:0:0:0:
320,304,11355,1,0,3:3:0:0:
206,359,11517,2,0,P|214:310|221:273,1,80,2|8,0:3|0:0,0:0:0:0:
108,209,11842,6,0,P|64:218|14:228,1,80,2|0,0:1|0:0,0:0:0:0:
224,122,12166,2,0,B|284:131|284:131|301:158|301:158|377:171,1,160,2|2,0:1|0:3,0:0:0:0:
453,117,12572,1,8,0:0:0:0:
453,117,12653,2,0,B|464:79|464:79|453:37,1,80,0|2,3:0|0:0,0:0:0:0:
238,213,12977,1,8,0:0:0:0:
353,306,13139,6,0,P|423:297|517:285,1,160,6|0,0:0|3:0,0:0:0:0:
345,208,13626,1,8,0:0:0:0:
263,367,13788,1,0,3:0:0:0:
194,106,13950,1,8,0:0:0:0:
447,207,14112,1,0,3:0:0:0:
144,378,14274,1,8,0:0:0:0:
256,247,14436,6,0,P|266:182|281:80,1,160,6|8,0:0|0:0,0:0:0:0:
180,17,14923,2,0,P|186:60|193:110,1,80,8|8,0:0|0:0,0:0:0:0:
96,187,15166,1,8,0:0:0:0:
91,183,15247,2,0,P|98:138|107:97,1,80,0|0,3:0|3:0,0:0:0:0:
100,99,15490,1,0,3:0:0:0:
97,94,15572,1,0,3:0:0:0:
222,246,15734,2,0,L|212:291,1,40,0|0,3:0|3:0,0:0:0:0:
269,362,15896,6,0,B|399:368|362:276|499:295,1,248.400006064453,4|0,0:0|0:0,0:0:0:0:
499,295,17842,6,0,P|487:235|472:160,2,128,0|2|2,3:0|3:0|3:0,0:0:0:0:
340,377,18814,2,0,L|350:313,1,64,2|2,3:0|0:0,0:0:0:0:
276,258,19139,2,0,P|229:253|178:314,2,128,2|2|2,3:0|3:0|3:0,0:0:0:0:
347,187,19950,2,0,L|335:124,1,64,2|2,0:0|3:0,0:0:0:0:
443,0,20274,1,2,0:0:0:0:
502,72,20436,6,0,P|446:63|371:52,1,128,2|2,3:0|3:0,0:0:0:0:
292,0,20923,2,0,P|236:9|161:21,1,128,2|2,0:0|0:0,0:0:0:0:
63,78,21409,2,0,P|55:39|48:3,1,64,2|2,3:0|0:0,0:0:0:0:
156,138,21733,1,2,3:0:0:0:
139,230,21896,1,0,0:0:0:0:
223,314,22058,2,0,P|292:319|349:278,2,128,2|2|2,3:0|3:0|3:0,0:0:0:0:
356,0,23031,5,2,3:0:0:0:
420,73,23193,1,2,0:0:0:0:
420,73,23355,2,0,P|413:113|397:214,1,128,2|2,3:0|3:0,0:0:0:0:
475,289,23841,2,0,P|501:239|474:165,1,128,2|2,0:0|0:0,0:0:0:0:
390,316,24328,6,0,P|395:353|400:390,1,64,2|0,3:0|0:0,0:0:0:0:
302,262,24652,1,2,3:0:0:0:
222,322,24814,2,0,P|175:297|96:308,1,128,2|2,0:0|0:1,0:0:0:0:
0,233,25301,2,0,P|35:226|65:220,1,64,2|2,3:0|0:0,0:0:0:0:
126,143,25625,2,0,P|82:124|31:133,2,96,2|2|2,3:0|0:1|0:0,0:0:0:0:
242,22,26274,2,0,L|228:98,1,64,2|0,3:0|0:0,0:0:0:0:
383,287,26598,1,2,3:0:0:0:
337,104,26760,1,12,0:0:0:0:
435,191,27085,5,8,0:3:0:0:
446,190,27166,1,0,3:0:0:0:
455,189,27247,1,0,3:0:0:0:
282,274,27409,1,0,3:0:0:0:
479,340,27571,5,8,0:0:0:0:
236,191,27733,1,8,0:0:0:0:
236,191,28220,6,0,P|228:139|221:101,1,80,4|0,0:0|0:0,0:0:0:0:
340,29,28463,1,2,0:1:0:0:
340,29,28544,2,0,L|326:117,1,80,8|0,0:0|0:0,0:0:0:0:
405,198,28787,1,2,0:1:0:0:
405,198,28869,2,0,P|417:157|410:118,1,80,0|2,3:0|3:0,0:0:0:0:
306,251,29193,1,2,0:0:0:0:
421,320,29355,1,8,0:0:0:0:
315,379,29517,6,0,L|234:368,1,80,2|0,0:1|0:0,0:0:0:0:
164,328,29760,2,0,L|83:339,1,80,2|0,0:1|0:0,0:0:0:0:
23,277,30004,2,0,L|30:234,2,40,2|8|0,0:1|0:3|3:3,0:0:0:0:
142,160,30328,2,0,P|83:121|-2:130,1,160,2|8,3:0|0:0,0:0:0:0:
161,261,30814,5,0,0:0:0:0:
161,261,30977,2,0,L|245:250,1,80,0|8,3:0|0:0,0:0:0:0:
370,143,31301,1,2,0:0:0:0:
370,143,31382,1,0,3:3:0:0:
370,143,31463,2,0,L|290:132,1,80,8|0,0:3|3:0,0:0:0:0:
493,260,31787,1,0,0:0:0:0:
380,349,31950,6,0,P|318:313|227:327,1,160,8|2,0:0|0:0,0:0:0:0:
143,288,32355,1,2,0:1:0:0:
143,288,32436,2,0,P|150:330|159:379,1,80,8|0,0:0|0:0,0:0:0:0:
232,225,32679,1,0,3:3:0:0:
232,225,32760,2,0,P|242:180|232:142,1,80,8|0,0:3|3:0,0:0:0:0:
121,91,33085,2,0,L|33:107,1,80,8|2,0:0|0:0,0:0:0:0:
261,16,33409,6,0,P|316:24|428:42,1,160,4|8,0:0|0:0,0:0:0:0:
507,129,33896,2,0,L|519:86,2,40,0|2|0,0:0|0:1|3:0,0:0:0:0:
404,221,34220,2,0,B|393:184|393:184|407:135,1,80,0|2,3:0|0:0,0:0:0:0:
504,292,34544,1,8,0:0:0:0:
382,350,34706,6,0,B|322:338|322:338|302:308|302:308|224:298,1,160,2|8,0:1|0:0,0:0:0:0:
126,220,35193,1,2,0:1:0:0:
126,220,35274,1,8,0:3:0:0:
126,220,35355,2,0,L|212:208,1,80,0|2,3:3|3:0,0:0:0:0:
341,71,35679,2,0,L|324:161,1,80,2|8,0:0|0:0,0:0:0:0:
254,14,36004,5,2,3:2:0:0:
438,98,36166,2,0,L|526:85,1,80,0|8,3:0|0:0,0:0:0:0:
326,235,36490,2,0,L|316:280,2,40,2|8|0,0:0|0:3|3:0,0:0:0:0:
254,133,36814,1,2,3:0:0:0:
436,220,36977,1,0,3:0:0:0:
225,326,37139,6,0,B|143:305|143:305|95:324|100:362,1,160,8|2,0:0|0:0,0:0:0:0:
326,235,37625,2,0,P|318:187|311:147,1,80,8|0,0:0|0:0,0:0:0:0:
391,89,37869,1,8,0:3:0:0:
391,89,37950,2,0,P|407:128|407:166,1,80,0|0,3:0|3:0,0:0:0:0:
210,0,38274,1,0,3:0:0:0:
116,124,38436,6,0,B|250:92|250:92|215:111|216:151,1,204.000003890991,4|8,1:2|0:0,0:0:0:0:
402,310,39166,1,8,0:3:0:0:
402,310,39247,2,0,P|407:275|411:242,1,68.0000012969971,0|2,3:0|0:0,0:0:0:0:
307,165,39571,2,0,P|312:200|316:233,1,68.0000012969971,8|0,0:0|0:0,0:0:0:0:
214,315,39896,2,0,P|215:274|228:241,1,68.0000012969971,2|0,3:0|0:0,0:0:0:0:
372,358,40220,2,0,P|327:366|291:372,1,68.0000012969971,8|0,0:0|0:0,0:0:0:0:
0,256,40544,6,0,P|45:248|134:233,1,136.000002593994,0|8,3:3|0:0,0:0:0:0:
203,133,41031,2,0,P|194:95|185:59,1,68.0000012969971,2|0,0:0|3:0,0:0:0:0:
304,183,41355,2,0,P|341:190|412:129,1,136.000002593994,2|0,3:0|0:0,0:0:0:0:
468,60,41760,1,8,0:3:0:0:
468,60,41841,2,0,P|424:52|393:47,1,68.0000012969971,0|2,3:0|0:0,0:0:0:0:
305,0,42166,2,0,L|314:68,1,68.0000012969971,8|0,0:0|0:0,0:0:0:0:
210,144,42490,6,0,L|219:76,1,68.0000012969971,2|0,3:0|3:0,0:0:0:0:
110,150,42814,1,8,0:0:0:0:
275,268,42977,1,2,0:3:0:0:
284,266,43058,1,8,0:0:0:0:
291,266,43139,1,8,0:0:0:0:
149,357,43301,2,0,P|128:323|153:236,1,136.000002593994,8|0,0:3|3:0,0:0:0:0:
307,161,43787,6,0,P|349:168|502:194,1,191.999994140625,6|2,0:0|0:3,0:0:0:0:
230,304,44760,1,2,0:0:0:0:
230,304,44923,2,0,P|223:264|213:200,2,95.9999970703126,2|2|8,0:3|0:3|0:3,0:0:0:0:
160,356,45652,1,0,3:0:0:0:
152,355,45733,5,12,0:0:0:0:
328,249,45896,1,0,3:0:0:0:
94,206,46058,5,12,0:0:0:0:
408,344,46220,1,2,0:0:0:0:
274,133,46382,5,12,0:0:0:0:
272,144,46544,1,0,3:0:0:0:
257,260,46706,5,0,3:0:0:0:
175,27,46869,1,12,0:0:0:0:
375,162,47031,5,0,3:0:0:0:
391,251,47193,1,0,3:0:0:0:
408,344,47355,1,8,0:0:0:0:
257,260,47517,6,0,B|162:233|157:310|54:284,1,204.000003890991,6|0,0:0|0:0,0:0:0:0:
0,207,47841,6,0,P|44:198|80:191,1,68.0000012969971,8|0,0:0|0:0,0:0:0:0:
161,120,48004,6,0,L|241:132,1,68.0000012969971,8|0,0:0|0:0,0:0:0:0:
311,73,48166,6,0,L|302:23,1,40,2|2,0:0|0:3,0:0:0:0:
377,148,48328,6,0,L|373:172,4,13.9999995727539,2|2|2|2|2,0:1|0:1|0:1|0:1|0:1,0:0:0:0:
305,195,48490,6,0,L|370:186,1,64,2|2,0:1|0:0,0:0:0:0:
479,89,48814,6,0,P|469:157|454:254,1,160,10|2,3:2|0:3,0:0:0:0:
341,315,49301,2,0,P|297:309|250:303,1,80,8|0,0:0|0:0,0:0:0:0:
190,228,49544,1,2,0:1:0:0:
190,228,49625,2,0,P|228:213|276:219,1,80,0|0,3:0|3:0,0:0:0:0:
110,316,49950,2,0,P|66:310|19:304,1,80,8|2,0:0|0:3,0:0:0:0:
266,382,50274,5,0,0:0:0:0:
190,228,50436,2,0,P|196:181|211:62,1,160,2|0,0:3|0:0,0:0:0:0:
114,3,50841,1,2,1:0:0:0:
114,3,50923,2,0,P|121:47|129:95,1,80,0|0,3:0|3:0,0:0:0:0:
50,178,51247,1,8,0:0:0:0:
190,228,51409,6,0,B|270:239|259:181|351:206,1,160,4|2,0:0|0:2,0:0:0:0:
448,146,51896,2,0,L|433:238,1,80,8|0,0:0|0:0,0:0:0:0:
440,234,52139,1,2,0:1:0:0:
443,239,52220,1,0,3:0:0:0:
307,119,52382,1,0,3:0:0:0:
511,54,52544,1,8,0:0:0:0:
309,222,52706,6,0,P|264:216|146:202,1,160,2|0,0:3|3:0,0:0:0:0:
34,121,53193,2,0,P|73:114|116:108,1,80,8|0,0:0|3:3,0:0:0:0:
211,23,53517,2,8,P|173:0|96:8,2,120,12|8|8,0:0|0:0|0:0,0:0:0:0:
298,80,54085,1,8,0:0:0:0:
298,80,54166,6,0,P|304:43|312:-10,1,80,0|2,3:0|0:0,0:0:0:0:
197,127,54490,2,0,L|209:206,1,80,8|2,0:0|0:0,0:0:0:0:
302,265,54814,1,0,3:0:0:0:
143,384,54977,2,0,L|151:334,1,40,2|2,0:3|0:1,0:0:0:0:
146,338,55139,6,0,P|104:345|54:354,1,80,8|2,0:0|3:2,0:0:0:0:
302,265,55463,2,0,P|341:271|380:278,1,80,0|0,0:0|3:0,0:0:0:0:
509,129,55787,1,8,0:0:0:0:
350,181,55950,1,2,0:0:0:0:
467,320,56112,2,0,P|475:277|482:233,1,80,0|2,3:0|0:3,0:0:0:0:
364,39,56436,1,8,0:0:0:0:
272,128,56598,6,0,P|197:156|120:138,1,160,2|0,0:3|3:0,0:0:0:0:
0,97,57085,1,8,0:0:0:0:
184,46,57247,1,0,3:0:0:0:
116,233,57409,1,8,0:0:0:0:
55,0,57571,1,0,3:0:0:0:
300,144,57733,1,12,0:0:0:0:
18,325,57896,1,12,0:0:0:0:
475,255,58220,5,8,0:0:0:0:
343,233,58382,1,8,0:0:0:0:
218,212,58544,1,8,0:0:0:0:
216,203,58625,1,8,0:0:0:0:
214,193,58706,1,8,0:3:0:0:
297,67,58869,6,8,L|284:148,1,68.0000012969971,8|8,0:0|0:0,0:0:0:0:
129,235,59031,6,8,L|142:316,1,68.0000012969971,8|8,0:0|0:0,0:0:0:0:
266,378,59193,6,0,B|346:389|335:331|427:356,1,160,4|2,0:2|0:3,0:0:0:0:
502,283,59679,2,0,P|465:264|421:264,1,80,8|0,0:0|0:0,0:0:0:0:
358,200,59923,1,2,0:1:0:0:
358,200,60004,2,0,P|363:167|371:118,1,80,0|0,3:0|0:0,0:0:0:0:
240,25,60328,2,0,L|253:107,1,80,8|2,0:0|0:3,0:0:0:0:
382,37,60652,5,0,0:0:0:0:
176,205,60814,2,0,P|113:174|20:190,1,160,2|2,3:0|0:0,0:0:0:0:
125,90,61220,1,2,0:1:0:0:
125,90,61301,2,0,P|120:62|110:4,1,80,0|0,3:0|3:0,0:0:0:0:
26,186,61625,1,8,0:0:0:0:
246,147,61787,6,0,P|290:153|415:171,1,160,4|2,0:0|3:2,0:0:0:0:
491,96,62274,2,0,P|443:67|380:70,1,120,8|2,0:0|0:1,0:0:0:0:
291,19,62598,2,0,P|297:65|304:109,1,80,0|0,3:0|3:0,0:0:0:0:
181,237,62923,2,0,P|175:190|169:146,1,80,8|2,0:0|0:3,0:0:0:0:
281,200,63247,1,8,0:0:0:0:
81,291,63409,1,0,3:0:0:0:
263,355,63571,6,0,B|306:343|306:343|355:354,1,80,8|8,0:0|0:3,0:0:0:0:
399,287,63814,1,8,0:0:0:0:
399,287,63896,2,8,L|387:229,2,51.999997619629,8|8|0,0:0|0:0|3:0,0:0:0:0:
506,162,64220,2,0,L|446:152,1,51.999997619629,8|8,0:0|0:0,0:0:0:0:
367,94,64382,6,0,P|431:55|517:69,1,160,4|2,0:0|0:0,0:0:0:0:
309,183,64869,2,0,P|265:176|216:169,1,80,8|0,0:0|0:3,0:0:0:0:
135,119,65112,1,2,0:1:0:0:
135,119,65193,2,0,L|150:209,1,80,2|2,3:2|0:0,0:0:0:0:
0,376,65517,1,8,0:0:0:0:
50,196,65679,1,2,0:0:0:0:
215,279,65841,5,2,1:2:0:0:
127,320,66004,2,0,L|35:306,1,80,2|8,0:3|0:0,0:0:0:0:
316,207,66328,2,0,L|408:221,1,80,2|0,0:3|3:0,0:0:0:0:
172,69,66652,1,2,0:3:0:0:
208,172,66814,1,8,0:0:0:0:
284,15,66977,1,8,0:0:0:0:
284,15,67058,1,8,0:0:0:0:
284,15,67139,5,4,0:0:0:0:
53,129,67301,1,0,3:0:0:0:
265,280,67463,1,12,0:0:0:0:
219,95,67625,1,2,0:0:0:0:
193,379,67787,5,12,0:0:0:0:
364,357,67950,1,0,3:0:0:0:
334,195,68112,1,12,0:0:0:0:
164,221,68274,1,4,0:0:0:0:
265,280,68598,6,0,P|310:272|356:265,1,80,10|8,0:0|0:0,0:0:0:0:
502,171,68923,2,0,P|462:164|423:157,1,80,10|0,0:0|3:0,0:0:0:0:
351,78,69247,2,0,P|359:36|367:-12,1,80,2|0,3:0|3:0,0:0:0:0:
258,181,69571,1,2,3:0:0:0:
258,181,69652,1,0,3:0:0:0:
258,181,69733,6,0,B|161:191|171:129|67:151,1,192,4|8,0:0|0:0,0:0:0:0:
24,0,70382,1,2,0:0:0:0:
0,84,70544,2,0,P|53:72|134:55,1,128,2|2,3:0|0:0,0:0:0:0:
213,0,71031,1,0,3:0:0:0:
265,78,71193,2,0,L|256:146,1,64,12|0,0:0|3:0,0:0:0:0:
330,223,71517,1,8,0:3:0:0:
236,283,71679,1,8,0:0:0:0:
312,347,71841,2,0,P|373:370|435:353,1,128,10|10,0:0|0:0,0:0:0:0:
141,264,72328,6,0,L|11:288,1,128,4|0,0:0|3:0,0:0:0:0:
201,130,72814,1,8,0:0:0:0:
283,194,72977,2,0,P|338:203|405:165,1,128,2|8,0:0|0:0,0:0:0:0:
498,107,73463,2,0,L|423:94,1,64,2|0,0:3|0:0,0:0:0:0:
349,19,73787,2,0,P|382:10|422:13,1,64,2|8,0:3|0:0,0:0:0:0:
285,96,74112,1,0,3:0:0:0:
276,95,74193,1,0,3:0:0:0:
268,94,74274,1,8,0:0:0:0:
163,11,74436,5,0,3:0:0:0:
214,236,74598,1,12,0:0:0:0:
100,182,74760,1,2,0:0:0:0:
189,119,74923,1,12,0:0:0:0:
189,119,75247,5,0,3:0:0:0:
123,372,75409,1,12,0:0:0:0:
214,236,75733,5,0,3:0:0:0:
150,0,75896,1,12,0:0:0:0:
361,153,76220,5,0,3:3:0:0:
405,230,76382,2,0,L|392:306,1,64,8|0,0:0|3:0,0:0:0:0:
482,357,76706,2,0,P|484:324|472:286,1,64,0|12,3:0|0:0,0:0:0:0:
306,384,77031,1,0,3:0:0:0:
233,322,77193,1,8,0:0:0:0:
146,348,77355,1,4,0:0:0:0:
256,192,77436,12,0,78814,0:0:0:0:
263,144,78977,5,8,0:0:0:0:
239,229,79139,1,8,0:0:0:0:
244,236,79463,1,8,0:0:0:0:
262,137,79625,1,8,0:0:0:0:
503,320,79950,6,0,P|426:352|353:332,1,160,4|0,0:0|3:0,0:0:0:0:
245,247,80436,2,0,P|293:239|330:233,1,80,8|2,0:0|0:0,0:0:0:0:
475,93,80760,1,0,3:0:0:0:
369,20,80923,2,0,P|376:68|382:109,1,80,2|8,0:3|0:0,0:0:0:0:
456,202,81247,6,0,P|496:197|544:191,1,80,2|0,0:1|0:0,0:0:0:0:
322,329,81571,2,0,P|361:333|405:339,1,80,2|8,0:1|0:0,0:0:0:0:
232,229,81896,2,0,L|223:180,2,40,2|8|0,0:3|0:0|3:0,0:0:0:0:
159,316,82220,1,2,0:0:0:0:
334,210,82382,1,8,0:0:0:0:
140,162,82544,6,0,P|91:170|-23:190,1,160,6|0,0:0|3:0,0:0:0:0:
204,84,83031,2,0,P|245:90|294:98,1,80,8|0,0:0|3:0,0:0:0:0:
445,21,83355,2,0,B|407:6|407:6|362:16,1,80,8|0,0:0|3:0,0:0:0:0:
264,233,83679,2,0,P|270:276|276:319,1,80,8|6,0:0|0:0,0:0:0:0:
162,143,84166,5,8,0:0:0:0:
395,245,84328,1,8,0:0:0:0:
171,364,84490,1,8,0:0:0:0:
161,362,84571,1,8,0:0:0:0:
153,360,84652,1,0,3:0:0:0:
301,38,84814,5,4,0:3:0:0:
281,167,84977,1,8,0:3:0:0:
264,295,85139,1,4,0:0:0:0:
256,192,85220,12,0,87247,0:0:0:0:
