osu file format v14

[General]
AudioFilename: kaikai2.mp3
AudioLeadIn: 0
PreviewTime: 48166
Countdown: 0
SampleSet: Soft
StackLeniency: 0.9
Mode: 0
LetterboxInBreaks: 0
WidescreenStoryboard: 1

[Editor]
Bookmarks: 5518,17842,28220,38436,48814,79950
DistanceSpacing: 1
BeatDivisor: 4
GridSize: 32
TimelineZoom: 4.799998

[Metadata]
Title:Kaikai Kitan (TV Size)
TitleUnicode:廻廻奇譚 (TV Size)
Artist:Eve
ArtistUnicode:Eve
Creator:Gillstar
Version:Expert
Source:呪術廻戦
Tags:Fixxis Black Man xenon- Xehn xen Agatsu amity opening Anime Japanese jujutsu kaisen utaite jpop j-pop pop op
BeatmapID:2640350
BeatmapSetID:1270547

[Difficulty]
HPDrainRate:5
CircleSize:4
OverallDifficulty:8.6
ApproachRate:9.2
SliderMultiplier:1.9
SliderTickRate:1

[Events]
//Background and Video events
0,0,"f3900547-e2e7-41c8-a0b8-7d88c293dc87.jpg",0,0
//Break Periods
//Storyboard Layer 0 (Background)
//Storyboard Layer 1 (Fail)
//Storyboard Layer 2 (Pass)
//Storyboard Layer 3 (Foreground)
//Storyboard Layer 4 (Overlay)
//Storyboard Sound Samples

[TimingPoints]
2275,324.324324324324,4,2,1,70,1,0
5518,324.324324324324,4,2,1,70,1,0
6653,-76.9230769230769,4,2,1,70,0,0
7139,-100,4,2,1,70,0,0
17842,324.324324324324,4,2,1,50,1,0
17842,-125,4,2,1,50,0,0
26760,-100,4,2,1,60,0,0
28220,-111.111111111111,4,2,1,60,0,0
48814,-76.9230769230769,4,2,1,80,0,0
49139,-90.9090909090909,4,2,1,80,0,0
59193,-76.9230769230769,4,2,1,80,0,0
59517,-90.9090909090909,4,2,1,80,0,0
69733,-111.111111111111,4,2,1,80,0,0
77355,-333.333333333332,4,2,1,80,0,0
79950,-100,4,2,1,80,0,0
81247,-76.9230769230769,4,2,1,70,0,0
81733,-100,4,2,1,70,0,0

[Colours]
Combo1 : 206,0,103
Combo2 : 255,79,79
Combo3 : 255,128,128
Combo4 : 255,100,177

[HitObjects]
21,339,2275,5,12,0:0:0:0:
212,285,2437,1,0,3:0:0:0:
62,200,2599,1,0,3:0:0:0:
141,372,2761,6,0,P|218:334|333:294,1,190,8|0,0:0|3:0,0:0:0:0:
324,305,3166,1,0,3:0:0:0:
324,305,3247,2,0,B|350:258|350:258|338:201,1,95,12|0,0:0|0:0,0:0:0:0:
174,26,3572,5,0,3:0:0:0:
240,195,3734,1,8,0:0:0:0:
265,34,3896,5,0,3:0:0:0:
120,201,4058,1,0,3:0:0:0:
404,148,4220,5,8,0:0:0:0:
205,358,4464,5,8,0:0:0:0:
44,98,4707,5,8,0:0:0:0:
477,359,5518,6,0,L|336:326,1,142.5,4|0,3:1|0:0,0:0:0:0:
325,325,5842,2,0,L|438:301,1,95,10|0,0:0|0:0,0:0:0:0:
264,212,6166,1,2,3:2:0:0:
403,158,6328,2,0,L|288:134,1,95,2|8,3:2|0:0,0:0:0:0:
24,59,6653,6,0,B|151:26|151:26|104:73,1,185.249991519928,2|0,3:2|0:0,0:0:0:0:
112,64,6977,1,2,3:2:0:0:
255,218,7139,2,0,P|215:253|158:257,1,95,8|2,0:0|0:0,0:0:0:0:
23,198,7463,5,2,3:2:0:0:
23,198,7545,1,2,0:2:0:0:
23,198,7626,1,2,3:2:0:0:
169,144,7788,1,10,0:0:0:0:
360,334,7950,6,0,P|450:353|471:260,1,190,2|2,3:2|3:2,0:0:0:0:
402,41,8436,2,0,P|383:91|368:136,1,95,10|0,0:0|0:0,0:0:0:0:
300,179,8761,5,2,3:2:0:0:
464,133,8923,1,2,3:2:0:0:
308,27,9085,1,10,0:2:0:0:
400,242,9247,6,0,P|321:217|194:191,1,190,2|0,3:2|3:0,0:0:0:0:
216,194,9653,1,2,0:0:0:0:
216,194,9734,1,10,0:0:0:0:
296,335,9896,1,2,3:2:0:0:
120,264,10058,1,2,3:2:0:0:
246,88,10220,5,8,0:0:0:0:
209,101,10301,1,8,0:0:0:0:
175,116,10382,1,8,3:2:0:0:
140,132,10463,1,8,0:0:0:0:
107,150,10545,1,8,0:0:0:0:
74,169,10626,1,8,0:0:0:0:
64,175,10707,6,0,P|44:121|24:73,1,95,4|2,3:2|0:2,0:0:0:0:
243,203,11031,2,0,P|203:295|172:391,1,190,10|2,0:0|3:2,0:0:0:0:
294,293,11517,1,2,3:2:0:0:
149,194,11680,1,8,0:0:0:0:
368,87,11842,6,0,P|337:49|277:46,1,95,2|0,3:2|0:0,0:0:0:0:
235,90,12166,1,2,3:2:0:0:
145,284,12328,2,0,P|99:274|70:238,1,95,8|2,0:0|0:0,0:0:0:0:
27,18,12653,5,2,3:2:0:0:
27,18,12734,1,2,0:2:0:0:
27,18,12815,1,2,3:2:0:0:
113,86,12977,1,10,0:0:0:0:
160,195,13139,6,0,P|240:165|349:140,1,190,2|2,3:2|3:2,0:0:0:0:
161,5,13626,2,0,P|205:22|251:31,1,95,10|0,0:0|3:0,0:0:0:0:
431,126,13950,5,10,0:2:0:0:
326,235,14112,1,2,3:2:0:0:
364,54,14274,5,10,0:2:0:0:
443,346,14436,2,0,P|462:278|494:205,1,142.5,4|0,3:2|0:0,0:0:0:0:
490,212,14761,5,10,0:0:0:0:
271,123,14923,1,10,0:0:0:0:
458,1,15085,6,0,L|439:63,1,47.5,10|8,0:0|0:0,0:0:0:0:
364,54,15247,2,0,L|383:116,1,47.5,10|0,0:0|0:0,0:0:0:0:
405,181,15409,5,8,0:3:0:0:
405,181,15490,1,8,0:3:0:0:
405,181,15572,1,8,0:3:0:0:
502,126,15734,1,4,0:3:0:0:
254,17,15896,5,4,3:1:0:0:
30,363,17842,6,0,P|83:340|119:326,1,76,0|2,3:0|0:0,0:0:0:0:
158,259,18166,2,0,P|193:273|227:288,1,76,2|0,3:2|0:0,0:0:0:0:
252,367,18490,2,0,B|311:352|311:352|332:325|332:325|409:306,1,152,2|0,3:2|3:0,0:0:0:0:
512,257,18977,6,0,L|414:234,1,76,2|0,0:0|3:0,0:0:0:0:
484,156,19301,1,2,0:0:0:0:
345,121,19463,2,0,L|443:98,1,76,2|0,3:2|0:0,0:0:0:0:
418,103,19787,1,2,3:2:0:0:
330,231,19950,2,0,P|271:189|175:149,1,152,2|2,0:0|0:0,0:0:0:0:
16,0,20436,6,0,P|33:37|48:85,1,76,2|0,3:2|0:0,0:0:0:0:
136,33,20760,1,2,3:2:0:0:
192,157,20923,2,0,P|204:121|220:86,1,76,2|0,0:0|3:0,0:0:0:0:
34,150,21247,5,2,0:2:0:0:
166,234,21409,1,2,3:2:0:0:
14,337,21571,2,0,P|87:350|177:401,1,152,2|2,0:0|0:0,0:0:0:0:
155,384,21977,1,2,0:0:0:0:
155,384,22058,2,0,B|172:346|172:346|162:291,1,76,2|0,3:2|0:0,0:0:0:0:
34,150,22382,6,0,P|85:169|135:176,1,76,2|0,3:2|0:0,0:0:0:0:
164,226,22706,2,0,P|232:192|306:176,1,152,2|0,3:2|3:0,0:0:0:0:
382,80,23193,5,2,0:0:0:0:
511,67,23355,2,0,P|476:41|427:36,1,76,2|0,3:2|0:0,0:0:0:0:
300,181,23679,5,0,3:2:0:0:
429,194,23841,2,0,P|394:220|345:225,1,76,2|0,0:0|3:0,0:0:0:0:
231,97,24166,5,0,0:2:0:0:
318,0,24328,2,0,P|338:42|374:152,1,152,2|2,3:2|3:2,0:0:0:0:
371,141,24733,1,2,0:0:0:0:
371,141,24814,2,0,P|387:96|403:59,1,76,2|0,0:0|3:0,0:0:0:0:
267,208,25139,5,2,0:2:0:0:
293,279,25301,1,2,3:2:0:0:
316,353,25463,1,2,0:2:0:0:
204,266,25625,6,0,B|175:214|175:214|193:157,2,114,2|2|2,3:2|0:0|0:0,0:0:0:0:
316,353,26274,2,0,P|383:319|474:297,1,152,2|0,3:2|0:0,0:0:0:0:
192,161,26760,6,0,P|259:195|385:231,1,190,10|8,0:0|0:3,0:0:0:0:
368,228,27166,1,8,0:3:0:0:
368,228,27247,1,4,0:3:0:0:
321,133,27409,1,0,3:0:0:0:
466,221,27571,5,10,0:0:0:0:
216,357,27733,1,10,0:0:0:0:
216,357,28220,6,0,P|202:310|176:249,1,85.4999973907472,4|2,3:2|0:0,0:0:0:0:
67,86,28544,2,0,P|51:125|39:166,1,85.4999973907472,10|2,0:0|0:0,0:0:0:0:
39,166,28787,1,2,2:0:0:0:
39,166,28869,1,2,3:2:0:0:
28,264,29031,6,0,B|98:242|98:242|117:217|117:217|196:191,1,170.999994781494,2|10,3:2|0:0,0:0:0:0:
301,109,29517,2,0,L|425:140,2,128.249996086121,2|2|2,0:0|0:0|0:0,0:0:0:0:
201,86,30166,1,2,3:2:0:0:
201,86,30328,1,2,3:2:0:0:
187,355,30652,6,0,P|265:323|359:300,1,170.999994781494,10|2,0:0|3:2,0:0:0:0:
187,181,31139,2,0,P|236:196|279:204,1,85.4999973907472,10|2,0:0|0:0,0:0:0:0:
410,230,31463,1,2,3:2:0:0:
349,296,31625,5,2,3:2:0:0:
503,251,31787,1,0,0:0:0:0:
370,152,31950,2,0,B|354:106|354:106|371:58,1,85.4999973907472,10|0,0:0|0:0,0:0:0:0:
429,23,32274,1,2,3:2:0:0:
503,251,32436,6,0,L|411:232,1,85.4999973907472,10|2,0:0|0:0,0:0:0:0:
419,233,32679,1,2,0:0:0:0:
419,233,32760,1,2,3:2:0:0:
279,213,32923,1,0,3:0:0:0:
367,314,33085,2,0,P|282:336|192:369,1,170.999994781494,10|0,0:0|3:0,0:0:0:0:
6,327,33571,5,2,0:0:0:0:
65,274,33733,2,0,P|106:276|139:303,1,85.4999973907472,10|2,0:0|0:0,0:0:0:0:
139,303,33977,1,2,0:0:0:0:
139,303,34058,1,2,3:2:0:0:
13,171,34220,6,0,B|129:132|129:132|94:175,1,170.999994781494,2|10,3:2|0:0,0:0:0:0:
201,235,34706,2,0,B|317:274|317:274|282:231,1,170.999994781494,2|10,0:0|0:0,0:0:0:0:
230,152,35193,5,2,0:2:0:0:
230,152,35274,1,2,0:2:0:0:
230,152,35355,1,2,3:2:0:0:
339,90,35517,1,2,3:2:0:0:
226,24,35679,2,0,P|176:44|134:57,1,85.4999973907472,2|8,0:0|0:0,0:0:0:0:
42,104,36004,5,2,0:0:0:0:
116,220,36166,2,0,P|66:200|24:187,1,85.4999973907472,2|8,3:2|0:0,0:0:0:0:
116,220,36490,5,2,0:0:0:0:
35,379,36652,2,0,P|77:315|181:325,1,170.999994781494,2|2,3:2|0:0,0:0:0:0:
236,366,37139,6,0,P|313:331|396:310,1,170.999994781494,10|2,0:0|3:2,0:0:0:0:
299,215,37625,2,0,B|275:172|275:172|289:114,1,85.4999973907472,10|10,0:0|0:0,0:0:0:0:
283,136,37869,1,8,0:0:0:0:
283,136,37950,1,10,0:0:0:0:
214,242,38112,5,8,0:3:0:0:
375,165,38274,1,4,0:3:0:0:
168,17,38436,2,0,P|215:34|357:67,1,170.999994781494,4|0,3:2|3:0,0:0:0:0:
499,222,38923,6,0,P|457:231|417:246,1,85.4999973907472,8|8,0:0|0:3,0:0:0:0:
417,246,39166,1,8,0:3:0:0:
417,246,39247,1,4,0:3:0:0:
306,349,39409,1,2,0:0:0:0:
422,362,39571,5,10,0:0:0:0:
322,254,39733,1,8,0:3:0:0:
215,378,39896,2,0,P|197:334|173:285,1,85.4999973907472,8|0,0:3|3:0,0:0:0:0:
42,184,40220,6,0,P|23:222|7:262,1,85.4999973907472,10|2,0:0|0:0,0:0:0:0:
7,262,40463,1,8,0:3:0:0:
7,262,40544,2,0,P|56:242|103:228,1,85.4999973907472,4|8,0:3|0:3,0:0:0:0:
168,219,40869,1,10,0:0:0:0:
8,56,41031,6,0,P|67:81|178:108,1,170.999994781494,2|2,3:2|3:2,0:0:0:0:
294,248,41517,2,0,B|277:207|277:207|294:158,1,85.4999973907472,8|8,0:0|0:3,0:0:0:0:
290,168,41760,1,8,0:3:0:0:
290,168,41841,1,4,0:3:0:0:
365,108,42004,5,2,0:0:0:0:
281,16,42166,1,10,0:0:0:0:
233,89,42328,5,8,0:3:0:0:
393,27,42490,2,0,P|442:69|414:183,1,170.999994781494,2|10,0:0|0:0,0:0:0:0:
323,375,42977,5,0,1:0:0:0:
323,375,43058,1,8,0:0:0:0:
323,375,43139,1,10,0:0:0:0:
502,275,43301,1,8,0:3:0:0:
307,185,43463,1,8,0:3:0:0:
387,279,43625,5,4,0:3:0:0:
197,349,43787,1,4,0:0:0:0:
196,350,45571,5,4,0:3:0:0:
196,350,45652,1,8,0:3:0:0:
196,350,45733,1,10,0:0:0:0:
92,228,45896,1,2,3:2:0:0:
43,360,46058,5,10,0:2:0:0:
186,184,46220,1,2,3:2:0:0:
292,365,46382,5,12,0:2:0:0:
87,237,46544,1,2,3:2:0:0:
322,142,46706,1,2,3:2:0:0:
161,353,46869,5,12,0:0:0:0:
387,255,47031,1,2,3:2:0:0:
136,125,47193,1,2,3:2:0:0:
235,231,47355,5,10,0:0:0:0:
446,18,47517,2,0,P|434:60|420:119,1,85.4999973907472,4|0,3:2|0:0,0:0:0:0:
371,361,47841,5,8,0:0:0:0:
371,361,48004,1,8,0:0:0:0:
21,361,48814,6,0,B|97:342|97:342|119:317|119:317|218:286,1,185.249991519928,4|0,3:1|0:0,0:0:0:0:
197,291,49139,2,0,L|91:271,1,104.500003189087,2|8,3:2|0:0,0:0:0:0:
167,153,49463,1,2,0:0:0:0:
21,104,49625,2,0,L|127:84,1,104.500003189087,2|0,3:2|3:0,0:0:0:0:
20,219,49950,5,8,0:0:0:0:
236,87,50112,2,0,P|261:144|239:203,1,104.500003189087,2|0,3:2|0:0,0:0:0:0:
143,372,50436,2,0,P|217:291|309:297,1,209.000006378174,2|2,3:2|0:0,0:0:0:0:
479,332,50923,6,0,P|422:352|377:378,1,104.500003189087,2|2,3:2|3:2,0:0:0:0:
476,233,51247,1,10,0:0:0:0:
280,163,51409,6,0,P|325:187|497:235,1,209.000006378174,2|2,3:2|3:2,0:0:0:0:
203,204,51896,2,0,B|181:152|181:152|208:95,1,104.500003189087,8|0,0:0|0:0,0:0:0:0:
201,108,52139,1,0,1:0:0:0:
201,108,52220,1,2,3:2:0:0:
280,163,52382,5,2,0:0:0:0:
78,207,52544,1,8,0:0:0:0:
30,45,52706,2,0,B|165:7|165:7|113:65,1,209.000006378174,2|2,3:2|3:2,0:0:0:0:
0,296,53193,6,0,P|80:315|169:359,1,156.750004783631,10|0,0:0|0:0,0:0:0:0:
217,374,53517,2,0,B|239:322|239:322|212:265,1,104.500003189087,2|8,3:2|0:0,0:0:0:0:
204,271,53760,1,10,0:0:0:0:
175,255,53841,1,8,3:2:0:0:
153,216,53923,1,8,0:0:0:0:
154,166,54004,1,10,0:0:0:0:
193,126,54085,1,8,0:0:0:0:
203,123,54166,6,0,L|376:154,1,156.750004783631,4|0,3:2|0:0,0:0:0:0:
371,153,54490,2,0,L|253:176,1,104.500003189087,10|0,0:0|0:0,0:0:0:0:
0,272,54814,2,0,L|111:300,1,104.500003189087,2|0,3:2|3:0,0:0:0:0:
101,297,55058,1,2,0:0:0:0:
101,297,55139,1,8,0:0:0:0:
334,305,55301,6,0,P|235:291|182:376,1,209.000006378174,2|2,3:2|3:2,0:0:0:0:
399,365,55787,2,0,P|423:310|407:255,1,104.500003189087,10|2,0:0|0:0,0:0:0:0:
264,35,56112,5,2,3:2:0:0:
477,153,56274,1,2,3:2:0:0:
254,245,56436,1,10,0:2:0:0:
378,47,56598,6,0,P|355:118|339:206,1,156.750004783631,2|0,3:2|0:0,0:0:0:0:
339,198,56923,1,2,3:2:0:0:
250,111,57085,5,10,0:0:0:0:
464,249,57247,1,0,3:0:0:0:
240,291,57409,5,10,0:0:0:0:
442,153,57571,1,0,3:0:0:0:
504,341,57733,5,10,0:0:0:0:
350,179,57896,2,0,P|259:225|127:261,1,209.000006378174,4|8,3:2|0:0,0:0:0:0:
429,384,58382,6,8,P|379:360|310:346,1,104.500003189087,8|10,0:0|0:0,0:0:0:0:
331,348,58625,1,8,0:0:0:0:
331,348,58706,1,10,0:0:0:0:
99,203,58869,5,10,0:0:0:0:
76,252,58950,1,8,0:0:0:0:
94,306,59031,1,8,0:3:0:0:
136,335,59112,1,8,0:3:0:0:
144,336,59193,6,0,B|217:318|217:318|243:289|243:289|341:267,1,185.249991519928,4|0,3:1|0:0,0:0:0:0:
312,273,59517,1,2,3:2:0:0:
491,70,59679,2,0,B|356:32|356:32|408:90,1,209.000006378174,12|2,0:0|3:2,0:0:0:0:
499,186,60166,5,2,3:2:0:0:
311,144,60328,1,10,0:0:0:0:
386,338,60490,2,0,B|409:285|409:285|394:234,1,104.500003189087,2|0,3:2|0:0,0:0:0:0:
274,57,60814,2,0,B|211:116|211:116|254:259,1,209.000006378174,2|2,3:2|0:0,0:0:0:0:
311,144,61301,5,2,3:2:0:0:
94,228,61463,1,2,3:2:0:0:
121,54,61625,1,10,0:0:0:0:
192,324,61787,6,0,P|118:281|-20:247,1,209.000006378174,4|2,3:2|3:2,0:0:0:0:
226,109,62274,2,0,P|170:132|105:148,1,104.500003189087,10|0,0:0|0:0,0:0:0:0:
127,143,62517,1,8,0:0:0:0:
127,143,62598,1,10,0:0:0:0:
244,234,62760,6,0,P|271:244|314:266,2,52.2500015945435,8|8|10,0:0|0:0|0:0,0:0:0:0:
42,178,63085,1,8,0:0:0:0:
42,178,63166,1,8,0:0:0:0:
42,178,63247,1,10,0:0:0:0:
178,52,63409,2,0,P|205:42|248:20,2,52.2500015945435,8|8|10,0:0|0:0|0:0,0:0:0:0:
114,0,63733,5,8,0:0:0:0:
95,18,63814,1,8,0:0:0:0:
90,45,63896,1,10,0:0:0:0:
96,89,63977,1,8,0:0:0:0:
126,119,64058,1,8,0:3:0:0:
160,136,64139,1,8,0:3:0:0:
186,177,64220,1,4,0:3:0:0:
197,222,64301,1,4,0:3:0:0:
177,267,64382,6,0,P|100:286|15:313,1,156.750004783631,4|0,3:2|0:0,0:0:0:0:
18,318,64706,2,0,P|75:332|134:354,1,104.500003189087,0|10,3:2|0:0,0:0:0:0:
265,331,65031,1,2,0:0:0:0:
265,331,65112,1,0,1:0:0:0:
265,331,65193,1,0,3:0:0:0:
100,203,65355,1,2,3:2:0:0:
258,54,65517,6,0,B|280:105|280:105|250:167,1,104.500003189087,10|2,0:0|0:0,0:0:0:0:
215,216,65841,1,2,3:2:0:0:
391,152,66004,1,2,3:2:0:0:
187,103,66166,6,0,L|411:157,1,209.000006378174,8|2,0:0|0:0,0:0:0:0:
329,282,66652,1,2,3:2:0:0:
486,330,66814,2,0,L|371:367,1,104.500003189087,10|8,0:0|0:0,0:0:0:0:
386,362,67058,1,8,0:0:0:0:
386,362,67139,5,12,0:0:0:0:
299,188,67301,1,2,3:2:0:0:
252,362,67463,5,10,0:0:0:0:
427,235,67625,1,2,3:2:0:0:
197,176,67787,5,10,0:0:0:0:
333,284,67950,1,2,3:2:0:0:
302,85,68112,5,10,0:0:0:0:
179,275,68274,2,0,B|44:237|44:237|96:295,1,209.000006378174,4|10,3:2|0:0,0:0:0:0:
145,354,68760,5,8,0:0:0:0:
265,228,68923,1,10,0:0:0:0:
287,217,69004,1,8,0:0:0:0:
306,207,69085,1,8,0:0:0:0:
150,152,69247,5,8,0:3:0:0:
134,144,69328,1,8,0:3:0:0:
121,137,69409,1,8,0:3:0:0:
217,40,69571,5,4,0:3:0:0:
227,34,69652,1,4,0:3:0:0:
236,28,69733,2,0,L|417:61,1,170.999994781494,4|0,3:1|3:0,0:0:0:0:
231,125,70220,6,0,P|186:142|120:156,1,85.4999973907472,8|2,0:0|0:0,0:0:0:0:
6,212,70544,1,2,3:2:0:0:
170,259,70706,2,0,P|98:231|-9:211,1,170.999994781494,8|0,0:0|3:0,0:0:0:0:
167,57,71193,6,0,P|79:55|37:138,1,170.999994781494,8|0,0:0|3:0,0:0:0:0:
107,331,71679,1,10,0:0:0:0:
155,355,71760,1,8,0:0:0:0:
204,345,71841,1,10,0:0:0:0:
241,310,71923,1,8,0:0:0:0:
260,273,72004,1,8,0:3:0:0:
300,249,72085,1,8,0:3:0:0:
334,250,72166,1,4,0:3:0:0:
359,268,72247,1,4,0:3:0:0:
366,281,72328,6,0,P|394:196|430:107,1,170.999994781494,4|2,3:2|3:2,0:0:0:0:
484,73,72814,1,10,0:0:0:0:
325,141,72977,1,2,0:0:0:0:
489,220,73139,1,0,3:0:0:0:
378,45,73301,5,10,0:0:0:0:
263,264,73463,2,0,P|313:199|395:211,1,170.999994781494,4|2,3:2|3:2,0:0:0:0:
497,325,73950,2,0,P|451:306|391:292,1,85.4999973907472,8|10,0:0|0:0,0:0:0:0:
416,296,74193,1,8,0:0:0:0:
416,296,74274,1,10,0:0:0:0:
241,370,74436,1,0,3:0:0:0:
316,332,74598,5,10,0:0:0:0:
150,259,74760,1,2,0:0:0:0:
266,152,74923,5,12,0:0:0:0:
134,365,75085,1,0,3:0:0:0:
350,259,75247,1,2,3:2:0:0:
162,161,75409,5,10,0:0:0:0:
321,337,75571,1,0,3:0:0:0:
57,301,75733,1,2,3:2:0:0:
304,80,75896,6,0,P|278:146|248:251,1,170.999994781494,12|0,0:0|3:0,0:0:0:0:
164,367,76382,2,0,P|153:322|178:265,1,85.4999973907472,10|2,0:0|3:2,0:0:0:0:
346,203,76706,1,2,3:2:0:0:
151,86,76869,5,10,0:0:0:0:
251,276,77031,1,2,3:2:0:0:
241,30,77193,5,8,0:0:0:0:
37,274,77355,2,0,B|129:254|194:208|194:208|161:243|162:296,1,256.499992172241,4|0,3:2|0:0,0:0:0:0:
253,272,78977,5,10,0:0:0:0:
53,175,79139,1,10,0:0:0:0:
38,180,79463,5,10,0:0:0:0:
277,94,79625,1,10,0:0:0:0:
492,377,79950,6,0,P|451:308|307:334,1,237.5,4|0,3:2|0:0,0:0:0:0:
306,328,80436,2,0,L|419:304,1,95,10|0,0:0|0:0,0:0:0:0:
264,212,80760,1,2,3:2:0:0:
403,158,80922,2,0,L|290:134,1,95,2|8,3:2|0:0,0:0:0:0:
24,59,81247,6,0,B|151:26|151:26|104:73,1,185.249991519928,2|0,3:2|0:0,0:0:0:0:
112,64,81571,1,2,3:2:0:0:
255,218,81733,2,0,P|215:253|158:257,1,95,8|2,0:0|0:0,0:0:0:0:
23,198,82058,5,2,3:2:0:0:
23,198,82139,1,2,0:2:0:0:
23,198,82220,1,2,3:2:0:0:
169,144,82382,1,10,0:0:0:0:
360,334,82544,6,0,P|450:353|471:260,1,190,2|2,3:2|3:2,0:0:0:0:
402,41,83031,2,0,P|383:91|368:136,1,95,10|0,0:0|3:0,0:0:0:0:
300,179,83355,5,10,0:2:0:0:
464,133,83517,1,2,3:2:0:0:
308,27,83679,1,10,0:2:0:0:
400,242,83841,6,0,P|321:217|194:191,1,190,2|8,3:2|0:0,0:0:0:0:
216,194,84247,1,8,0:0:0:0:
216,194,84328,1,10,0:0:0:0:
107,298,84490,1,8,0:0:0:0:
107,298,84571,1,8,0:0:0:0:
107,298,84652,1,8,0:0:0:0:
42,189,84814,5,8,0:3:0:0:
224,322,84977,1,4,0:3:0:0:
8,383,85139,1,4,3:1:0:0:
256,192,85220,12,0,87247,0:0:0:0:
