osu file format v14

[General]
AudioFilename: audio.mp3
AudioLeadIn: 0
PreviewTime: 48169
Countdown: 0
SampleSet: Soft
StackLeniency: 0.5
Mode: 0
LetterboxInBreaks: 0
WidescreenStoryboard: 0

[Editor]
DistanceSpacing: 1
BeatDivisor: 4
GridSize: 32
TimelineZoom: 1.8

[Metadata]
Title:Kaikai Kitan (TV Size)
TitleUnicode:廻廻奇譚 (TV Size)
Artist:Eve
ArtistUnicode:Eve
Creator:-Light-
Version:wenect's Special
Source:呪術廻戦
Tags:alden chrononig pjw0413 wenect wenet unranked mapper stormiverse opening Anime Japanese jujutsu kaisen utaite jpop j-pop pop op j-rock rock sorcery fight
BeatmapID:2916903
BeatmapSetID:1308511

[Difficulty]
HPDrainRate:8
CircleSize:4.3
OverallDifficulty:9
ApproachRate:9.3
SliderMultiplier:1.5
SliderTickRate:1

[Events]
//Background and Video events
0,0,"wallpaper.jpg",0,0
//Break Periods
2,18045,26209
2,43990,45020
//Storyboard Layer 0 (Background)
//Storyboard Layer 1 (Fail)
//Storyboard Layer 2 (Pass)
//Storyboard Layer 3 (Foreground)
//Storyboard Layer 4 (Overlay)
//Storyboard Sound Samples

[TimingPoints]
2278,324.324324324324,3,2,1,90,1,0
3250,-90.9090909090909,3,2,2,90,0,0
3737,-90.9090909090909,3,2,3,90,0,0
4223,324.324324324324,4,2,2,90,1,0
4223,-66.6666666666667,3,2,3,90,0,0
5521,-83.3333333333333,4,2,2,90,0,0
10710,-83.3333333333333,4,2,4,90,0,0
10872,-83.3333333333333,4,2,2,90,0,0
14439,-71.4285714285714,4,2,1,90,0,0
15899,-71.4285714285714,4,2,3,90,0,0
17845,324.324324324324,4,2,1,60,1,0
26763,-90.9090909090909,4,2,2,80,0,0
28223,-90.9090909090909,4,2,4,80,0,0
37142,-83.3333333333333,4,2,4,80,0,0
37628,-83.3333333333333,4,2,2,80,0,0
38439,-76.9230769230769,4,2,1,80,0,0
38926,-90.9090909090909,4,2,1,80,0,0
43304,-100,4,2,1,80,0,0
43790,-100,4,2,3,80,0,0
46385,-100,4,2,1,90,0,0
46872,-100,4,2,2,90,0,0
47358,-100,4,2,3,90,0,0
47520,-71.4285714285714,4,2,3,90,0,0
48817,-62.5,4,2,2,100,0,0
49304,-76.9230769230769,4,2,2,100,0,0
50115,-62.5,4,2,2,100,0,0
50601,-76.9230769230769,4,2,2,100,0,0
51412,-71.4285714285714,4,2,2,100,0,0
51899,-76.9230769230769,4,2,2,100,0,0
52709,-83.3333333333333,4,2,2,100,0,0
54169,-83.3333333333333,4,2,4,100,0,0
54331,-83.3333333333333,4,2,2,100,0,0
57899,-66.6666666666667,4,2,1,100,0,0
58872,-83.3333333333333,4,2,1,100,0,0
59196,-62.5,4,2,2,100,0,0
59682,-76.9230769230769,4,2,2,100,0,0
60493,-62.5,4,2,2,100,0,0
60980,-76.9230769230769,4,2,2,100,0,0
61790,-62.5,4,2,1,100,0,0
62277,-76.9230769230769,4,2,1,100,0,0
63250,-76.9230769230769,4,2,2,100,0,0
63899,-83.3333333333333,4,2,2,100,0,0
64385,-55.5555555555556,4,2,4,100,0,0
64547,-55.5555555555556,4,2,2,100,0,0
66007,-71.4285714285714,4,2,2,100,0,0
67142,-71.4285714285714,4,2,1,100,0,0
68277,-71.4285714285714,4,2,2,100,0,0
69736,-66.6666666666667,4,2,4,90,0,0
69899,-66.6666666666667,4,2,1,90,0,0
70547,-90.9090909090909,4,2,1,90,0,0
71196,-76.9230769230769,4,2,2,90,0,0
71682,-90.9090909090909,4,2,2,90,0,0
72331,-76.9230769230769,4,2,1,90,0,0
72980,-90.9090909090909,4,2,1,90,0,0
73466,-76.9230769230769,4,2,2,90,0,0
73953,-90.9090909090909,4,2,2,90,0,0
74601,-90.9090909090909,4,2,1,90,0,0
74926,-76.9230769230769,4,2,2,90,0,0
75412,-76.9230769230769,4,2,1,90,0,0
75899,-100,4,2,2,90,0,0
76709,-90.9090909090909,4,2,2,90,0,0
77358,-142.857142857143,4,2,3,90,0,0
79953,-76.9230769230769,4,2,2,90,0,0
80601,-83.3333333333333,4,2,2,90,0,0
83844,-71.4285714285714,4,2,1,90,0,0
84817,-100,4,2,1,90,0,0
85142,-100,4,2,3,90,0,0

[Colours]
Combo1 : 222,12,12
Combo2 : 240,240,240

[HitObjects]
138,142,2278,5,14,1:2:0:0:
209,194,2440,1,2,3:2:0:0:
78,205,2602,5,2,3:2:0:0:
270,131,2764,2,0,P|307:126|344:119,1,75,14|0,1:2|3:0,0:0:0:0:
200,77,3088,5,2,3:2:0:0:
391,305,3250,2,0,P|309:290|228:279,1,165.000005035401,14|0,1:2|3:0,0:0:0:0:
426,149,3737,6,0,L|466:142,2,41.2500012588501,14|0|2,1:2|0:0|0:0,0:0:0:0:
344,119,4061,1,2,3:2:0:0:
189,352,4223,6,0,B|174:289|218:249|218:249|209:189,2,168.750006437302,4|4|4,1:3|1:3|1:3,0:0:0:0:
321,34,5521,5,4,3:1:0:0:
261,97,5683,1,2,0:0:0:0:
201,33,5845,5,10,1:2:0:0:
468,82,6007,2,0,P|423:88|380:99,1,89.9999972534181,2|0,0:0|3:0,0:0:0:0:
201,33,6331,2,0,P|156:41|112:47,1,89.9999972534181,2|8,3:2|1:2,0:0:0:0:
321,34,6656,5,2,3:2:0:0:
321,34,6980,1,2,3:2:0:0:
259,137,7142,2,0,P|224:164|191:195,1,89.9999972534181,8|2,1:2|0:0,0:0:0:0:
191,195,7385,1,0,1:0:0:0:
191,195,7466,1,2,3:2:0:0:
112,46,7629,1,2,3:2:0:0:
351,215,7791,1,8,1:2:0:0:
204,296,7953,6,0,B|158:276|118:311|118:311|100:355|48:357,1,179.999994506836,2|2,3:2|3:2,0:0:0:0:
113,155,8439,1,10,1:2:0:0:
191,195,8602,2,0,L|146:187,1,44.999998626709,2|0,0:0|1:0,0:0:0:0:
40,268,8764,2,0,P|33:223|25:179,1,89.9999972534181,2|0,3:2|3:0,0:0:0:0:
204,296,9088,5,10,1:2:0:0:
289,234,9250,2,0,B|380:240|357:301|448:305,1,179.999994506836,2|2,3:2|3:2,0:0:0:0:
269,136,9737,1,10,1:2:0:0:
368,111,9899,1,2,3:2:0:0:
370,303,10061,2,0,P|378:258|384:214,1,89.9999972534181,14|2,3:2|1:2,0:0:0:0:
422,186,10304,1,0,1:0:0:0:
468,197,10385,1,12,3:0:0:0:
466,185,10466,1,0,1:0:0:0:
464,174,10547,1,2,1:2:0:0:
462,163,10628,1,0,1:0:0:0:
460,152,10710,5,4,3:1:0:0:
384,214,10872,1,2,0:0:0:0:
482,55,11034,5,10,1:2:0:0:
370,303,11196,2,0,P|325:295|281:289,1,89.9999972534181,2|0,0:0|3:0,0:0:0:0:
211,82,11520,2,0,P|166:89|122:95,1,89.9999972534181,2|8,3:2|1:2,0:0:0:0:
34,330,11845,1,2,3:2:0:0:
34,330,12169,5,2,3:2:0:0:
125,337,12331,2,0,P|160:309|195:280,1,89.9999972534181,8|2,1:2|0:0,0:0:0:0:
195,280,12575,1,0,1:0:0:0:
195,280,12656,1,2,3:2:0:0:
276,374,12818,1,2,3:2:0:0:
19,187,12980,1,8,1:2:0:0:
122,96,13142,6,0,B|186:82|232:126|232:126|291:111,1,179.999994506836,2|2,3:2|3:2,0:0:0:0:
0,56,13629,1,10,1:2:0:0:
145,225,13791,1,2,3:2:0:0:
5,275,13953,2,0,P|12:230|18:186,1,89.9999972534181,10|0,1:2|3:0,0:0:0:0:
203,329,14277,5,10,1:2:0:0:
328,7,14439,2,0,P|342:111|360:214,1,209.999993591309,6|10,3:2|1:2,0:0:0:0:
360,214,14926,1,10,1:2:0:0:
211,82,15088,5,2,1:2:0:0:
218,107,15169,1,0,1:0:0:0:
226,130,15250,1,2,1:2:0:0:
145,225,15412,5,8,3:0:0:0:
156,233,15493,1,8,3:0:0:0:
167,241,15575,1,8,3:0:0:0:
203,329,15737,5,4,3:0:0:0:
211,327,15818,1,4,3:0:0:0:
219,325,15899,1,4,3:1:0:0:
256,192,15980,12,0,17845,3:0:0:0:
247,315,26763,6,0,P|261:233|271:151,1,165.000005035401,6|8,1:2|3:0,0:0:0:0:
271,152,27169,1,8,3:0:0:0:
271,152,27250,1,2,3:2:0:0:
349,220,27412,1,0,3:0:0:0:
171,252,27574,5,2,1:2:0:0:
373,55,27736,1,2,1:2:0:0:
373,55,28223,38,0,B|339:77|339:77|297:68,1,82.5000025177003,4|2,3:1|0:0,0:0:0:0:
199,4,28547,2,0,P|206:44|211:85,1,82.5000025177003,2|0,1:2|0:0,0:0:0:0:
211,85,28790,1,0,0:0:0:0:
211,85,28872,1,0,3:2:0:0:
171,252,29034,2,0,P|178:211|183:170,1,82.5000025177003,2|0,3:2|0:0,0:0:0:0:
126,105,29358,1,2,1:2:0:0:
320,229,29520,6,0,B|382:218|368:185|433:175,2,123.75000377655,2|2|2,0:0|0:0|0:0,0:0:0:0:
308,241,30088,1,0,1:0:0:0:
308,258,30169,1,2,3:2:0:0:
407,327,30331,2,0,P|400:286|395:246,1,82.5000025177003,2|0,3:2|0:0,0:0:0:0:
235,370,30655,6,0,P|181:326|73:336,1,165.000005035401,2|2,1:2|3:2,0:0:0:0:
9,291,31142,1,2,1:2:0:0:
37,207,31304,1,2,0:0:0:0:
37,207,31385,1,0,1:0:0:0:
37,207,31466,1,2,3:2:0:0:
117,244,31628,2,0,P|157:238|198:231,1,82.5000025177003,2|0,3:2|0:0,0:0:0:0:
304,84,31953,6,0,B|387:89|366:145|449:149,1,165.000005035401,2|2,1:2|3:2,0:0:0:0:
500,1,32439,2,0,P|505:41|512:82,1,82.5000025177003,2|0,1:2|0:0,0:0:0:0:
512,82,32682,1,0,1:0:0:0:
512,82,32763,2,0,P|471:74|430:69,1,82.5000025177003,2|0,3:2|3:0,0:0:0:0:
291,171,33088,2,0,P|280:89|266:8,1,165.000005035401,2|0,1:2|3:0,0:0:0:0:
265,7,33574,5,2,0:0:0:0:
159,81,33736,2,0,P|154:121|147:162,1,82.5000025177003,2|0,1:2|0:0,0:0:0:0:
146,162,33980,1,0,0:0:0:0:
146,162,34061,1,2,3:2:0:0:
294,272,34223,2,0,P|299:312|306:353,1,82.5000025177003,2|0,3:2|0:0,0:0:0:0:
291,171,34547,5,2,1:2:0:0:
153,261,34709,2,0,P|113:256|72:249,1,82.5000025177003,2|0,0:0|3:0,0:0:0:0:
294,272,35034,5,2,1:2:0:0:
229,220,35196,1,2,0:0:0:0:
229,220,35277,1,0,1:0:0:0:
229,220,35358,1,0,3:0:0:0:
220,310,35520,5,2,3:2:0:0:
359,219,35682,2,0,P|399:214|440:207,1,82.5000025177003,2|0,0:0|1:0,0:0:0:0:
291,171,36007,5,2,0:0:0:0:
430,330,36169,2,0,P|470:335|511:342,1,82.5000025177003,2|0,3:2|1:0,0:0:0:0:
294,272,36493,5,2,0:0:0:0:
294,272,36574,1,0,1:0:0:0:
294,272,36655,1,2,3:2:0:0:
220,310,36817,1,2,3:2:0:0:
153,261,36980,1,2,0:0:0:0:
0,328,37142,6,0,P|15:239|26:149,1,179.999994506836,2|0,1:2|3:0,0:0:0:0:
229,220,37628,2,0,P|221:175|216:130,1,89.9999972534181,6|2,1:2|1:2,0:0:0:0:
150,72,37872,1,0,1:0:0:0:
138,77,37953,2,0,P|113:112|125:166,1,89.9999972534181,2|8,3:2|3:0,0:0:0:0:
216,131,38277,1,4,3:0:0:0:
465,196,38439,6,0,B|366:202|391:268|292:273,1,194.999991073609,6|0,3:2|3:0,0:0:0:0:
216,131,38926,2,0,P|223:90|227:49,1,82.5000025177003,0|0,1:0|0:0,0:0:0:0:
226,49,39169,1,8,3:0:0:0:
226,49,39250,1,0,3:0:0:0:
294,100,39412,1,2,3:2:0:0:
360,60,39574,1,2,1:2:0:0:
298,13,39736,1,2,3:2:0:0:
356,147,39899,6,0,P|363:188|367:229,1,82.5000025177003,8|0,3:0|3:0,0:0:0:0:
212,309,40223,2,0,P|185:278|145:271,1,82.5000025177003,2|2,1:2|0:0,0:0:0:0:
137,262,40466,1,8,3:0:0:0:
147,254,40547,2,0,P|154:213|158:172,1,82.5000025177003,2|0,3:2|3:0,0:0:0:0:
224,132,40872,1,2,1:2:0:0:
84,203,41034,6,0,P|42:206|3:213,1,82.5000025177003,2|8,3:2|3:0,0:0:0:0:
225,212,41358,1,2,3:2:0:0:
148,95,41520,2,0,P|107:89|66:83,1,82.5000025177003,0|0,1:0|3:0,0:0:0:0:
66,83,41763,1,8,3:0:0:0:
66,83,41844,1,0,3:0:0:0:
224,132,42007,6,0,P|261:114|300:100,1,82.5000025177003,2|0,3:2|1:0,0:0:0:0:
232,48,42331,1,2,3:2:0:0:
377,66,42493,2,0,P|370:107|366:148,1,82.5000025177003,8|0,3:0|3:0,0:0:0:0:
287,357,42817,2,0,P|280:316|276:275,1,82.5000025177003,2|2,1:2|1:2,0:0:0:0:
337,229,43061,1,0,1:0:0:0:
348,239,43142,1,2,1:2:0:0:
432,330,43304,2,0,B|395:336|395:336|361:320,1,75,8|4,3:0|3:0,0:0:0:0:
287,357,43628,1,4,3:0:0:0:
443,115,43790,5,4,0:0:0:0:
69,269,45574,5,8,3:0:0:0:
69,269,45655,1,8,3:0:0:0:
69,269,45736,1,0,1:0:0:0:
134,210,45899,1,0,3:0:0:0:
29,359,46061,5,0,1:0:0:0:
180,111,46223,1,0,3:0:0:0:
148,301,46385,5,12,1:2:0:0:
0,98,46547,1,2,3:2:0:0:
134,210,46709,1,2,3:2:0:0:
29,359,46872,1,14,1:2:0:0:
220,242,47034,1,2,3:2:0:0:
75,119,47196,1,2,3:2:0:0:
231,334,47358,5,14,1:2:0:0:
371,8,47520,2,0,P|378:86|391:163,1,157.499995193482,2|0,3:2|0:0,0:0:0:0:
403,257,47844,5,0,1:0:0:0:
403,257,48007,1,0,1:0:0:0:
247,100,48817,6,0,B|181:84|140:130|140:130|78:120,1,180,4|0,3:1|0:0,0:0:0:0:
77,120,49142,1,2,3:2:0:0:
236,309,49304,2,0,B|190:325|190:325|151:296,1,97.4999955368044,8|2,1:2|0:0,0:0:0:0:
143,273,49547,1,0,0:0:0:0:
159,254,49628,1,2,3:2:0:0:
159,254,49790,1,2,3:2:0:0:
71,360,49953,5,10,1:2:0:0:
319,213,50115,2,0,B|384:228|425:182|425:182|487:192,1,180,2|0,3:2|0:0,0:0:0:0:
488,192,50439,1,2,3:2:0:0:
219,20,50601,2,0,B|264:3|264:3|303:32,1,97.4999955368044,8|2,1:2|0:0,0:0:0:0:
311,56,50844,1,2,1:2:0:0:
293,73,50926,1,2,3:2:0:0:
342,134,51088,1,2,3:2:0:0:
400,20,51250,5,10,1:2:0:0:
240,176,51412,2,0,B|160:185|182:237|102:245,1,157.499995193482,2|0,3:2|0:0,0:0:0:0:
103,245,51736,1,2,3:2:0:0:
343,330,51899,2,0,B|355:281|355:281|326:244,1,97.4999955368044,10|2,1:2|0:0,0:0:0:0:
314,223,52142,1,2,1:2:0:0:
297,242,52223,1,2,3:2:0:0:
256,321,52385,1,2,3:2:0:0:
420,212,52547,5,10,1:2:0:0:
255,72,52709,2,0,P|210:78|166:83,1,89.9999972534181,2|0,3:2|0:0,0:0:0:0:
49,191,53034,1,2,3:2:0:0:
129,355,53196,2,0,P|84:347|39:342,1,89.9999972534181,10|0,1:2|3:0,0:0:0:0:
256,321,53520,6,0,P|237:279|222:237,1,89.9999972534181,14|0,3:2|1:0,0:0:0:0:
176,224,53763,1,2,1:2:0:0:
135,249,53844,1,12,3:0:0:0:
144,228,53925,1,0,1:0:0:0:
153,208,54006,1,2,1:2:0:0:
161,187,54087,1,0,1:0:0:0:
169,166,54168,5,4,3:1:0:0:
235,128,54331,1,2,0:0:0:0:
185,68,54493,1,10,1:2:0:0:
119,108,54655,1,2,0:0:0:0:
303,89,54817,6,0,P|348:97|393:102,1,89.9999972534181,2|0,3:2|3:0,0:0:0:0:
444,159,55061,1,2,0:0:0:0:
434,174,55142,1,8,1:2:0:0:
339,320,55304,2,0,P|381:304|422:286,1,89.9999972534181,2|0,3:2|0:0,0:0:0:0:
254,216,55628,5,2,3:2:0:0:
237,384,55790,2,0,P|244:339|249:295,1,89.9999972534181,10|2,1:2|0:0,0:0:0:0:
249,295,56034,1,0,1:0:0:0:
249,295,56115,1,2,3:2:0:0:
182,253,56277,1,2,3:2:0:0:
88,331,56439,5,10,1:2:0:0:
343,203,56601,2,0,P|298:210|253:215,1,89.9999972534181,2|0,3:2|0:0,0:0:0:0:
84,138,56926,1,2,3:2:0:0:
249,295,57088,1,10,1:2:0:0:
177,338,57250,1,0,3:0:0:0:
408,375,57412,1,10,1:2:0:0:
254,215,57574,1,0,3:0:0:0:
507,78,57736,5,10,1:2:0:0:
249,295,57899,2,0,P|167:271|84:253,1,168.750006437302,6|0,3:2|0:0,0:0:0:0:
20,293,58223,5,8,1:2:0:0:
20,293,58385,1,8,1:2:0:0:
159,152,58547,5,2,1:2:0:0:
179,138,58628,1,0,1:0:0:0:
192,119,58709,1,2,1:2:0:0:
47,93,58872,6,0,L|40:137,1,44.999998626709,2|0,1:2|1:0,0:0:0:0:
85,253,59034,1,8,3:0:0:0:
100,273,59115,1,4,3:0:0:0:
108,288,59196,6,0,B|199:298|173:358|264:367,1,180,4|0,3:1|0:0,0:0:0:0:
264,367,59520,1,2,3:2:0:0:
474,195,59682,2,0,B|428:179|428:179|389:208,1,97.4999955368044,8|2,1:2|0:0,0:0:0:0:
381,232,59926,1,0,1:0:0:0:
395,253,60007,1,2,3:2:0:0:
395,253,60169,1,2,3:2:0:0:
506,326,60331,5,10,1:2:0:0:
355,120,60493,2,0,B|263:130|289:190|198:199,1,180,2|0,3:2|0:0,0:0:0:0:
198,199,60817,1,2,3:2:0:0:
5,2,60980,2,0,B|51:-14|51:-14|90:15,1,97.4999955368044,8|2,1:2|0:0,0:0:0:0:
98,39,61224,1,0,1:0:0:0:
84,60,61305,1,2,3:2:0:0:
162,124,61466,1,2,3:2:0:0:
209,27,61628,5,10,1:2:0:0:
20,249,61790,2,0,B|66:229|106:264|106:264|124:308|176:310,1,179.999994506836,6|0,3:2|0:0,0:0:0:0:
173,309,62115,1,2,3:2:0:0:
84,60,62277,2,0,B|55:99|55:99|70:144,1,97.4999955368044,10|0,1:2|0:0,0:0:0:0:
114,211,62520,1,2,1:2:0:0:
127,217,62601,5,2,3:2:0:0:
162,124,62763,1,0,3:0:0:0:
355,120,62926,1,10,1:2:0:0:
320,213,63088,1,0,3:0:0:0:
396,276,63250,5,14,1:2:0:0:
84,60,63412,1,0,3:0:0:0:
309,23,63574,1,10,1:2:0:0:
173,309,63736,1,2,3:2:0:0:
173,309,63817,1,0,1:0:0:0:
173,309,63899,2,0,L|129:302,1,44.999998626709,4|0,1:3|1:0,0:0:0:0:
67,231,64061,6,0,L|111:224,1,44.999998626709,8|4,3:0|3:0,0:0:0:0:
252,373,64223,1,2,1:2:0:0:
264,352,64304,1,0,1:0:0:0:
278,341,64385,6,0,B|266:235|198:265|187:161,1,202.499993820191,4|0,3:1|0:0,0:0:0:0:
188,165,64709,1,2,3:2:0:0:
241,106,64872,1,10,1:2:0:0:
326,128,65034,1,2,0:0:0:0:
326,128,65115,1,0,1:0:0:0:
326,128,65196,1,2,3:2:0:0:
344,204,65358,1,2,3:2:0:0:
420,222,65520,1,10,1:2:0:0:
473,163,65683,1,2,0:0:0:0:
213,245,65844,5,2,3:2:0:0:
448,87,66007,2,0,P|479:45|512:3,1,104.999996795654,2|8,3:2|1:2,0:0:0:0:
270,186,66331,5,2,3:2:0:0:
326,128,66493,1,2,0:0:0:0:
400,151,66655,1,0,3:0:0:0:
194,169,66817,1,10,1:2:0:0:
138,221,66980,1,2,1:2:0:0:
138,221,67061,1,0,1:0:0:0:
138,221,67142,5,6,3:2:0:0:
84,60,67304,1,2,3:2:0:0:
270,186,67466,1,10,1:2:0:0:
0,127,67628,1,2,3:2:0:0:
287,17,67790,1,10,1:2:0:0:
0,279,67953,1,2,3:2:0:0:
265,333,68115,5,10,1:2:0:0:
184,32,68277,1,6,3:2:0:0:
201,255,68601,5,10,1:2:0:0:
250,111,68763,1,8,1:2:0:0:
344,204,68926,5,2,1:2:0:0:
364,187,69007,1,0,1:0:0:0:
389,180,69088,1,0,1:0:0:0:
416,339,69250,5,8,3:0:0:0:
433,341,69331,1,8,3:0:0:0:
449,348,69412,1,8,3:0:0:0:
265,333,69574,5,4,3:0:0:0:
445,12,69736,2,0,B|330:24|362:98|250:110,1,225.000008583069,4|0,3:1|3:0,0:0:0:0:
138,150,70223,1,0,1:0:0:0:
210,176,70385,1,2,0:0:0:0:
176,80,70547,2,0,P|135:75|94:68,1,82.5000025177003,2|4,3:2|1:2,0:0:0:0:
28,203,70872,1,2,0:0:0:0:
28,203,71196,6,0,P|14:113|94:68,1,194.999991073609,4|0,1:2|3:0,0:0:0:0:
210,176,71682,2,0,L|204:216,1,41.2500012588501,2|0,1:2|1:0,0:0:0:0:
137,256,71844,1,2,1:2:0:0:
138,266,71925,1,0,1:0:0:0:
139,276,72006,1,4,1:3:0:0:
141,286,72087,1,0,1:0:0:0:
142,296,72169,2,0,L|182:301,1,41.2500012588501,2|0,1:2|1:0,0:0:0:0:
302,262,72331,6,0,B|402:272|374:337|472:347,1,194.999991073609,4|2,3:2|3:2,0:0:0:0:
295,154,72817,1,2,1:2:0:0:
362,118,72980,2,0,P|367:77|373:36,1,82.5000025177003,2|0,0:0|3:0,0:0:0:0:
210,176,73304,5,2,1:2:0:0:
450,202,73466,2,0,P|459:274|470:346,1,146.249993305207,6|0,3:2|0:0,0:0:0:0:
470,346,73790,1,2,3:2:0:0:
302,262,73953,2,0,P|296:302|290:343,1,82.5000025177003,0|2,1:0|1:2,0:0:0:0:
301,354,74196,1,0,1:0:0:0:
312,357,74277,1,2,1:2:0:0:
384,316,74439,1,0,3:0:0:0:
232,90,74601,1,4,1:2:0:0:
232,90,74926,6,0,P|311:96|336:164,1,146.249993305207,6|0,3:2|0:0,0:0:0:0:
337,150,75250,1,2,3:2:0:0:
113,63,75412,2,0,P|158:-2|229:9,1,146.249993305207,6|0,1:2|0:0,0:0:0:0:
218,2,75736,1,2,3:2:0:0:
35,139,75899,2,0,P|1:66|47:11,1,150,6|0,1:2|3:0,0:0:0:0:
232,90,76385,5,2,1:2:0:0:
210,176,76547,1,2,3:2:0:0:
113,63,76709,2,0,P|119:104|125:145,1,82.5000025177003,2|0,3:2|1:0,0:0:0:0:
337,150,77034,2,0,P|329:190|324:231,1,82.5000025177003,2|0,3:2|1:0,0:0:0:0:
132,366,77358,6,0,B|164:399|232:350|183:287|120:300|120:300|137:237,1,236.249992790222,6|0,3:2|0:0,0:0:0:0:
138,238,78980,5,2,1:2:0:0:
270,168,79142,1,2,1:2:0:0:
59,253,79466,5,2,1:2:0:0:
352,156,79628,1,2,1:2:0:0:
108,314,79953,6,0,B|161:323|202:336|202:336|212:286|227:241,1,194.999991073609,4|0,3:1|3:0,0:0:0:0:
31,328,80439,1,10,1:2:0:0:
174,146,80601,2,0,P|131:161|88:172,1,89.9999972534181,2|0,0:0|3:0,0:0:0:0:
324,378,80926,2,0,P|281:362|238:351,1,89.9999972534181,2|8,3:2|1:2,0:0:0:0:
395,221,81250,5,2,3:2:0:0:
395,221,81574,1,2,3:2:0:0:
227,240,81736,2,0,P|255:205|288:174,1,89.9999972534181,8|2,1:2|0:0,0:0:0:0:
288,174,81980,1,0,1:0:0:0:
288,174,82061,1,2,3:2:0:0:
218,83,82223,1,2,3:2:0:0:
458,151,82385,1,8,1:2:0:0:
405,304,82547,6,0,B|359:284|319:319|319:319|301:363|249:365,1,179.999994506836,2|2,3:2|3:2,0:0:0:0:
363,109,83034,1,10,1:2:0:0:
458,151,83196,1,2,3:2:0:0:
174,146,83358,1,10,1:2:0:0:
79,102,83520,1,0,3:0:0:0:
450,40,83682,5,10,1:2:0:0:
134,243,83844,2,0,P|152:139|167:36,1,209.999993591309,6|10,3:2|1:2,0:0:0:0:
167,35,84331,1,10,1:2:0:0:
277,223,84493,5,2,1:2:0:0:
290,201,84574,1,0,1:0:0:0:
288,174,84655,1,2,1:2:0:0:
363,109,84817,5,8,3:0:0:0:
311,57,84980,5,4,3:0:0:0:
73,328,85142,5,4,3:1:0:0:
256,192,85223,12,0,87250,0:0:0:0:
