osu file format v14

[General]
AudioFilename: audio.mp3
AudioLeadIn: 0
PreviewTime: 48169
Countdown: 0
SampleSet: Soft
StackLeniency: 0.5
Mode: 0
LetterboxInBreaks: 0
WidescreenStoryboard: 1

[Editor]
Bookmarks: 85142
DistanceSpacing: 1.1
BeatDivisor: 4
GridSize: 8
TimelineZoom: 2.119999

[Metadata]
Title:Kaikai Kitan (TV Size)
TitleUnicode:廻廻奇譚 (TV Size)
Artist:Eve
ArtistUnicode:Eve
Creator:-Light-
Version:pjw0413's Insane
Source:呪術廻戦
Tags:alden chrononig pjw0413 wenect wenet unranked mapper stormiverse opening Anime Japanese jujutsu kaisen utaite jpop j-pop pop op j-rock rock sorcery fight
BeatmapID:2901682
BeatmapSetID:1308511

[Difficulty]
HPDrainRate:5
CircleSize:4
OverallDifficulty:7
ApproachRate:9
SliderMultiplier:1.8
SliderTickRate:1

[Events]
//Background and Video events
0,0,"cf42fee1-e7f9-4a71-9b2f-af760180a44f.jpg",0,0
//Break Periods
//Storyboard Layer 0 (Background)
//Storyboard Layer 1 (Fail)
//Storyboard Layer 2 (Pass)
//Storyboard Layer 3 (Foreground)
//Storyboard Layer 4 (Overlay)
//Storyboard Sound Samples

[TimingPoints]
2278,324.324324324324,3,2,1,90,1,0
3250,-100,3,2,2,90,0,0
3737,-100,3,2,3,90,0,0
4223,324.324324324324,4,2,3,90,1,0
4223,-80,3,2,3,90,0,0
4386,-80,3,2,3,5,0,0
4467,-80,3,2,3,90,0,0
4629,-80,3,2,3,5,0,0
4710,-80,3,2,3,90,0,0
4791,-80,3,2,3,5,0,0
5521,-100,4,2,2,90,0,0
10710,-200,4,2,4,90,0,0
10872,-200,4,2,2,90,0,0
11196,-100,4,2,2,90,0,0
14439,-100,4,2,1,90,0,0
15899,-100,4,2,3,90,0,0
17845,324.324324324324,4,2,1,60,1,0
17845,-200,4,2,1,60,0,0
26763,-100,4,2,2,80,0,0
28223,-111.111111111111,4,2,4,80,0,0
37628,-111.111111111111,4,2,2,80,0,0
38439,-125,4,2,1,80,0,0
43790,-200,4,2,3,80,0,0
46385,-100,4,2,1,90,0,0
46872,-100,4,2,2,90,0,0
47358,-100,4,2,3,90,0,0
48817,-100,4,2,2,100,0,0
54169,-100,4,2,4,100,0,0
54331,-100,4,2,2,100,0,0
57899,-100,4,2,1,100,0,0
59196,-100,4,2,2,100,0,0
61790,-100,4,2,1,100,0,0
63250,-100,4,2,2,100,0,0
64385,-100,4,2,4,100,0,0
64547,-100,4,2,2,100,0,0
67142,-100,4,2,1,100,0,0
68277,-100,4,2,2,100,0,0
69736,-142.857142857143,4,2,4,90,0,0
69899,-142.857142857143,4,2,1,90,0,0
71196,-142.857142857143,4,2,2,90,0,0
72331,-142.857142857143,4,2,1,90,0,0
73466,-142.857142857143,4,2,2,90,0,0
74601,-142.857142857143,4,2,1,90,0,0
74926,-125,4,2,2,90,0,0
75412,-125,4,2,1,90,0,0
75899,-125,4,2,2,90,0,0
77358,-200,4,2,3,90,0,0
79953,-100,4,2,2,90,0,0
83844,-100,4,2,1,90,0,0
85142,-100,4,2,3,90,0,0

[Colours]
Combo1 : 112,190,207
Combo2 : 204,204,189

[HitObjects]
353,57,2278,6,0,P|390:60|406:85,1,45,14|0,1:2|0:0,0:0:0:0:
405,82,2440,1,2,3:2:0:0:
346,135,2602,1,2,3:2:0:0:
451,176,2764,6,0,P|452:228|421:262,1,90,14|0,1:2|3:0,0:0:0:0:
354,257,3088,1,2,3:2:0:0:
300,370,3250,6,0,B|311:353|333:349|333:349|279:337|263:285,1,135,14|0,1:2|0:0,0:0:0:0:
260,267,3575,1,0,3:0:0:0:
179,96,3737,6,0,B|161:92|148:75|148:75|151:140|93:171,1,135,14|0,1:2|0:0,0:0:0:0:
91,171,4061,1,2,3:2:0:0:
0,88,4223,6,0,L|113:64,1,112.5,4|0,1:3|0:0,0:0:0:0:
179,96,4467,2,0,P|208:148|280:159,1,112.5,4|0,1:3|0:0,0:0:0:0:
321,122,4710,2,0,L|385:151,1,56.25,4|0,1:3|0:0,0:0:0:0:
42,243,5521,6,0,L|55:332,1,90,4|2,3:1|0:0,0:0:0:0:
176,365,5845,1,10,1:2:0:0:
239,328,6007,2,0,B|191:310|155:334|155:334|119:362|67:342,1,180,2|2,0:0|3:2,0:0:0:0:
214,221,6493,1,8,1:2:0:0:
57,164,6656,6,0,P|108:195|120:246,1,90,2|0,3:2|0:0,0:0:0:0:
253,295,6980,1,2,3:2:0:0:
253,295,7142,2,0,P|291:255|297:219,1,90,8|2,1:2|0:0,0:0:0:0:
292,186,7385,1,0,1:0:0:0:
271,156,7466,1,2,3:2:0:0:
434,326,7629,6,0,L|341:352,1,90,2|8,3:2|1:2,0:0:0:0:
347,350,7953,6,0,B|332:284|317:239|317:239|354:254|395:266,1,180,2|2,3:2|3:2,0:0:0:0:
433,77,8439,2,0,P|390:109|386:156,1,90,10|2,1:2|0:0,0:0:0:0:
391,177,8683,1,0,1:0:0:0:
418,200,8764,1,2,3:2:0:0:
503,158,8926,1,0,3:0:0:0:
246,69,9088,5,10,1:2:0:0:
383,142,9250,2,0,B|343:138|319:107|319:107|301:139|270:147,1,135,2|0,3:2|0:0,0:0:0:0:
253,151,9575,1,2,3:2:0:0:
72,88,9737,1,10,1:2:0:0:
196,6,9899,1,2,3:2:0:0:
124,149,10061,6,0,P|150:104|143:61,1,90,14|2,3:2|1:2,0:0:0:0:
111,170,10304,1,0,1:0:0:0:
103,191,10385,1,12,3:0:0:0:
104,213,10466,1,0,1:0:0:0:
108,235,10548,1,2,1:2:0:0:
119,254,10629,1,0,1:0:0:0:
137,267,10710,6,0,L|192:260,1,45,4|2,3:1|0:0,0:0:0:0:
319,358,11034,1,10,1:2:0:0:
238,384,11196,6,0,B|225:336|255:296|255:296|281:258|263:196,1,180,2|2,0:0|3:2,0:0:0:0:
181,261,11683,1,8,1:2:0:0:
319,358,11845,6,0,P|373:348|404:302,1,90,2|0,3:2|0:0,0:0:0:0:
196,188,12169,1,2,3:2:0:0:
243,131,12331,2,0,P|267:167|266:211,1,90,8|2,1:2|0:0,0:0:0:0:
253,241,12575,1,0,1:0:0:0:
227,259,12656,1,2,3:2:0:0:
26,230,12818,6,0,L|46:137,1,90,2|8,3:2|1:2,0:0:0:0:
44,142,13142,6,0,B|101:151|145:124|145:124|111:152|115:201,1,180,2|2,3:2|3:2,0:0:0:0:
196,188,13629,5,10,1:2:0:0:
285,286,13791,1,2,3:2:0:0:
414,259,13953,1,10,1:2:0:0:
451,98,14115,1,0,3:0:0:0:
388,51,14277,1,10,1:2:0:0:
378,194,14439,6,0,L|399:361,1,135,6|0,3:2|0:0,0:0:0:0:
419,355,14764,1,10,1:2:0:0:
492,238,14926,1,10,1:2:0:0:
285,286,15088,1,2,1:2:0:0:
285,286,15169,1,0,1:0:0:0:
285,286,15250,1,2,1:2:0:0:
239,200,15412,6,0,P|245:171|263:153,2,45,8|8|8,3:0|3:0|3:0,0:0:0:0:
396,95,15737,6,0,L|386:44,2,45,4|4|4,3:0|3:0|3:1,0:0:0:0:
256,192,15980,12,0,17683,0:0:0:0:
485,314,17845,5,0,3:0:0:0:
485,314,18007,1,2,0:0:0:0:
485,314,18169,2,0,L|435:323,1,45,2|0,3:2|0:0,0:0:0:0:
373,360,18493,2,0,P|336:344|280:358,1,90,2|2,3:2|3:2,0:0:0:0:
288,352,18980,1,2,0:0:0:0:
226,284,19142,6,0,L|218:236,1,45,0|2,3:0|0:0,0:0:0:0:
296,174,19466,2,0,L|310:277,1,90,2|2,3:2|3:2,0:0:0:0:
226,284,19953,2,0,L|161:275,1,45,2|0,0:0|3:0,0:0:0:0:
112,313,20277,1,2,0:0:0:0:
112,313,20439,6,0,P|91:280|99:226,1,90,2|2,3:2|3:2,0:0:0:0:
161,129,20926,2,0,P|168:156|159:181,1,45,2|0,0:0|3:0,0:0:0:0:
164,172,21250,1,2,0:0:0:0:
72,138,21412,6,0,L|24:144,1,45,2|2,3:2|0:0,0:0:0:0:
161,129,21736,6,0,L|268:122,1,90,0|2,3:0|3:2,0:0:0:0:
296,59,22223,1,0,0:0:0:0:
296,59,22385,2,0,L|277:11,1,45,2|0,3:2|0:0,0:0:0:0:
308,183,22709,2,0,L|278:230,1,45,2|0,3:2|0:0,0:0:0:0:
377,77,23034,6,0,L|420:51,1,45,0|2,3:0|0:0,0:0:0:0:
385,157,23358,2,0,L|427:252,1,90,2|2,3:2|3:2,0:0:0:0:
384,307,23844,1,2,0:0:0:0:
384,307,24007,2,0,L|375:369,1,45,0|2,3:0|0:0,0:0:0:0:
489,362,24331,6,0,P|502:325|472:269,1,90,2|2,3:2|3:2,0:0:0:0:
421,239,24817,2,0,L|316:220,1,90,2|2,0:0|0:0,0:0:0:0:
271,272,25304,2,0,L|292:335,1,45,2|2,3:2|0:0,0:0:0:0:
232,377,25628,5,2,3:2:0:0:
149,335,25872,1,2,0:0:0:0:
149,335,25953,2,0,L|85:323,1,45,0|2,3:0|0:0,0:0:0:0:
32,338,26277,2,0,P|31:311|42:289,1,45,2|0,3:2|0:0,0:0:0:0:
169,154,26601,5,2,3:2:0:0:
104,82,26763,2,0,B|68:142|68:142|115:258,1,180,6|8,1:2|3:0,0:0:0:0:
109,243,27169,1,8,3:0:0:0:
109,243,27250,1,2,3:2:0:0:
213,230,27412,1,0,3:0:0:0:
314,107,27574,5,2,1:2:0:0:
270,333,27736,1,2,1:2:0:0:
467,224,28223,6,0,P|491:180|481:133,1,80.9999975280763,4|2,3:1|0:0,0:0:0:0:
424,83,28547,2,0,L|407:184,1,80.9999975280763,2|0,1:2|0:0,0:0:0:0:
401,176,28790,1,0,0:0:0:0:
392,189,28872,1,0,3:2:0:0:
240,125,29034,2,0,P|272:104|316:108,1,80.9999975280763,2|0,3:2|0:0,0:0:0:0:
352,14,29358,5,2,1:2:0:0:
297,185,29682,1,0,3:0:0:0:
297,185,29844,2,0,P|265:206|221:202,1,80.9999975280763,0|2,1:0|0:0,0:0:0:0:
223,203,30088,1,0,1:0:0:0:
223,203,30169,1,2,3:2:0:0:
126,130,30331,2,0,L|113:235,1,80.9999975280763,2|0,3:2|0:0,0:0:0:0:
19,314,30655,6,0,B|17:268|17:268|51:332|120:328,1,161.999995056153,2|2,1:2|3:2,0:0:0:0:
194,369,31142,2,0,P|202:322|182:268,1,80.9999975280763,2|2,1:2|0:0,0:0:0:0:
194,290,31385,1,0,1:0:0:0:
194,290,31466,1,2,3:2:0:0:
126,130,31628,2,0,L|113:235,1,80.9999975280763,2|0,3:2|0:0,0:0:0:0:
126,130,31953,6,0,P|186:85|299:114,1,161.999995056153,2|2,1:2|3:2,0:0:0:0:
425,60,32439,1,2,1:2:0:0:
307,12,32601,1,0,0:0:0:0:
307,12,32682,1,0,1:0:0:0:
307,12,32763,1,2,3:2:0:0:
372,124,32926,1,0,3:0:0:0:
323,185,33088,2,0,L|334:318,1,121.499996292114,2|0,1:2|0:0,0:0:0:0:
344,317,33412,6,0,P|386:344|424:339,1,80.9999975280763,0|2,3:0|0:0,0:0:0:0:
485,253,33736,2,0,L|391:267,1,80.9999975280763,2|0,1:2|0:0,0:0:0:0:
389,259,33980,1,0,0:0:0:0:
373,253,34061,1,2,3:2:0:0:
372,124,34223,2,0,P|420:144|446:194,1,80.9999975280763,2|0,3:2|0:0,0:0:0:0:
489,33,34547,5,2,1:2:0:0:
307,12,34872,1,0,3:0:0:0:
307,12,35034,2,0,P|267:51|257:84,1,80.9999975280763,2|2,1:2|0:0,0:0:0:0:
258,73,35277,1,0,1:0:0:0:
258,73,35358,1,0,3:0:0:0:
365,204,35520,2,0,L|372:124,1,80.9999975280763,2|2,3:2|0:0,0:0:0:0:
172,126,35844,6,0,B|127:155|127:155|190:154|247:191,1,161.999995056153,0|2,1:0|3:2,0:0:0:0:
295,261,36331,2,0,P|291:312|262:348,1,80.9999975280763,0|2,1:0|0:0,0:0:0:0:
265,348,36574,1,0,1:0:0:0:
251,356,36655,1,2,3:2:0:0:
105,293,36817,1,2,3:2:0:0:
203,275,36980,1,2,0:0:0:0:
153,384,37142,6,0,B|120:356|63:376|63:376|20:361|13:317,1,161.999995056153,2|0,1:2|3:0,0:0:0:0:
6,174,37628,1,6,1:2:0:0:
162,175,37790,1,2,1:2:0:0:
158,198,37872,1,0,1:0:0:0:
142,216,37953,1,2,3:2:0:0:
55,239,38115,5,8,3:0:0:0:
82,158,38277,5,4,3:0:0:0:
198,53,38439,6,0,B|235:83|233:140|233:140|223:114|189:101,1,144,6|0,3:2|3:0,0:0:0:0:
126,87,38926,1,0,1:0:0:0:
314,32,39169,1,8,3:0:0:0:
314,32,39250,2,0,L|325:108,1,72,0|2,3:0|3:2,0:0:0:0:
379,158,39574,2,0,P|401:119|396:77,1,72,2|2,1:2|3:2,0:0:0:0:
198,53,39899,6,0,L|51:44,1,144,8|2,3:0|1:2,0:0:0:0:
131,19,40385,1,2,0:0:0:0:
131,19,40466,1,8,3:0:0:0:
131,19,40547,1,2,3:2:0:0:
118,96,40709,2,0,P|85:122|26:119,1,72,0|2,3:0|1:2,0:0:0:0:
142,216,41034,6,0,P|196:210|266:266,1,144,2|2,3:2|3:2,0:0:0:0:
204,311,41520,2,0,B|175:334|175:334|134:325,1,72,0|0,1:0|3:0,0:0:0:0:
140,326,41763,1,8,3:0:0:0:
140,326,41844,1,0,3:0:0:0:
52,299,42007,2,0,L|59:217,2,72,2|0|2,3:2|1:0|3:2,0:0:0:0:
217,203,42493,6,0,B|249:180|292:188|292:188|309:222|365:236,1,144,8|2,3:0|1:2,0:0:0:0:
466,194,42980,1,2,1:2:0:0:
466,194,43061,1,0,1:0:0:0:
466,194,43142,1,2,1:2:0:0:
426,120,43304,6,0,L|443:272,1,144,8|4,3:0|3:0,0:0:0:0:
494,356,43790,6,0,B|469:367|469:367|452:365|452:365|418:378,1,67.5,4|0,0:0|0:0,0:0:0:0:
341,228,44277,1,0,0:0:0:0:
341,228,44439,2,0,L|352:327,1,90
288,360,44926,2,0,P|261:352|160:388,1,135
95,315,45574,5,8,3:0:0:0:
95,315,45655,1,8,3:0:0:0:
95,315,45736,1,0,1:0:0:0:
31,166,45899,1,0,3:0:0:0:
144,238,46061,1,0,1:0:0:0:
8,244,46223,1,0,3:0:0:0:
149,207,46385,6,0,L|163:102,1,90,12|2,1:2|3:2,0:0:0:0:
177,44,46709,1,2,3:2:0:0:
240,182,46872,6,0,P|278:218|319:220,1,90,14|2,1:2|3:2,0:0:0:0:
375,177,47196,1,2,3:2:0:0:
305,96,47358,6,0,L|309:169,1,45,14|0,1:2|0:0,0:0:0:0:
385,261,47520,2,0,B|425:237|425:237|456:234|456:234|512:187,1,135,2|0,3:2|0:0,0:0:0:0:
488,178,47844,5,0,1:0:0:0:
512,319,48007,1,0,1:0:0:0:
380,303,48169,6,0,P|377:277|398:249,2,45,2|0|2,0:0|0:0|0:0,0:0:0:0:
380,303,48817,6,0,B|319:299|282:339|282:339|260:312|208:307,1,180,4|2,3:1|3:2,0:0:0:0:
91,271,49304,2,0,P|50:301|43:343,1,90,8|2,1:2|0:0,0:0:0:0:
50,362,49547,1,0,0:0:0:0:
71,377,49628,1,2,3:2:0:0:
201,331,49790,2,0,B|205:306|205:306|143:336,1,90,2|10,3:2|1:2,0:0:0:0:
52,190,50115,6,0,B|99:167|142:196|142:196|179:222|223:208,1,180,2|2,3:2|3:2,0:0:0:0:
281,128,50601,2,0,L|268:24,1,90,8|2,1:2|0:0,0:0:0:0:
251,58,50844,1,2,1:2:0:0:
232,77,50926,1,2,3:2:0:0:
138,98,51088,2,0,P|85:93|52:62,1,90,2|10,3:2|1:2,0:0:0:0:
269,38,51412,6,0,L|464:61,1,180,2|2,3:2|3:2,0:0:0:0:
372,81,51899,2,0,P|398:126|501:112,1,135,10|2,1:2|1:2,0:0:0:0:
500,125,52223,1,2,3:2:0:0:
413,253,52385,1,2,3:2:0:0:
512,223,52547,1,10,1:2:0:0:
394,163,52709,6,0,B|356:173|336:203|336:203|281:214|230:168,1,180,2|2,3:2|3:2,0:0:0:0:
211,74,53196,2,0,P|250:44|293:51,1,90,10|0,1:2|3:0,0:0:0:0:
264,172,53520,6,0,L|272:113,1,45,14|0,3:2|0:0,0:0:0:0:
255,198,53682,1,0,1:0:0:0:
239,220,53763,1,2,1:2:0:0:
219,238,53844,1,12,3:0:0:0:
196,252,53926,1,0,1:0:0:0:
169,259,54007,1,2,1:2:0:0:
142,258,54088,1,0,1:0:0:0:
117,246,54169,6,0,B|90:206|90:206|95:288|30:327,1,180,4|10,3:1|1:2,0:0:0:0:
127,377,54655,1,2,0:0:0:0:
127,377,54817,2,0,P|170:358|223:370,1,90,2|0,3:2|3:0,0:0:0:0:
211,364,55061,1,2,0:0:0:0:
211,364,55142,1,8,1:2:0:0:
338,347,55304,6,0,P|387:329|327:233,1,180,2|2,3:2|3:2,0:0:0:0:
297,279,55790,1,10,1:2:0:0:
431,278,55953,1,2,0:0:0:0:
431,278,56034,1,0,1:0:0:0:
431,278,56115,2,0,P|447:225|424:179,1,90,2|2,3:2|3:2,0:0:0:0:
400,79,56439,5,10,1:2:0:0:
476,95,56601,2,0,L|295:132,1,180,2|2,3:2|3:2,0:0:0:0:
179,74,57088,1,10,1:2:0:0:
259,23,57250,1,0,3:0:0:0:
222,150,57412,2,0,P|250:196|292:209,1,90,10|0,1:2|3:0,0:0:0:0:
299,131,57736,1,10,1:2:0:0:
160,204,57899,6,0,P|137:257|184:337,1,135,6|0,3:2|0:0,0:0:0:0:
184,339,58223,1,8,1:2:0:0:
282,208,58385,1,8,1:2:0:0:
403,350,58547,1,2,1:2:0:0:
403,350,58628,1,0,1:0:0:0:
403,350,58709,1,2,1:2:0:0:
406,183,58872,2,0,L|377:242,1,45,2|0,1:2|1:0,0:0:0:0:
314,375,59034,1,8,3:0:0:0:
246,285,59196,6,0,B|214:312|172:309|172:309|136:284|64:300,1,180,4|2,3:1|3:2,0:0:0:0:
7,220,59682,2,0,L|26:125,1,90,8|2,1:2|0:0,0:0:0:0:
43,151,59926,1,0,1:0:0:0:
61,170,60007,1,2,3:2:0:0:
132,93,60169,2,0,P|105:53|55:43,1,90,2|10,3:2|1:2,0:0:0:0:
77,188,60493,6,0,P|128:204|231:132,1,180,2|2,3:2|3:2,0:0:0:0:
316,21,60980,1,8,1:2:0:0:
218,49,61142,1,2,0:0:0:0:
218,49,61223,1,0,1:0:0:0:
218,49,61304,1,2,3:2:0:0:
315,124,61466,2,0,L|337:226,1,90,2|10,3:2|1:2,0:0:0:0:
464,301,61790,6,0,B|440:256|440:256|405:324|332:324,1,180,6|2,3:2|3:2,0:0:0:0:
248,381,62277,2,0,P|231:333|238:291,1,90,10|0,1:2|0:0,0:0:0:0:
248,270,62520,1,2,1:2:0:0:
264,248,62601,2,0,L|173:237,1,90,2|0,3:2|3:0,0:0:0:0:
52,286,62926,1,10,1:2:0:0:
143,364,63088,2,0,L|135:315,1,45,0|2,3:0|0:0,0:0:0:0:
68,182,63250,6,0,P|41:219|43:275,1,90,14|0,1:2|3:0,0:0:0:0:
181,203,63574,2,0,P|183:158|161:120,1,90,10|2,1:2|3:2,0:0:0:0:
141,101,63817,1,0,1:0:0:0:
116,89,63899,2,0,L|61:77,1,45,4|0,1:3|1:0,0:0:0:0:
191,19,64061,1,8,3:0:0:0:
191,19,64142,1,4,3:0:0:0:
191,19,64223,2,0,L|238:36,1,45,2|0,1:2|1:0,0:0:0:0:
251,117,64385,6,0,B|293:135|336:111|336:111|381:88|425:107,1,180,4|2,3:1|3:2,0:0:0:0:
499,127,64872,2,0,P|502:77|464:38,1,90,10|2,1:2|0:0,0:0:0:0:
479,46,65115,1,0,1:0:0:0:
479,46,65196,1,2,3:2:0:0:
385,187,65358,1,2,3:2:0:0:
345,92,65520,2,0,P|371:41|406:25,1,90,10|2,1:2|0:0,0:0:0:0:
487,224,65844,5,2,3:2:0:0:
385,159,66007,1,2,3:2:0:0:
337,308,66169,2,0,L|438:289,1,90,8|2,1:2|3:2,0:0:0:0:
302,218,66493,6,0,P|251:206|206:222,1,90,2|0,0:0|3:0,0:0:0:0:
215,216,66817,1,10,1:2:0:0:
170,306,66980,2,0,P|176:326|190:343,1,45,2|0,1:2|1:0,0:0:0:0:
265,364,67142,5,6,3:2:0:0:
233,191,67304,1,2,3:2:0:0:
170,306,67466,2,0,P|120:335|81:328,1,90,10|2,1:2|3:2,0:0:0:0:
107,173,67790,2,0,P|121:229|103:264,1,90,10|2,1:2|3:2,0:0:0:0:
11,160,68115,1,10,1:2:0:0:
172,39,68277,6,0,B|173:7|173:7|213:65|189:125,1,135,6|0,3:2|0:0,0:0:0:0:
186,132,68601,1,10,1:2:0:0:
103,84,68763,1,8,1:2:0:0:
249,47,68926,1,2,1:2:0:0:
275,41,69007,1,0,1:0:0:0:
301,35,69088,1,0,1:0:0:0:
337,165,69250,6,0,P|321:188|290:198,2,45,8|8|8,3:0|3:0|3:0,0:0:0:0:
274,128,69574,1,4,3:0:0:0:
421,78,69736,6,0,L|437:217,1,125.999996154785,4|0,3:1|3:0,0:0:0:0:
500,268,70223,2,0,P|466:290|372:269,1,125.999996154785,0|2,1:0|3:2,0:0:0:0:
379,363,70709,6,0,P|372:315|284:309,1,125.999996154785,4|0,1:2|3:0,0:0:0:0:
225,186,71196,2,0,P|184:204|167:284,1,125.999996154785,4|0,1:2|3:0,0:0:0:0:
227,350,71682,6,0,L|265:359,3,31.4999990386963,2|0|2|0,1:2|1:0|1:2|1:0,0:0:0:0:
164,277,72007,2,0,L|133:284,1,31.4999990386963,4|0,1:3|1:0,0:0:0:0:
213,217,72169,2,0,L|243:209,1,31.4999990386963,2|0,1:2|1:0,0:0:0:0:
71,234,72331,6,0,L|89:98,1,125.999996154785,4|2,3:2|3:2,0:0:0:0:
152,25,72817,1,2,1:2:0:0:
16,7,72980,2,0,P|56:15|81:38,1,62.9999980773926,2|0,0:0|3:0,0:0:0:0:
73,28,73304,1,2,1:2:0:0:
173,112,73466,6,0,P|206:116|286:56,1,125.999996154785,6|2,3:2|3:2,0:0:0:0:
240,0,73953,1,0,1:0:0:0:
254,148,74115,1,2,1:2:0:0:
254,148,74196,1,0,1:0:0:0:
254,148,74277,1,2,1:2:0:0:
360,78,74439,1,0,3:0:0:0:
355,204,74601,6,0,L|344:93,1,94.499997116089,4|0,1:2|0:0,0:0:0:0:
417,16,74926,6,0,P|441:57|439:91,1,72,6|0,3:2|0:0,0:0:0:0:
441,80,75250,1,2,3:2:0:0:
355,204,75412,2,0,L|430:221,1,72,6|0,1:2|0:0,0:0:0:0:
425,219,75736,1,2,3:2:0:0:
357,368,75899,6,0,B|400:361|400:361|453:373|453:373|512:361,1,144,6|0,1:2|3:0,0:0:0:0:
428,337,76385,2,0,P|391:298|295:318,1,144,2|2,1:2|3:2,0:0:0:0:
243,263,76872,1,0,1:0:0:0:
150,365,77034,1,2,3:2:0:0:
94,244,77196,1,0,1:0:0:0:
163,285,77358,6,0,B|127:335|68:320|68:320|51:268|4:259,2,202.5,6|0|0,3:2|0:0|0:0,0:0:0:0:
190,173,78980,5,2,1:2:0:0:
127,6,79142,1,2,1:2:0:0:
88,106,79466,5,2,1:2:0:0:
296,47,79628,1,2,1:2:0:0:
462,216,79953,6,0,L|450:77,1,135,4|0,3:1|0:0,0:0:0:0:
437,63,80277,1,0,3:0:0:0:
333,179,80439,1,10,1:2:0:0:
369,115,80601,2,0,B|384:164|359:204|359:204|336:240|358:292,1,180,2|2,0:0|3:2,0:0:0:0:
356,287,81088,1,8,1:2:0:0:
257,246,81250,6,0,P|216:262|186:300,1,90,2|0,3:2|0:0,0:0:0:0:
302,360,81574,1,2,3:2:0:0:
302,360,81736,2,0,P|347:383|392:375,1,90,8|2,1:2|0:0,0:0:0:0:
418,364,81980,1,0,1:0:0:0:
441,336,82061,1,2,3:2:0:0:
345,197,82223,6,0,L|357:297,1,90,2|8,3:2|1:2,0:0:0:0:
221,162,82547,6,0,B|251:145|268:126|268:126|254:268,1,180,2|2,3:2|3:2,0:0:0:0:
168,303,83034,1,10,1:2:0:0:
102,225,83196,1,2,3:2:0:0:
85,343,83358,5,10,1:2:0:0:
134,224,83520,1,0,3:0:0:0:
13,285,83682,1,10,1:2:0:0:
168,303,83844,6,0,B|235:314|267:382|267:382|288:316,1,180,6|10,3:2|1:2,0:0:0:0:
348,214,84331,1,10,1:2:0:0:
215,157,84493,2,0,L|222:213,1,45,2|0,1:2|1:0,0:0:0:0:
276,256,84655,1,2,1:2:0:0:
333,116,84817,5,8,3:0:0:0:
176,78,84980,1,4,3:0:0:0:
254,19,85142,5,4,3:1:0:0:
256,192,85223,12,0,87250,0:0:0:0:
