osu file format v14

[General]
AudioFilename: audio.mp3
AudioLeadIn: 0
PreviewTime: 48169
Countdown: 0
SampleSet: Soft
StackLeniency: 0.2
Mode: 0
LetterboxInBreaks: 0
WidescreenStoryboard: 1

[Editor]
Bookmarks: 25304,47196,47358,47520
DistanceSpacing: 1
BeatDivisor: 4
GridSize: 8
TimelineZoom: 3.799998

[Metadata]
Title:Kaikai Kitan (TV Size)
TitleUnicode:廻廻奇譚 (TV Size)
Artist:Eve
ArtistUnicode:Eve
Creator:-Light-
Version:an existence that was born in the city and seemed more powerful than anyone
Source:呪術廻戦
Tags:alden chrononig pjw0413 wenect wenet unranked mapper stormiverse opening Anime Japanese jujutsu kaisen utaite jpop j-pop pop op j-rock rock sorcery fight
BeatmapID:2712688
BeatmapSetID:1308511

[Difficulty]
HPDrainRate:5.5
CircleSize:4.2
OverallDifficulty:9
ApproachRate:9.4
SliderMultiplier:2.1
SliderTickRate:1

[Events]
//Background and Video events
0,0,"cf42fee1-e7f9-4a71-9b2f-af760180a44f.jpg",0,0
//Break Periods
2,43990,45034
//Storyboard Layer 0 (Background)
//Storyboard Layer 1 (Fail)
//Storyboard Layer 2 (Pass)
//Storyboard Layer 3 (Foreground)
//Storyboard Layer 4 (Overlay)
//Storyboard Sound Samples

[TimingPoints]
2278,324.324324324324,3,2,1,90,1,0
2278,-100,3,2,1,90,0,0
3250,-100,3,2,2,90,0,0
3737,-100,3,2,3,90,0,0
4223,324.324324324324,4,2,2,90,1,0
4223,-86.9565217391304,3,2,3,90,0,0
4386,-86.9565217391304,3,2,3,5,0,0
4467,-86.9565217391304,3,2,3,90,0,0
4629,-86.9565217391304,3,2,3,5,0,0
4710,-86.9565217391304,3,2,3,90,0,0
4872,-86.9565217391304,3,2,3,5,0,0
5521,-86.9565217391304,4,2,2,90,0,0
10710,-86.9565217391304,4,2,4,90,0,0
10872,-86.9565217391304,4,2,2,90,0,0
14439,-133.333333333333,4,2,1,90,0,0
14764,-100,4,2,1,90,0,0
15899,-100,4,2,3,90,0,0
17845,324.324324324324,4,2,1,60,1,0
17845,-125,4,2,1,60,0,0
26763,-100,4,2,2,80,0,0
27574,-80,4,2,2,80,0,0
28223,-90.9090909090909,4,2,4,80,0,0
28953,-90.9090909090909,4,2,4,5,0,0
29034,-90.9090909090909,4,2,4,80,0,0
30250,-90.9090909090909,4,2,4,5,0,0
30331,-90.9090909090909,4,2,4,80,0,0
30412,-90.9090909090909,4,2,4,5,0,0
30493,-90.9090909090909,4,2,4,80,0,0
31547,-90.9090909090909,4,2,4,5,0,0
31628,-90.9090909090909,4,2,4,80,0,0
31709,-90.9090909090909,4,2,4,5,0,0
31790,-90.9090909090909,4,2,4,80,0,0
34628,-90.9090909090909,4,2,4,5,0,0
34709,-90.9090909090909,4,2,4,80,0,0
36088,-90.9090909090909,4,2,4,5,0,0
36169,-90.9090909090909,4,2,4,80,0,0
36736,-90.9090909090909,4,2,4,5,0,0
36817,-90.9090909090909,4,2,4,80,0,0
36899,-90.9090909090909,4,2,4,5,0,0
36980,-90.9090909090909,4,2,4,80,0,0
37628,-90.9090909090909,4,2,2,80,0,0
37709,-90.9090909090909,4,2,2,5,0,0
37790,-90.9090909090909,4,2,2,80,0,0
38196,-90.9090909090909,4,2,2,5,0,0
38277,-90.9090909090909,4,2,2,80,0,0
38358,-90.9090909090909,4,2,2,5,0,0
38439,-90.9090909090909,4,2,1,80,0,0
43790,-90.9090909090909,4,2,3,80,0,0
46385,-90.9090909090909,4,2,1,90,0,0
46872,-90.9090909090909,4,2,2,90,0,0
47358,-90.9090909090909,4,2,3,90,0,0
48817,-80,4,2,2,100,0,0
49061,-80,4,2,2,5,0,0
49142,-80,4,2,2,100,0,0
51655,-80,4,2,2,5,0,0
51736,-80,4,2,2,100,0,0
52953,-80,4,2,2,5,0,0
53034,-80,4,2,2,100,0,0
54169,-80,4,2,4,100,0,0
54331,-80,4,2,2,100,0,0
55547,-80,4,2,2,5,0,0
55628,-80,4,2,2,100,0,0
57088,-66.6666666666667,4,2,2,100,0,0
57331,-80,4,2,2,5,0,0
57412,-66.6666666666667,4,2,2,100,0,0
57899,-57.1428571428571,4,2,1,100,0,0
58142,-80,4,2,1,5,0,0
58223,-100,4,2,1,100,0,0
58547,-80,4,2,1,100,0,0
59196,-80,4,2,2,100,0,0
61628,-133.333333333333,4,2,2,100,0,0
61790,-66.6666666666667,4,2,1,100,0,0
63250,-66.6666666666667,4,2,2,100,0,0
64385,-80,4,2,4,100,0,0
64547,-80,4,2,2,100,0,0
67142,-66.6666666666667,4,2,1,100,0,0
68277,-66.6666666666667,4,2,2,100,0,0
68601,-100,4,2,2,100,0,0
69736,-100,4,2,4,90,0,0
69899,-100,4,2,1,90,0,0
71196,-100,4,2,2,90,0,0
72331,-100,4,2,1,90,0,0
73466,-100,4,2,2,90,0,0
74601,-200,4,2,1,90,0,0
74926,-86.9565217391304,4,2,2,90,0,0
75250,-117.647058823529,4,2,2,90,0,0
75412,-86.9565217391304,4,2,1,90,0,0
75736,-117.647058823529,4,2,1,90,0,0
75899,-117.647058823529,4,2,2,90,0,0
76385,-86.9565217391304,4,2,2,90,0,0
77358,-161.290322580645,4,2,3,90,0,0
78980,-66.6666666666667,4,2,3,90,0,0
79953,-86.9565217391304,4,2,2,90,0,0
83844,-133.333333333333,4,2,1,90,0,0
84169,-100,4,2,1,90,0,0
85142,-200,4,2,3,90,0,0

[Colours]
Combo1 : 112,190,207
Combo2 : 204,204,189

[HitObjects]
462,358,2278,6,0,P|454:333|463:297,1,52.5,14|0,1:2|0:0,0:0:0:0:
381,277,2440,2,0,P|393:253|424:234,1,52.5,2|0,3:2|0:0,0:0:0:0:
381,162,2602,1,2,3:2:0:0:
277,368,2764,2,0,P|269:317|254:243,1,105,14|0,1:2|3:0,0:0:0:0:
236,138,3088,1,2,3:2:0:0:
69,359,3250,6,0,P|77:308|109:196,1,157.5,14|0,1:2|0:0,0:0:0:0:
118,177,3575,1,0,3:0:0:0:
254,34,3737,6,0,P|243:85|235:137,1,105,14|2,1:2|0:0,0:0:0:0:
234,258,4061,1,2,3:2:0:0:
473,215,4223,6,0,B|486:185|486:185|395:205,1,120.750002303124,4|0,1:3|0:0,0:0:0:0:
321,196,4467,6,0,B|288:199|288:199|351:268,1,120.750002303124,4|0,1:3|0:0,0:0:0:0:
381,337,4710,6,0,B|400:363|400:363|428:274,1,120.750002303124,4|0,1:3|0:0,0:0:0:0:
475,49,5521,6,0,B|432:23|394:58|394:58|355:91|296:83,1,181.125003454685,4|0,3:1|0:0,0:0:0:0:
248,36,5845,1,10,1:2:0:0:
447,121,6007,2,0,B|481:154|481:154|459:223,1,120.750002303124,2|0,0:0|3:0,0:0:0:0:
318,333,6331,2,0,L|195:357,1,120.750002303124,2|8,3:2|1:2,0:0:0:0:
106,163,6656,2,0,B|143:130|143:130|157:266,1,181.125003454685,2|0,3:2|0:0,0:0:0:0:
90,336,6980,6,0,P|51:303|73:239,1,120.750002303124,2|8,3:2|1:2,0:0:0:0:
265,136,7304,1,2,0:0:0:0:
272,134,7385,1,0,1:0:0:0:
279,132,7466,2,0,L|353:149,1,60.3750011515618,2|0,3:2|0:0,0:0:0:0:
299,228,7629,2,0,L|372:244,1,60.3750011515618,2|0,3:2|0:0,0:0:0:0:
343,323,7791,1,8,1:2:0:0:
436,164,7953,6,0,P|470:115|365:65,1,181.125003454685,2|0,3:2|0:0,0:0:0:0:
369,59,8277,1,2,3:2:0:0:
210,207,8439,2,0,P|174:258|109:259,1,120.750002303124,10|2,1:2|0:0,0:0:0:0:
33,222,8683,1,0,1:0:0:0:
26,209,8764,2,0,P|61:157|126:156,1,120.750002303124,2|0,3:2|3:0,0:0:0:0:
450,302,9088,1,10,1:2:0:0:
372,359,9250,6,0,P|365:279|345:172,1,181.125003454685,2|0,3:2|0:0,0:0:0:0:
329,108,9575,1,2,3:2:0:0:
123,367,9737,2,0,P|121:338|108:310,1,60.3750011515618,10|0,1:2|0:0,0:0:0:0:
237,279,9899,2,0,P|221:255|195:237,1,60.3750011515618,2|0,3:2|0:0,0:0:0:0:
116,29,10061,6,0,L|172:49,1,60.3750011515618,14|0,3:2|0:0,0:0:0:0:
301,118,10223,1,2,1:2:0:0:
315,113,10304,1,0,1:0:0:0:
329,108,10385,2,0,P|322:79|290:50,1,60.3750011515618,12|0,3:0|1:0,0:0:0:0:
414,135,10548,2,0,P|435:115|444:73,1,60.3750011515618,2|0,1:2|1:0,0:0:0:0:
486,211,10710,6,0,P|473:263|486:341,1,120.750002303124,4|2,3:1|0:0,0:0:0:0:
323,252,11034,2,0,P|311:229|322:192,1,60.3750011515618,10|0,1:2|0:0,0:0:0:0:
396,323,11196,6,0,B|334:307|361:366|264:360,1,120.750002303124,2|0,0:0|3:0,0:0:0:0:
178,153,11520,2,0,B|204:126|204:126|229:214,1,120.750002303124,2|8,3:2|1:2,0:0:0:0:
13,376,11845,2,0,L|45:181,1,181.125003454685,2|0,3:2|0:0,0:0:0:0:
127,234,12169,6,0,P|163:279|137:336,1,120.750002303124,2|8,3:2|1:2,0:0:0:0:
30,114,12493,1,2,0:0:0:0:
26,102,12575,1,0,1:0:0:0:
22,91,12656,2,0,P|14:63|-2:37,1,60.3750011515618,2|0,3:2|0:0,0:0:0:0:
120,68,12818,2,0,P|127:39|126:9,1,60.3750011515618,2|0,3:2|0:0,0:0:0:0:
209,120,12980,1,8,1:2:0:0:
209,120,13142,6,0,B|262:98|294:127|294:127|331:164|395:151,1,181.125003454685,2|0,3:2|0:0,0:0:0:0:
436,104,13466,1,2,3:2:0:0:
243,194,13629,6,0,L|174:204,1,60.3750011515618,10|0,1:2|0:0,0:0:0:0:
13,223,13791,1,2,3:2:0:0:
245,211,13953,6,0,L|314:221,1,60.3750011515618,10|0,1:2|0:0,0:0:0:0:
475,240,14115,1,0,3:0:0:0:
252,370,14277,6,0,L|243:302,1,60.3750011515618,10|0,1:2|0:0,0:0:0:0:
210,114,14439,6,0,P|246:120|260:51,1,118.125004506111,6|0,3:2|0:0,0:0:0:0:
181,32,14764,6,0,L|115:47,1,52.5,10|0,1:2|0:0,0:0:0:0:
349,112,14926,2,0,L|415:127,1,52.5,10|0,1:2|0:0,0:0:0:0:
248,196,15088,5,2,1:2:0:0:
246,209,15169,1,0,1:0:0:0:
244,222,15250,6,0,P|245:246|251:280,1,52.5,2|0,1:2|0:0,0:0:0:0:
401,370,15412,2,0,P|426:376|457:365,1,52.5,8|0,3:0|0:0,0:0:0:0:
447,256,15575,2,0,P|422:250|391:261,1,52.5,8|0,3:0|0:0,0:0:0:0:
300,336,15737,5,4,3:0:0:0:
297,347,15818,1,4,3:0:0:0:
296,358,15899,1,4,3:1:0:0:
256,192,15980,12,0,17683,0:0:0:0:
261,361,17845,5,0,3:0:0:0:
261,361,18007,1,2,0:0:0:0:
328,304,18169,2,0,P|352:271|349:212,1,84,2|0,3:2|0:0,0:0:0:0:
267,201,18493,2,0,P|244:234|247:292,1,84,2|0,3:2|0:0,0:0:0:0:
333,141,18817,1,2,3:2:0:0:
220,131,18980,6,0,P|184:134|141:93,1,84,2|0,0:0|3:0,0:0:0:0:
89,34,19304,1,2,0:0:0:0:
213,30,19466,2,0,P|249:27|293:68,1,84,2|0,3:2|0:0,0:0:0:0:
333,141,19790,1,2,3:2:0:0:
484,103,19953,2,0,P|453:83|395:96,1,84,2|0,0:0|3:0,0:0:0:0:
333,141,20277,1,2,0:0:0:0:
310,233,20439,6,0,L|300:319,1,84,2|0,3:2|0:0,0:0:0:0:
372,375,20763,1,2,3:2:0:0:
457,329,20926,2,0,B|446:298|446:298|378:290,1,84,2|0,0:0|3:0,0:0:0:0:
300,316,21250,1,2,0:0:0:0:
215,349,21412,1,2,3:2:0:0:
148,261,21574,6,0,P|164:198|224:249,1,168,2|2,0:0|0:0,0:0:0:0:
60,305,22061,2,0,L|-23:310,1,84,2|0,3:2|0:0,0:0:0:0:
78,200,22385,2,0,L|3:162,1,84,2|0,3:2|0:0,0:0:0:0:
145,118,22709,2,0,L|99:47,1,84,2|0,3:2|0:0,0:0:0:0:
175,230,23034,5,0,3:0:0:0:
175,230,23196,1,2,0:0:0:0:
261,188,23358,2,0,P|291:162|288:112,1,84,2|0,3:2|0:0,0:0:0:0:
257,35,23682,5,2,3:2:0:0:
292,120,23844,2,0,P|317:150|368:147,1,84,2|0,0:0|3:0,0:0:0:0:
443,114,24169,5,2,0:0:0:0:
359,151,24331,2,0,P|330:176|333:226,1,84,2|0,3:2|0:0,0:0:0:0:
363,301,24655,5,2,3:2:0:0:
329,219,24817,2,0,P|304:189|253:192,1,84,2|0,0:0|3:0,0:0:0:0:
363,301,25142,5,2,0:0:0:0:
333,206,25304,2,0,P|308:176|257:179,1,84,2|2,3:2|0:0,0:0:0:0:
96,191,25628,6,0,L|88:279,1,84,2|0,3:2|0:0,0:0:0:0:
97,279,25872,2,0,L|105:191,1,84,2|0,0:0|0:0,0:0:0:0:
117,114,26115,1,2,0:0:0:0:
153,348,26277,6,0,P|199:308|275:304,1,126,2|0,3:2|0:0,0:0:0:0:
283,305,26601,1,2,3:2:0:0:
413,229,26763,6,0,L|201:189,1,210,6|8,1:2|3:0,0:0:0:0:
193,189,27169,1,8,3:0:0:0:
181,187,27250,1,2,3:2:0:0:
103,237,27412,1,0,3:0:0:0:
196,89,27574,6,0,P|198:57|178:31,1,65.625,2|0,1:2|0:0,0:0:0:0:
99,56,27736,2,0,P|94:87|112:114,1,65.625,2|0,1:2|0:0,0:0:0:0:
298,181,28223,5,4,3:1:0:0:
441,111,28385,1,2,0:0:0:0:
298,181,28547,6,0,P|241:189|167:212,1,115.50000352478,2|0,1:2|0:0,0:0:0:0:
166,218,28790,1,0,0:0:0:0:
157,227,28872,2,0,P|146:254|153:287,1,57.7500017623902,0|0,3:2|0:0,0:0:0:0:
213,330,29034,2,0,B|277:328|246:370|321:378,1,115.50000352478,2|0,3:2|0:0,0:0:0:0:
62,231,29358,5,2,1:2:0:0:
127,147,29520,2,0,B|153:109|153:109|127:35,1,115.50000352478,2|0,0:0|3:0,0:0:0:0:
124,27,29763,1,2,0:0:0:0:
119,14,29844,1,0,1:0:0:0:
18,103,30007,5,2,0:0:0:0:
12,117,30088,1,0,1:0:0:0:
14,129,30169,2,0,L|28:189,1,57.7500017623902,2|0,3:2|0:0,0:0:0:0:
241,162,30331,2,0,L|227:222,1,57.7500017623902,2|0,3:2|0:0,0:0:0:0:
83,314,30493,1,0,0:0:0:0:
83,314,30655,6,0,P|132:286|205:312,1,115.50000352478,2|0,1:2|0:0,0:0:0:0:
269,366,30980,1,2,3:2:0:0:
444,309,31142,2,0,P|455:253|427:204,1,115.50000352478,2|2,1:2|0:0,0:0:0:0:
403,190,31385,1,0,1:0:0:0:
403,190,31466,2,0,P|374:188|342:199,1,57.7500017623902,2|0,3:2|0:0,0:0:0:0:
260,218,31628,2,0,P|289:220|321:209,1,57.7500017623902,2|0,3:2|0:0,0:0:0:0:
480,128,31790,1,0,0:0:0:0:
480,128,31953,6,0,B|523:101|523:101|389:77,1,173.250005287171,2|0,1:2|0:0,0:0:0:0:
327,63,32277,1,2,3:2:0:0:
140,133,32439,1,2,1:2:0:0:
217,185,32601,1,0,0:0:0:0:
226,173,32682,1,0,1:0:0:0:
228,159,32763,2,0,P|234:110|187:64,1,115.50000352478,2|0,3:2|3:0,0:0:0:0:
58,112,33088,2,0,P|51:160|98:206,1,115.50000352478,2|0,1:2|0:0,0:0:0:0:
355,238,33412,5,0,3:0:0:0:
355,238,33574,1,2,0:0:0:0:
238,306,33736,2,0,L|98:341,1,115.50000352478,2|0,1:2|0:0,0:0:0:0:
99,343,33980,1,0,0:0:0:0:
99,343,34061,1,2,3:2:0:0:
316,335,34223,2,0,P|353:317|419:352,1,115.50000352478,2|0,3:2|0:0,0:0:0:0:
350,152,34547,6,0,L|337:78,1,57.7500017623902,2|0,1:2|0:0,0:0:0:0:
272,218,34709,2,0,B|306:180|306:180|476:216,1,173.250005287171,2|0,0:0|0:0,0:0:0:0:
479,262,35034,1,2,1:2:0:0:
223,145,35196,1,2,0:0:0:0:
221,130,35277,1,0,1:0:0:0:
218,114,35358,2,0,L|242:-22,1,115.50000352478,0|2,3:0|3:2,0:0:0:0:
272,218,35682,6,0,L|131:240,1,115.50000352478,2|0,0:0|1:0,0:0:0:0:
69,69,36007,2,0,L|75:7,1,57.7500017623902,2|0,0:0|0:0,0:0:0:0:
141,122,36169,2,0,L|159:240,1,115.50000352478,2|0,3:2|1:0,0:0:0:0:
54,367,36493,5,2,0:0:0:0:
52,374,36574,1,0,1:0:0:0:
51,381,36655,2,0,P|43:347|61:321,1,57.7500017623902,2|0,3:2|0:0,0:0:0:0:
111,260,36817,2,0,P|136:236|168:239,1,57.7500017623902,2|0,3:2|0:0,0:0:0:0:
276,313,36980,1,2,0:0:0:0:
276,313,37142,6,0,P|278:258|299:131,1,173.250005287171,2|0,1:2|0:0,0:0:0:0:
305,109,37466,1,0,3:0:0:0:
488,20,37628,6,0,P|461:29|438:60,1,57.7500017623902,6|0,1:2|0:0,0:0:0:0:
411,130,37790,1,2,1:2:0:0:
396,185,37872,1,0,1:0:0:0:
411,240,37953,1,2,3:2:0:0:
476,371,38115,6,0,P|465:346|436:325,1,57.7500017623902,8|0,3:0|0:0,0:0:0:0:
336,257,38277,2,0,P|313:240|278:237,1,57.7500017623902,4|0,3:0|0:0,0:0:0:0:
157,228,38439,6,0,P|99:242|119:337,1,173.250005287171,6|0,3:2|0:0,0:0:0:0:
143,346,38763,1,0,3:0:0:0:
225,173,38926,2,0,P|221:114|210:51,1,115.50000352478,0|0,1:0|0:0,0:0:0:0:
201,24,39169,1,8,3:0:0:0:
201,24,39250,1,0,3:0:0:0:
121,152,39412,5,2,3:2:0:0:
318,185,39574,1,2,1:2:0:0:
121,152,39736,1,2,3:2:0:0:
229,284,39899,6,0,B|306:262|286:320|355:315,1,115.50000352478,8|0,3:0|3:0,0:0:0:0:
405,346,40142,1,0,0:0:0:0:
416,347,40223,2,0,P|431:318|400:243,1,115.50000352478,2|2,1:2|0:0,0:0:0:0:
318,185,40466,1,8,3:0:0:0:
307,186,40547,2,0,P|292:157|323:82,1,115.50000352478,2|0,3:2|3:0,0:0:0:0:
482,32,40872,1,2,1:2:0:0:
194,108,41034,6,0,B|91:127|150:187|48:216,1,173.250005287171,2|0,3:2|0:0,0:0:0:0:
44,134,41358,2,0,P|26:85|79:37,1,115.50000352478,2|0,3:2|1:0,0:0:0:0:
200,189,41682,1,0,3:0:0:0:
198,201,41763,1,8,3:0:0:0:
197,212,41844,2,0,L|191:279,1,57.7500017623902,0|0,3:0|0:0,0:0:0:0:
119,384,42007,2,0,P|117:328|104:270,1,115.50000352478,2|0,3:2|1:0,0:0:0:0:
44,134,42331,1,2,3:2:0:0:
318,325,42493,6,0,P|365:328|413:282,1,115.50000352478,8|0,3:0|3:0,0:0:0:0:
416,184,42817,1,2,1:2:0:0:
228,61,42980,1,2,1:2:0:0:
238,71,43061,1,0,1:0:0:0:
251,78,43142,2,0,P|276:86|315:76,1,57.7500017623902,2|0,1:2|0:0,0:0:0:0:
394,51,43304,5,8,3:0:0:0:
281,0,43466,1,4,3:0:0:0:
145,50,43628,1,4,3:0:0:0:
266,194,43790,5,4,0:0:0:0:
199,179,45574,5,8,3:0:0:0:
207,185,45655,1,8,3:0:0:0:
209,174,45736,6,0,L|140:183,1,57.7500017623902,0|0,1:0|0:0,0:0:0:0:
29,198,45899,1,0,3:0:0:0:
342,186,46061,6,0,L|273:177,1,57.7500017623902,0|0,1:0|0:0,0:0:0:0:
76,139,46223,1,0,3:0:0:0:
486,154,46385,6,0,L|417:163,1,57.7500017623902,12|0,1:2|0:0,0:0:0:0:
260,267,46547,1,2,3:2:0:0:
255,271,46709,1,2,3:2:0:0:
334,15,46872,6,0,L|325:81,1,57.7500017623902,14|0,1:2|0:0,0:0:0:0:
296,352,47034,1,2,3:2:0:0:
294,361,47196,1,2,3:2:0:0:
80,176,47358,5,14,1:2:0:0:
152,225,47520,2,0,B|221:223|193:264|265:272,1,115.50000352478,2|0,3:2|0:0,0:0:0:0:
109,17,47844,6,0,L|123:84,1,57.7500017623902,0|0,1:0|0:0,0:0:0:0:
165,362,48007,6,0,L|153:305,1,57.7500017623902,0|0,1:0|0:0,0:0:0:0:
298,49,48817,6,0,B|297:29|289:-3|289:-3|430:76,1,196.875,4|0,3:1|0:0,0:0:0:0:
500,136,49142,2,0,P|480:129|433:152,1,65.625,2|0,3:2|0:0,0:0:0:0:
379,339,49304,1,8,1:2:0:0:
379,339,49466,6,0,L|348:270,1,65.625,2|0,0:0|0:0,0:0:0:0:
316,204,49628,2,0,P|268:196|208:269,1,131.25,2|2,3:2|3:2,0:0:0:0:
5,300,49953,2,0,P|30:300|67:340,1,65.625,10|0,1:2|0:0,0:0:0:0:
110,384,50115,6,0,L|64:186,1,196.875,2|0,3:2|0:0,0:0:0:0:
143,170,50439,2,0,P|145:135|119:104,1,65.625,2|0,3:2|0:0,0:0:0:0:
5,21,50601,1,8,1:2:0:0:
240,90,50763,5,2,0:0:0:0:
315,110,50844,1,2,1:2:0:0:
386,76,50926,1,2,3:2:0:0:
215,99,51088,1,2,3:2:0:0:
408,67,51250,1,10,1:2:0:0:
334,219,51412,6,0,P|317:119|297:11,1,196.875,2|0,3:2|0:0,0:0:0:0:
294,5,51736,1,2,3:2:0:0:
489,254,51899,6,0,P|454:246|416:262,1,65.625,10|0,1:2|0:0,0:0:0:0:
258,314,52061,1,2,0:0:0:0:
245,327,52142,1,2,1:2:0:0:
232,348,52223,6,0,P|236:328|231:280,1,65.625,2|0,3:2|0:0,0:0:0:0:
259,190,52385,2,0,P|247:173|210:142,1,65.625,2|0,3:2|0:0,0:0:0:0:
60,8,52547,2,0,P|46:23|26:67,1,65.625,10|0,1:2|0:0,0:0:0:0:
0,170,52709,6,0,B|64:153|88:198|88:198|115:249|171:253,1,196.875,2|0,3:2|0:0,0:0:0:0:
41,288,53034,2,0,P|12:284|17:324,1,65.625,2|0,3:2|0:0,0:0:0:0:
139,130,53196,2,0,L|160:-11,1,131.25,10|0,1:2|3:0,0:0:0:0:
270,308,53520,6,0,B|245:323|245:323|259:363,1,65.625,14|0,3:2|0:0,0:0:0:0:
376,309,53682,1,0,1:0:0:0:
374,292,53763,2,0,L|360:226,1,65.625,2|12,1:2|3:0,0:0:0:0:
277,134,53926,5,0,1:0:0:0:
321,162,54007,1,2,1:2:0:0:
394,142,54088,1,0,1:0:0:0:
413,65,54169,1,4,3:1:0:0:
218,199,54331,6,0,L|151:213,1,65.625,2|0,0:0|0:0,0:0:0:0:
40,198,54493,2,0,P|-3:146|38:88,1,131.25,10|2,1:2|0:0,0:0:0:0:
288,239,54817,6,0,P|297:303|313:370,1,131.25,2|0,3:2|3:0,0:0:0:0:
376,309,55061,1,2,0:0:0:0:
374,292,55142,1,8,1:2:0:0:
95,266,55304,6,0,B|-27:305|-27:305|45:347,1,196.875,2|0,3:2|0:0,0:0:0:0:
184,351,55628,2,0,P|175:318|186:276,1,65.625,2|0,3:2|0:0,0:0:0:0:
283,72,55790,2,0,P|288:104|280:136,1,65.625,10|0,1:2|0:0,0:0:0:0:
180,287,55953,1,2,0:0:0:0:
93,100,56115,6,0,L|79:33,1,65.625,2|0,3:2|0:0,0:0:0:0:
106,91,56277,2,0,L|91:23,1,65.625,2|0,3:2|0:0,0:0:0:0:
397,171,56439,6,0,P|363:174|332:207,1,65.625,10|0,1:2|0:0,0:0:0:0:
258,272,56601,2,0,P|292:275|323:308,1,65.625,2|0,3:2|0:0,0:0:0:0:
395,361,56763,1,0,0:0:0:0:
180,287,56926,6,0,P|147:298|126:338,1,65.625,2|0,3:2|0:0,0:0:0:0:
230,349,57088,2,0,L|188:111,1,236.250009012223,10|0,1:2|0:0,0:0:0:0:
243,44,57412,6,0,P|269:24|325:26,1,78.7500030040742,10|0,1:2|0:0,0:0:0:0:
410,28,57574,2,0,P|440:40|466:90,1,78.7500030040742,0|0,3:0|0:0,0:0:0:0:
98,216,57736,2,0,L|9:199,1,78.7500030040742,10|0,1:2|0:0,0:0:0:0:
346,373,57899,6,0,B|379:336|375:283|354:262|354:262|352:262|352:262|353:260|353:260|350:260|350:260|319:232|320:179|357:156|379:164|379:164|357:193,1,275.625002628565,6|0,3:2|0:0,0:0:0:0:
287,307,58223,6,0,L|260:358,1,52.5,8|0,1:2|0:0,0:0:0:0:
466,266,58385,2,0,L|441:219,1,52.5,8|0,1:2|0:0,0:0:0:0:
279,119,58547,5,2,1:2:0:0:
198,135,58628,1,0,1:0:0:0:
118,151,58709,1,2,1:2:0:0:
17,291,58872,5,2,1:2:0:0:
29,303,58953,1,0,1:0:0:0:
17,314,59034,1,8,3:0:0:0:
6,303,59115,1,4,3:0:0:0:
19,303,59196,6,0,B|69:254|69:254|202:290,1,196.875,4|0,3:1|0:0,0:0:0:0:
311,229,59520,2,0,P|277:235|236:212,1,65.625,2|0,3:2|0:0,0:0:0:0:
49,45,59682,1,8,1:2:0:0:
49,45,59844,6,0,L|122:62,1,65.625,2|0,0:0|1:0,0:0:0:0:
366,90,60007,2,0,L|383:17,1,65.625,2|0,3:2|0:0,0:0:0:0:
261,82,60169,2,0,L|275:145,1,65.625,2|0,3:2|0:0,0:0:0:0:
453,356,60331,1,10,1:2:0:0:
248,224,60493,6,0,B|187:196|124:231|174:277|94:322|57:303,1,196.875,2|0,3:2|0:0,0:0:0:0:
16,252,60817,2,0,P|5:201|77:211,1,131.25,2|8,3:2|1:2,0:0:0:0:
214,303,61142,1,2,0:0:0:0:
285,334,61223,1,0,1:0:0:0:
347,287,61304,6,0,P|358:256|336:226,1,65.625,2|0,3:2|0:0,0:0:0:0:
211,174,61466,2,0,L|140:184,1,65.625,2|0,3:2|0:0,0:0:0:0:
440,74,61628,2,0,L|472:42,1,39.3750015020371,10|0,1:2|0:0,0:0:0:0:
419,154,61790,6,0,B|328:126|328:126|243:102|260:26|308:37,1,236.250009012223,6|0,3:2|0:0,0:0:0:0:
342,229,62115,2,0,L|326:308,1,78.7500030040742,2|0,3:2|0:0,0:0:0:0:
85,375,62277,6,0,B|44:341|44:341|160:311,1,157.500006008148,10|0,1:2|0:0,0:0:0:0:
496,320,62520,1,2,1:2:0:0:
427,365,62601,6,0,L|409:283,1,78.7500030040742,2|0,3:2|0:0,0:0:0:0:
362,96,62763,1,0,3:0:0:0:
419,372,62926,6,0,L|401:290,1,78.7500030040742,10|0,1:2|0:0,0:0:0:0:
371,86,63088,1,0,3:0:0:0:
411,377,63250,6,0,L|393:295,1,78.7500030040742,14|0,1:2|0:0,0:0:0:0:
380,77,63412,1,0,3:0:0:0:
402,384,63574,6,0,L|384:302,1,78.7500030040742,10|0,1:2|0:0,0:0:0:0:
380,77,63736,1,2,3:2:0:0:
371,86,63817,1,0,1:0:0:0:
362,96,63899,5,4,1:3:0:0:
300,134,63980,1,0,1:0:0:0:
235,128,64061,1,8,3:0:0:0:
207,97,64142,1,4,3:0:0:0:
215,60,64223,2,0,L|294:44,1,78.7500030040742,2|0,1:2|1:0,0:0:0:0:
193,366,64385,6,0,P|185:284|156:157,1,196.875,4|0,3:1|0:0,0:0:0:0:
123,101,64709,2,0,P|107:96|90:136,1,65.625,2|0,3:2|0:0,0:0:0:0:
266,246,64872,6,0,B|337:229|315:289|389:283,1,131.25,10|2,1:2|0:0,0:0:0:0:
488,213,65115,1,0,1:0:0:0:
488,213,65196,6,0,B|472:188|472:188|436:200,1,65.625,2|0,3:2|0:0,0:0:0:0:
420,355,65358,2,0,B|436:380|436:380|472:368,1,65.625,2|0,3:2|0:0,0:0:0:0:
322,45,65520,6,0,L|312:119,1,65.625,10|0,1:2|0:0,0:0:0:0:
266,246,65682,2,0,L|257:180,1,65.625,2|0,0:0|0:0,0:0:0:0:
19,14,65844,5,2,3:2:0:0:
191,106,66007,2,0,P|139:101|84:178,1,131.25,2|8,3:2|1:2,0:0:0:0:
35,371,66331,6,0,L|44:303,1,65.625,2|0,3:2|0:0,0:0:0:0:
257,180,66493,2,0,B|272:274|272:274|151:238,1,196.875,2|0,0:0|0:0,0:0:0:0:
84,227,66817,1,10,1:2:0:0:
216,342,66980,5,2,1:2:0:0:
290,366,67061,1,0,1:0:0:0:
347,312,67142,6,0,L|360:232,1,78.7500030040742,6|0,3:2|0:0,0:0:0:0:
373,318,67304,2,0,L|385:237,1,78.7500030040742,2|0,3:2|0:0,0:0:0:0:
494,23,67466,6,0,P|450:7|409:31,1,78.7500030040742,10|0,1:2|0:0,0:0:0:0:
257,180,67628,2,0,P|295:176|322:148,1,78.7500030040742,2|0,3:2|0:0,0:0:0:0:
41,11,67790,6,0,L|19:100,1,78.7500030040742,10|0,1:2|0:0,0:0:0:0:
124,109,67953,2,0,L|142:32,1,78.7500030040742,2|0,3:2|0:0,0:0:0:0:
23,267,68115,6,0,P|39:240|99:230,1,78.7500030040742,10|0,1:2|0:0,0:0:0:0:
492,110,68277,6,0,L|334:72,1,157.500006008148,6|0,3:2|0:0,0:0:0:0:
161,187,68601,6,0,L|174:242,1,52.5,10|0,1:2|0:0,0:0:0:0:
186,313,68763,2,0,L|199:368,1,52.5,8|0,1:2|0:0,0:0:0:0:
308,279,68926,5,2,1:2:0:0:
319,268,69007,1,0,1:0:0:0:
309,256,69088,1,0,1:0:0:0:
70,346,69250,5,8,3:0:0:0:
56,359,69331,1,8,3:0:0:0:
68,374,69412,1,8,3:0:0:0:
164,207,69574,5,4,3:0:0:0:
162,197,69655,1,4,3:0:0:0:
161,187,69736,6,0,B|143:41|143:41|109:100,1,210,4|0,3:1|3:0,0:0:0:0:
65,175,70223,1,0,1:0:0:0:
231,112,70385,2,0,P|265:91|328:110,1,105,2|2,0:0|3:2,0:0:0:0:
387,172,70709,1,4,1:2:0:0:
319,234,70872,6,0,L|165:265,1,157.5,2|0,0:0|0:0,0:0:0:0:
93,288,71196,2,0,B|137:248|137:248|168:355,1,157.5,4|0,1:2|0:0,0:0:0:0:
172,365,71520,1,0,3:0:0:0:
21,321,71682,5,2,1:2:0:0:
6,289,71763,1,0,1:0:0:0:
11,255,71844,1,2,1:2:0:0:
33,228,71926,1,0,1:0:0:0:
68,205,72007,5,4,1:3:0:0:
109,166,72088,1,0,1:0:0:0:
103,110,72169,1,2,1:2:0:0:
53,82,72250,1,0,1:0:0:0:
3,106,72331,6,0,L|165:121,1,157.5,4|0,3:2|0:0,0:0:0:0:
194,122,72655,1,2,3:2:0:0:
287,134,72817,1,2,1:2:0:0:
459,172,72980,2,0,P|413:157|351:191,1,105,2|0,0:0|3:0,0:0:0:0:
227,326,73304,1,2,1:2:0:0:
320,372,73466,6,0,L|302:268,1,105,6|0,3:2|0:0,0:0:0:0:
254,208,73709,1,0,0:0:0:0:
256,196,73790,2,0,L|274:92,1,105,2|0,3:2|1:0,0:0:0:0:
374,33,74115,5,2,1:2:0:0:
410,18,74196,1,0,1:0:0:0:
434,49,74277,1,2,1:2:0:0:
376,136,74439,1,0,3:0:0:0:
79,69,74601,2,0,L|72:-4,1,52.5,4|2,1:2|0:0,0:0:0:0:
151,125,74926,6,0,L|136:251,1,120.750002303124,6|0,3:2|0:0,0:0:0:0:
28,373,75250,2,0,P|15:349|41:336,1,44.6250008511543,2|0,3:2|0:0,0:0:0:0:
198,303,75412,6,0,L|323:284,1,120.750002303124,6|0,1:2|0:0,0:0:0:0:
433,346,75736,2,0,P|442:365|429:382,1,44.6250008511543,2|0,3:2|0:0,0:0:0:0:
414,235,75899,6,0,P|395:186|469:165,1,133.875002553463,6|0,1:2|0:0,0:0:0:0:
490,227,76223,1,0,3:0:0:0:
341,125,76385,5,2,1:2:0:0:
312,233,76547,1,2,3:2:0:0:
340,113,76709,1,2,3:2:0:0:
195,155,76872,5,0,1:0:0:0:
168,47,77034,1,2,3:2:0:0:
196,170,77196,1,0,1:0:0:0:
22,202,77358,6,0,B|-39:161|10:84|131:61|61:223|196:170|196:170|117:169|73:251|134:338|239:321|239:231,1,585.899976755677,6|0,3:2|0:0,0:0:0:0:
476,92,78980,6,0,L|393:109,1,78.7500030040742,2|0,1:2|0:0,0:0:0:0:
195,34,79142,2,0,L|278:51,1,78.7500030040742,2|0,1:2|0:0,0:0:0:0:
193,49,79466,6,0,L|276:32,1,78.7500030040742,2|0,1:2|0:0,0:0:0:0:
480,109,79628,2,0,L|397:92,1,78.7500030040742,2|0,1:2|0:0,0:0:0:0:
429,313,79953,6,0,B|485:286|479:406|363:367|421:316|308:312,1,181.125003454685,4|0,3:1|0:0,0:0:0:0:
263,355,80277,1,0,3:0:0:0:
183,212,80439,2,0,P|177:185|201:154,1,60.3750011515618,10|0,1:2|0:0,0:0:0:0:
98,336,80601,6,0,P|114:289|80:211,1,120.750002303124,2|0,0:0|3:0,0:0:0:0:
293,231,80926,2,0,P|277:184|311:106,1,120.750002303124,2|8,3:2|1:2,0:0:0:0:
178,4,81250,2,0,L|-5:36,1,181.125003454685,2|0,3:2|0:0,0:0:0:0:
34,111,81574,6,0,B|81:133|81:133|149:98,1,120.750002303124,2|8,3:2|1:2,0:0:0:0:
315,49,81899,1,2,0:0:0:0:
317,40,81980,1,0,1:0:0:0:
320,33,82061,2,0,P|300:24|264:41,1,60.3750011515618,2|0,3:2|0:0,0:0:0:0:
266,125,82223,2,0,P|248:137|244:177,1,60.3750011515618,2|0,3:2|0:0,0:0:0:0:
324,258,82385,1,8,1:2:0:0:
324,258,82547,6,0,B|393:235|393:235|373:108,1,181.125003454685,2|0,3:2|0:0,0:0:0:0:
368,93,82872,1,2,3:2:0:0:
141,230,83034,6,0,L|206:240,1,60.3750011515618,10|0,1:2|0:0,0:0:0:0:
461,260,83196,1,2,3:2:0:0:
132,237,83358,6,0,L|197:247,1,60.3750011515618,10|0,1:2|0:0,0:0:0:0:
469,252,83520,1,0,3:0:0:0:
123,248,83682,6,0,L|63:238,1,60.3750011515618,10|0,1:2|0:0,0:0:0:0:
127,344,83844,6,0,P|161:322|164:384,1,118.125004506111,6|0,3:2|0:0,0:0:0:0:
47,369,84169,6,0,P|37:349|46:318,1,52.5,10|0,1:2|0:0,0:0:0:0:
273,275,84331,2,0,P|283:255|274:224,1,52.5,10|0,1:2|0:0,0:0:0:0:
153,103,84493,5,2,1:2:0:0:
142,111,84574,1,0,1:0:0:0:
143,121,84655,6,0,P|172:132|204:128,1,52.5,2|0,1:2|0:0,0:0:0:0:
354,137,84817,2,0,P|378:117|390:87,1,52.5,8|0,3:0|0:0,0:0:0:0:
305,36,84980,2,0,P|280:55|268:85,1,52.5,4|0,3:0|0:0,0:0:0:0:
276,226,85142,5,4,3:1:0:0:
256,192,85223,12,0,87250,0:0:0:0:
