osu file format v14

[General]
AudioFilename: audio.mp3
AudioLeadIn: 0
PreviewTime: 48169
Countdown: 0
SampleSet: Soft
StackLeniency: 0.2
Mode: 0
LetterboxInBreaks: 0
WidescreenStoryboard: 1

[Editor]
DistanceSpacing: 1.1
BeatDivisor: 4
GridSize: 8
TimelineZoom: 3.799998

[Metadata]
Title:Kaikai Kitan (TV Size)
TitleUnicode:廻廻奇譚 (TV Size)
Artist:Eve
ArtistUnicode:Eve
Creator:-Light-
Version:Another
Source:呪術廻戦
Tags:alden chrononig pjw0413 wenect wenet unranked mapper stormiverse opening Anime Japanese jujutsu kaisen utaite jpop j-pop pop op j-rock rock sorcery fight
BeatmapID:2715639
BeatmapSetID:1308511

[Difficulty]
HPDrainRate:5.2
CircleSize:4
OverallDifficulty:8.4
ApproachRate:9.1
SliderMultiplier:1.8
SliderTickRate:1

[Events]
//Background and Video events
0,0,"cf42fee1-e7f9-4a71-9b2f-af760180a44f.jpg",0,0
//Break Periods
2,43990,44990
//Storyboard Layer 0 (Background)
//Storyboard Layer 1 (Fail)
//Storyboard Layer 2 (Pass)
//Storyboard Layer 3 (Foreground)
//Storyboard Layer 4 (Overlay)
//Storyboard Sound Samples

[TimingPoints]
2278,324.324324324324,3,2,1,90,1,0
3250,-100,3,2,2,90,0,0
3737,-100,3,2,3,90,0,0
4223,324.324324324324,4,2,2,90,1,0
4223,-80,3,2,3,90,0,0
4386,-80,3,2,3,5,0,0
4467,-80,3,2,3,90,0,0
4629,-80,3,2,3,5,0,0
4710,-80,3,2,3,90,0,0
4872,-80,3,2,3,5,0,0
5521,-100,4,2,2,90,0,0
10710,-100,4,2,4,90,0,0
10872,-100,4,2,2,90,0,0
14439,-100,4,2,1,90,0,0
15899,-100,4,2,3,90,0,0
17845,324.324324324324,4,2,1,60,1,0
17845,-133.333333333333,4,2,1,60,0,0
26763,-100,4,2,2,80,0,0
28223,-111.111111111111,4,2,4,80,0,0
37628,-111.111111111111,4,2,2,80,0,0
38439,-111.111111111111,4,2,1,80,0,0
43790,-111.111111111111,4,2,3,80,0,0
46385,-83.3333333333333,4,2,1,90,0,0
46872,-83.3333333333333,4,2,2,90,0,0
47358,-83.3333333333333,4,2,3,90,0,0
48817,-100,4,2,2,100,0,0
54169,-100,4,2,4,100,0,0
54331,-100,4,2,2,100,0,0
57899,-80,4,2,1,100,0,0
58223,-100,4,2,1,100,0,0
59196,-100,4,2,2,100,0,0
61790,-100,4,2,1,100,0,0
63250,-100,4,2,2,100,0,0
64385,-100,4,2,4,100,0,0
64547,-100,4,2,2,100,0,0
67142,-100,4,2,1,100,0,0
68277,-100,4,2,2,100,0,0
69736,-117.647058823529,4,2,4,90,0,0
69899,-117.647058823529,4,2,1,90,0,0
71196,-117.647058823529,4,2,2,90,0,0
72331,-117.647058823529,4,2,1,90,0,0
73466,-117.647058823529,4,2,2,90,0,0
74601,-142.857142857143,4,2,1,90,0,0
74926,-100,4,2,2,90,0,0
75412,-100,4,2,1,90,0,0
75899,-142.857142857143,4,2,2,90,0,0
76385,-100,4,2,2,90,0,0
77358,-200,4,2,3,90,0,0
78980,-100,4,2,3,90,0,0
79142,-133.333333333333,4,2,3,90,0,0
79466,-100,4,2,3,90,0,0
79628,-133.333333333333,4,2,3,90,0,0
79953,-100,4,2,2,90,0,0
83844,-100,4,2,1,90,0,0
85142,-100,4,2,3,90,0,0

[Colours]
Combo1 : 112,190,207
Combo2 : 204,204,189

[HitObjects]
471,46,2278,6,0,B|482:26|482:26|404:38,2,90,14|2|2,1:2|3:2|3:2,0:0:0:0:
274,106,2764,2,0,L|371:134,1,90,14|0,1:2|3:0,0:0:0:0:
478,165,3088,1,2,3:2:0:0:
331,342,3250,6,0,B|315:358|315:358|304:279,2,90,14|0|0,1:2|0:0|3:0,0:0:0:0:
370,209,3737,1,14,1:2:0:0:
440,265,3899,1,2,0:0:0:0:
272,213,4061,1,2,3:2:0:0:
200,382,4223,6,0,L|121:301,1,112.5,4|0,1:3|0:0,0:0:0:0:
152,193,4467,2,0,L|121:301,1,112.5,4|0,1:3|0:0,0:0:0:0:
11,329,4710,2,0,L|132:298,1,112.5,4|0,1:3|0:0,0:0:0:0:
16,57,5521,6,0,B|56:40|81:67|81:67|112:101|162:93,1,135,4|0,3:1|0:0,0:0:0:0:
159,95,5845,1,10,1:2:0:0:
375,25,6007,2,0,P|340:14|284:40,1,90,2|0,0:0|3:0,0:0:0:0:
243,144,6331,2,0,P|238:190|232:236,1,90,2|8,3:2|1:2,0:0:0:0:
449,317,6656,6,0,P|475:278|404:252,1,135,2|0,3:2|0:0,0:0:0:0:
346,283,6980,2,0,P|351:329|357:375,1,90,2|8,3:2|1:2,0:0:0:0:
318,181,7304,1,2,0:0:0:0:
321,158,7385,1,0,1:0:0:0:
325,136,7466,1,2,3:2:0:0:
406,49,7629,1,2,3:2:0:0:
261,67,7791,1,8,1:2:0:0:
512,119,7953,6,0,B|440:125|470:166|394:191,1,135,2|0,3:2|0:0,0:0:0:0:
378,195,8277,1,2,3:2:0:0:
172,138,8439,2,0,P|145:108|158:49,1,90,10|2,1:2|0:0,0:0:0:0:
163,40,8683,1,0,1:0:0:0:
173,31,8764,1,2,3:2:0:0:
269,139,8926,1,0,3:0:0:0:
46,275,9088,5,10,1:2:0:0:
132,223,9250,2,0,B|180:224|202:261|202:261|195:315|245:359,1,180,2|2,3:2|3:2,0:0:0:0:
467,207,9737,2,0,B|436:181|436:181|381:211,1,90,10|2,1:2|3:2,0:0:0:0:
311,301,10060,5,14,3:2:0:0:
317,322,10141,1,0,0:0:0:0:
324,343,10222,2,0,L|336:392,1,45,2|0,1:2|1:0,0:0:0:0:
422,328,10385,2,0,L|410:279,1,45,12|0,3:0|1:0,0:0:0:0:
303,210,10548,1,2,1:2:0:0:
281,216,10629,1,0,1:0:0:0:
259,222,10710,6,0,B|194:243|235:290|164:320,1,135,4|0,3:1|0:0,0:0:0:0:
144,324,11034,1,10,1:2:0:0:
1,210,11196,2,0,B|-12:182|-12:182|56:205,1,90,2|0,0:0|3:0,0:0:0:0:
63,382,11520,2,0,P|53:338|26:291,1,90,2|8,3:2|1:2,0:0:0:0:
171,90,11845,6,0,P|157:158|153:229,1,135,2|0,3:2|0:0,0:0:0:0:
231,269,12169,2,0,P|256:248|241:192,1,90,2|8,3:2|1:2,0:0:0:0:
82,109,12493,1,2,0:0:0:0:
60,115,12574,1,0,1:0:0:0:
38,121,12655,1,2,3:2:0:0:
68,208,12818,1,2,3:2:0:0:
171,90,12980,1,8,1:2:0:0:
102,16,13142,6,0,P|146:43|285:0,1,180,2|2,3:2|3:2,0:0:0:0:
486,98,13629,5,10,1:2:0:0:
379,62,13791,1,2,3:2:0:0:
309,246,13953,5,10,1:2:0:0:
416,210,14115,1,0,3:0:0:0:
287,139,14277,5,10,1:2:0:0:
277,319,14439,6,0,P|289:215|286:118,1,180,6|10,3:2|1:2,0:0:0:0:
269,22,14926,1,10,1:2:0:0:
144,92,15088,1,2,1:2:0:0:
125,104,15169,1,0,1:0:0:0:
112,122,15250,6,0,P|93:154|99:209,1,90,2|8,1:2|3:0,0:0:0:0:
148,271,15493,1,8,3:0:0:0:
155,281,15574,2,0,P|177:293|202:292,1,45,8|0,3:0|0:0,0:0:0:0:
256,345,15737,2,0,P|277:331|289:309,1,45,4|4,3:0|3:0,0:0:0:0:
344,245,15899,5,4,3:1:0:0:
256,192,15980,12,0,17683,0:0:0:0:
314,195,17845,6,0,P|322:166|292:127,1,67.5000025749208,0|2,3:0|0:0,0:0:0:0:
224,77,18169,2,0,B|183:84|183:84|174:91|174:91|112:105,1,101.250003862381,2|0,3:2|0:0,0:0:0:0:
53,134,18493,2,0,P|32:102|44:69,1,67.5000025749208,2|0,3:2|0:0,0:0:0:0:
113,3,18817,1,2,3:2:0:0:
217,160,18980,6,0,L|234:264,1,101.250003862381,2|0,0:0|0:0,0:0:0:0:
237,281,19304,1,2,0:0:0:0:
139,350,19466,2,0,P|120:325|122:279,1,67.5000025749208,2|0,3:2|0:0,0:0:0:0:
145,213,19790,1,2,3:2:0:0:
237,281,19953,6,0,B|305:291|275:321|335:338,1,101.250003862381,2|0,0:0|0:0,0:0:0:0:
345,320,20277,1,2,0:0:0:0:
461,364,20439,6,0,L|447:284,1,67.5000025749208,2|0,3:2|0:0,0:0:0:0:
484,202,20763,1,2,3:2:0:0:
410,134,20926,2,0,L|434:61,1,67.5000025749208,2|0,0:0|3:0,0:0:0:0:
354,206,21250,2,0,P|333:191|276:194,1,67.5000025749208,2|2,0:0|3:2,0:0:0:0:
176,236,21574,6,0,L|213:77,1,135.000005149842,2|2,0:0|0:0,0:0:0:0:
161,7,22061,2,0,P|134:13|104:51,1,67.5000025749208,2|0,3:2|0:0,0:0:0:0:
14,58,22385,2,0,P|5:84|23:129,1,67.5000025749208,2|0,3:2|0:0,0:0:0:0:
65,218,22709,2,0,P|81:189|182:168,1,135.000005149842,2|0,3:2|3:0,0:0:0:0:
282,228,23196,5,2,0:0:0:0:
282,228,23358,2,0,P|265:202|268:164,1,67.5000025749208,2|0,3:2|0:0,0:0:0:0:
219,94,23682,1,2,3:2:0:0:
219,94,23844,2,0,P|233:66|267:49,1,67.5000025749208,2|0,0:0|3:0,0:0:0:0:
355,20,24169,5,2,0:0:0:0:
355,20,24331,2,0,L|365:91,1,67.5000025749208,2|0,3:2|0:0,0:0:0:0:
449,140,24655,5,2,3:2:0:0:
449,140,24817,2,0,L|439:211,1,67.5000025749208,2|0,0:0|3:0,0:0:0:0:
337,211,25142,2,0,L|347:282,1,67.5000025749208,2|2,0:0|3:2,0:0:0:0:
438,339,25466,1,2,0:0:0:0:
322,372,25628,6,0,P|299:352|241:345,1,67.5000025749208,2|0,3:2|0:0,0:0:0:0:
205,384,25872,2,0,L|219:274,1,101.250003862381,2|2,0:0|0:0,0:0:0:0:
87,185,26277,2,0,L|101:260,1,67.5000025749208,2|0,3:2|0:0,0:0:0:0:
116,328,26601,1,2,3:2:0:0:
197,195,26763,6,0,P|225:159|208:109,1,90,6|0,1:2|0:0,0:0:0:0:
123,15,27088,1,8,3:0:0:0:
123,15,27169,1,8,3:0:0:0:
123,15,27250,2,0,L|105:109,1,90,2|0,3:2|3:0,0:0:0:0:
20,174,27574,5,2,1:2:0:0:
216,118,27736,1,2,1:2:0:0:
216,118,28223,6,0,L|302:145,1,80.9999975280763,4|2,3:1|0:0,0:0:0:0:
450,134,28547,2,0,P|471:100|451:61,1,80.9999975280763,2|0,1:2|0:0,0:0:0:0:
431,49,28790,1,0,0:0:0:0:
431,49,28872,1,0,3:2:0:0:
293,142,29034,2,0,L|266:228,1,80.9999975280763,2|0,3:2|0:0,0:0:0:0:
244,309,29358,1,2,1:2:0:0:
447,253,29520,6,0,B|458:223|458:223|358:262,1,121.499996292114,2|2,0:0|0:0,0:0:0:0:
342,326,29844,2,0,P|365:357|412:363,1,80.9999975280763,0|2,1:0|0:0,0:0:0:0:
435,353,30088,1,0,1:0:0:0:
435,353,30169,1,2,3:2:0:0:
297,235,30331,2,0,L|215:215,1,80.9999975280763,2|0,3:2|0:0,0:0:0:0:
16,355,30655,6,0,P|45:370|121:289,1,161.999995056153,2|2,1:2|3:2,0:0:0:0:
39,136,31142,2,0,L|24:220,1,80.9999975280763,2|2,1:2|0:0,0:0:0:0:
22,235,31385,1,0,1:0:0:0:
22,235,31466,1,2,3:2:0:0:
120,170,31628,2,0,P|136:139|125:92,1,80.9999975280763,2|0,3:2|0:0,0:0:0:0:
4,36,31953,6,0,L|179:10,1,161.999995056153,2|2,1:2|3:2,0:0:0:0:
349,35,32439,2,0,B|327:13|327:13|299:67,1,80.9999975280763,2|0,1:2|0:0,0:0:0:0:
295,84,32682,1,0,1:0:0:0:
295,84,32763,2,0,L|310:169,1,80.9999975280763,2|0,3:2|3:0,0:0:0:0:
184,274,33088,2,0,P|208:244|203:201,1,80.9999975280763,2|0,1:2|0:0,0:0:0:0:
168,90,33412,6,0,L|84:108,1,80.9999975280763,0|2,3:0|0:0,0:0:0:0:
27,287,33736,2,0,P|7:256|31:211,1,80.9999975280763,2|0,1:2|0:0,0:0:0:0:
38,199,33980,1,0,0:0:0:0:
38,199,34061,1,2,3:2:0:0:
152,381,34223,2,0,L|175:295,1,80.9999975280763,2|0,3:2|0:0,0:0:0:0:
204,203,34547,1,2,1:2:0:0:
327,315,34709,6,0,L|298:189,1,121.499996292114,2|0,0:0|0:0,0:0:0:0:
294,168,35034,5,2,1:2:0:0:
391,81,35196,2,0,P|418:98|423:145,1,80.9999975280763,2|0,0:0|3:0,0:0:0:0:
396,220,35520,5,2,3:2:0:0:
311,76,35682,2,0,P|312:44|350:16,1,80.9999975280763,2|0,0:0|1:0,0:0:0:0:
460,17,36007,5,2,0:0:0:0:
338,152,36169,2,0,B|254:169|294:217|196:240,1,161.999995056153,2|2,3:2|0:0,0:0:0:0:
181,243,36574,1,0,1:0:0:0:
181,243,36655,1,2,3:2:0:0:
46,182,36817,1,2,3:2:0:0:
154,130,36980,1,2,0:0:0:0:
81,261,37142,6,0,P|74:179|49:91,1,161.999995056153,2|0,1:2|3:0,0:0:0:0:
8,26,37628,1,6,1:2:0:0:
154,130,37790,1,2,1:2:0:0:
172,135,37872,1,0,1:0:0:0:
189,131,37953,1,2,3:2:0:0:
264,86,38115,2,0,P|276:56|242:15,1,80.9999975280763,8|4,3:0|3:0,0:0:0:0:
53,102,38439,6,0,P|74:180|81:261,1,161.999995056153,6|0,3:2|3:0,0:0:0:0:
9,378,38926,2,0,P|30:354|103:345,1,80.9999975280763,0|0,1:0|0:0,0:0:0:0:
104,347,39169,1,8,3:0:0:0:
104,347,39250,1,0,3:0:0:0:
186,299,39412,5,2,3:2:0:0:
271,355,39574,1,2,1:2:0:0:
352,290,39736,1,2,3:2:0:0:
278,179,39899,6,0,L|266:269,1,80.9999975280763,8|0,3:0|3:0,0:0:0:0:
442,342,40223,2,0,P|435:301|439:246,1,80.9999975280763,2|2,1:2|0:0,0:0:0:0:
458,239,40466,1,8,3:0:0:0:
458,239,40547,2,0,P|464:199|463:158,1,80.9999975280763,2|0,3:2|3:0,0:0:0:0:
357,23,40872,5,2,1:2:0:0:
298,85,41034,2,0,B|232:95|260:137|194:147,1,121.499996292114,2|0,3:2|0:0,0:0:0:0:
117,136,41358,2,0,P|110:107|146:75,1,80.9999975280763,2|0,3:2|1:0,0:0:0:0:
316,169,41682,1,0,3:0:0:0:
316,169,41763,1,8,3:0:0:0:
316,169,41844,2,0,L|329:266,1,80.9999975280763,0|2,3:0|3:2,0:0:0:0:
428,340,42169,2,0,P|443:311|416:270,1,80.9999975280763,0|2,1:0|3:2,0:0:0:0:
235,257,42493,6,0,L|110:283,1,121.499996292114,8|0,3:0|0:0,0:0:0:0:
85,291,42817,1,2,1:2:0:0:
186,353,42980,1,2,1:2:0:0:
186,353,43061,1,0,1:0:0:0:
186,353,43142,1,2,1:2:0:0:
225,243,43304,5,8,3:0:0:0:
215,151,43466,1,4,3:0:0:0:
130,116,43628,1,4,3:0:0:0:
235,257,43790,5,4,0:0:0:0:
312,238,45574,5,8,3:0:0:0:
312,238,45655,1,8,3:0:0:0:
312,238,45736,5,0,1:0:0:0:
256,132,45899,1,0,3:0:0:0:
208,278,46061,5,0,1:0:0:0:
259,116,46223,1,0,3:0:0:0:
408,297,46385,6,0,B|366:308|366:308|361:319|361:319|312:336,1,107.999996704102,12|2,1:2|3:2,0:0:0:0:
231,361,46709,1,2,3:2:0:0:
64,160,46872,6,0,B|88:128|88:128|157:155,1,107.999996704102,14|2,1:2|3:2,0:0:0:0:
222,200,47196,1,2,3:2:0:0:
384,79,47358,5,14,1:2:0:0:
319,26,47520,2,0,P|281:61|275:135,1,107.999996704102,2|0,3:2|0:0,0:0:0:0:
246,308,47844,5,0,1:0:0:0:
404,167,48007,1,0,1:0:0:0:
445,70,48818,6,0,B|447:48|465:35|465:35|345:58,1,135,4|0,3:1|0:0,0:0:0:0:
296,85,49142,2,0,P|267:113|281:170,1,90,2|8,3:2|1:2,0:0:0:0:
397,353,49467,1,2,0:0:0:0:
473,285,49629,1,2,3:2:0:0:
382,206,49791,1,2,3:2:0:0:
105,294,49953,5,10,1:2:0:0:
202,347,50115,2,0,P|207:294|217:229,1,90,2|0,3:2|0:0,0:0:0:0:
176,51,50440,6,0,B|141:21|141:21|57:80,1,135,2|0,3:2|0:0,0:0:0:0:
18,138,50764,2,0,L|74:152,1,45,2|2,0:0|1:2,0:0:0:0:
284,194,50926,5,2,3:2:0:0:
262,11,51088,1,2,3:2:0:0:
287,207,51250,1,10,1:2:0:0:
425,17,51413,6,0,B|415:82|415:82|422:80|422:80|409:156,1,135,2|0,3:2|0:0,0:0:0:0:
405,220,51737,1,2,3:2:0:0:
182,156,51899,5,10,1:2:0:0:
263,99,52061,1,2,0:0:0:0:
273,94,52142,1,2,1:2:0:0:
284,95,52223,2,0,P|305:132|299:191,1,90,2|2,3:2|3:2,0:0:0:0:
257,356,52548,1,10,1:2:0:0:
176,323,52710,6,0,B|148:285|148:285|163:235,1,90,2|0,3:2|0:0,0:0:0:0:
182,156,53034,1,2,3:2:0:0:
456,255,53196,6,0,B|379:231|411:302|315:297,1,135,10|0,1:2|0:0,0:0:0:0:
266,267,53521,6,0,P|253:247|274:185,1,90,14|0,3:2|1:0,0:0:0:0:
350,158,53764,1,2,1:2:0:0:
361,155,53845,2,0,P|362:132|350:114,1,45,12|0,3:0|1:0,0:0:0:0:
262,30,54007,5,2,1:2:0:0:
243,33,54088,1,0,1:0:0:0:
226,40,54169,1,4,3:1:0:0:
94,127,54332,6,0,B|48:110|48:110|61:60,1,90,2|10,0:0|1:2,0:0:0:0:
129,10,54656,1,2,0:0:0:0:
178,138,54818,6,0,P|199:169|179:218,1,90,2|0,3:2|3:0,0:0:0:0:
170,238,55061,1,2,0:0:0:0:
170,238,55142,1,8,1:2:0:0:
9,354,55305,6,0,B|-7:319|-7:319|105:348,1,135,2|0,3:2|0:0,0:0:0:0:
169,360,55629,1,2,3:2:0:0:
338,308,55791,1,10,1:2:0:0:
206,250,55953,1,2,0:0:0:0:
199,259,56034,1,0,1:0:0:0:
193,268,56115,6,0,L|233:305,1,45,2|0,3:2|0:0,0:0:0:0:
294,373,56277,1,2,3:2:0:0:
393,197,56440,6,0,L|353:234,1,45,10|0,1:2|0:0,0:0:0:0:
269,210,56601,2,0,P|263:158|252:102,1,90,2|0,3:2|0:0,0:0:0:0:
357,40,56926,5,2,3:2:0:0:
463,111,57088,2,0,P|483:129|477:198,1,90,10|0,1:2|3:0,0:0:0:0:
257,121,57413,6,0,P|251:69|240:13,1,90,10|0,1:2|3:0,0:0:0:0:
361,228,57737,2,0,P|367:205|375:185,1,45,10|0,1:2|0:0,0:0:0:0:
421,294,57899,6,0,B|375:259|336:275|336:275|307:314|245:309,1,168.75,6|0,3:2|0:0,0:0:0:0:
199,270,58223,5,8,1:2:0:0:
4,370,58386,1,8,1:2:0:0:
69,199,58548,5,2,1:2:0:0:
65,188,58629,1,0,1:0:0:0:
61,177,58710,2,0,L|48:231,1,45,2|0,1:2|0:0,0:0:0:0:
160,166,58872,5,2,1:2:0:0:
156,143,58953,1,0,1:0:0:0:
152,121,59034,1,8,3:0:0:0:
148,99,59115,1,4,3:0:0:0:
144,77,59196,6,0,B|134:31|134:31|232:62,1,135,4|0,3:1|0:0,0:0:0:0:
277,104,59521,2,0,P|264:62|288:13,1,90,2|8,3:2|1:2,0:0:0:0:
458,121,59845,5,2,0:0:0:0:
456,132,59926,1,0,1:0:0:0:
453,143,60007,1,2,3:2:0:0:
318,202,60169,1,2,3:2:0:0:
366,350,60332,1,10,1:2:0:0:
482,274,60494,6,0,B|470:251|442:248|442:248|344:277,1,135,2|0,3:2|0:0,0:0:0:0:
286,311,60818,2,0,L|186:290,1,90,2|8,3:2|1:2,0:0:0:0:
16,286,61142,5,2,0:0:0:0:
10,295,61223,1,0,1:0:0:0:
7,306,61305,1,2,3:2:0:0:
88,358,61467,1,2,3:2:0:0:
185,170,61629,1,10,1:2:0:0:
110,105,61791,6,0,B|80:80|58:94|58:94|89:117|101:181,1,135,6|0,3:2|0:0,0:0:0:0:
107,233,62115,1,2,3:2:0:0:
326,101,62277,6,0,P|349:61|315:28,1,90,10|0,1:2|0:0,0:0:0:0:
263,171,62521,1,2,1:2:0:0:
263,171,62602,6,0,B|296:169|322:194|322:194|317:234|350:269,1,135,2|0,3:2|0:0,0:0:0:0:
414,301,62926,2,0,P|422:277|413:251,1,45,10|0,1:2|0:0,0:0:0:0:
395,162,63088,1,0,3:0:0:0:
129,312,63250,6,0,B|167:327|167:327|129:202,1,135,14|0,1:2|0:0,0:0:0:0:
93,169,63575,1,10,1:2:0:0:
12,314,63737,5,2,3:2:0:0:
8,324,63818,1,0,1:0:0:0:
5,335,63899,2,0,L|-5:393,1,45,4|0,1:3|1:0,0:0:0:0:
103,274,64061,2,0,L|136:322,1,45,8|4,3:0|3:0,0:0:0:0:
176,202,64223,1,2,1:2:0:0:
186,205,64305,1,0,1:0:0:0:
196,208,64386,6,0,B|245:218|245:218|225:132,1,135,4|0,3:1|0:0,0:0:0:0:
205,62,64710,1,2,3:2:0:0:
20,24,64872,6,0,B|75:39|75:39|50:71|53:87,1,90,10|2,1:2|0:0,0:0:0:0:
13,138,65115,1,0,1:0:0:0:
13,138,65196,6,0,L|111:161,1,90,2|2,3:2|3:2,0:0:0:0:
269,85,65521,2,0,B|254:49|254:49|195:64,1,90,10|2,1:2|0:0,0:0:0:0:
265,271,65845,5,2,3:2:0:0:
339,197,66007,2,0,P|374:179|452:233,1,135,2|0,3:2|0:0,0:0:0:0:
463,298,66332,5,2,3:2:0:0:
388,371,66494,1,2,0:0:0:0:
345,285,66656,1,0,3:0:0:0:
101,314,66818,5,10,1:2:0:0:
90,317,66899,1,0,1:0:0:0:
79,321,66980,2,0,L|24:335,1,45,2|0,1:2|1:0,0:0:0:0:
148,242,67142,5,6,3:2:0:0:
174,359,67305,1,2,3:2:0:0:
143,228,67467,1,10,1:2:0:0:
255,174,67629,5,2,3:2:0:0:
219,294,67791,1,10,1:2:0:0:
169,117,67953,1,2,3:2:0:0:
464,204,68115,5,10,1:2:0:0:
373,233,68277,2,0,B|306:260|306:260|294:300|320:328,1,135,6|0,3:2|0:0,0:0:0:0:
385,363,68602,6,0,L|485:338,1,90,10|8,1:2|1:2,0:0:0:0:
285,244,68926,2,0,L|268:137,1,90,2|0,1:2|1:0,0:0:0:0:
160,60,69250,5,8,3:0:0:0:
153,56,69331,1,8,3:0:0:0:
145,52,69412,2,0,L|154:103,1,45,8|0,3:0|0:0,0:0:0:0:
192,165,69574,2,0,L|172:216,1,45,4|4,3:0|3:0,0:0:0:0:
92,286,69737,6,0,B|83:267|71:258|71:258|155:285,1,114.750002188683,4|0,3:1|0:0,0:0:0:0:
224,317,70061,1,0,3:0:0:0:
224,317,70223,1,0,1:0:0:0:
472,371,70386,6,0,P|441:343|429:297,1,76.5000014591217,2|2,0:0|3:2,0:0:0:0:
474,218,70710,1,4,1:2:0:0:
353,109,70872,6,0,B|283:122|308:154|251:178,1,114.750002188683,2|0,0:0|0:0,0:0:0:0:
180,168,71196,2,0,P|148:132|223:112,1,153.000002918243,4|0,1:2|3:0,0:0:0:0:
338,226,71683,5,2,1:2:0:0:
335,244,71764,1,0,1:0:0:0:
332,263,71845,1,2,1:2:0:0:
330,282,71926,1,0,1:0:0:0:
327,301,72007,2,0,L|320:353,3,38.2500007295609,4|0|2|0,1:3|1:0|1:2|1:0,0:0:0:0:
235,360,72332,6,0,P|241:319|174:272,1,114.750002188683,4|0,3:2|0:0,0:0:0:0:
113,300,72656,1,2,3:2:0:0:
22,146,72818,5,2,1:2:0:0:
98,197,72980,2,0,P|140:205|186:178,1,76.5000014591217,2|0,0:0|3:0,0:0:0:0:
338,82,73305,1,2,1:2:0:0:
258,46,73467,6,0,P|240:79|240:124,1,76.5000014591217,6|0,3:2|0:0,0:0:0:0:
351,161,73791,2,0,P|369:194|369:239,1,76.5000014591217,2|0,3:2|1:0,0:0:0:0:
324,329,74115,1,2,1:2:0:0:
324,329,74196,1,0,1:0:0:0:
324,329,74277,6,0,P|284:336|243:319,1,76.5000014591217,2|0,1:2|3:0,0:0:0:0:
171,208,74602,2,0,L|157:107,1,94.499997116089,4|0,1:2|0:0,0:0:0:0:
110,39,74926,6,0,P|74:33|30:62,1,90,6|0,3:2|0:0,0:0:0:0:
0,145,75250,1,2,3:2:0:0:
201,35,75413,6,0,P|237:29|281:58,1,90,6|0,1:2|0:0,0:0:0:0:
311,141,75737,1,2,3:2:0:0:
171,208,75899,6,0,L|157:107,1,94.499997116089,6|0,1:2|0:0,0:0:0:0:
158,114,76223,1,0,3:0:0:0:
78,203,76386,6,0,P|58:238|74:287,1,90,2|2,1:2|3:2,0:0:0:0:
126,349,76710,1,2,3:2:0:0:
231,319,76872,1,0,1:0:0:0:
395,277,77034,5,2,3:2:0:0:
160,250,77196,1,0,1:0:0:0:
324,367,77358,6,0,B|318:301|292:257|292:257|258:199|239:101|346:50|436:133|385:206|349:208,1,427.5,6|0,3:2|0:0,0:0:0:0:
151,121,78980,6,0,L|144:62,1,45,2|0,1:2|0:0,0:0:0:0:
65,23,79142,2,0,P|36:14|45:63,1,101.250003862381,2|0,1:2|0:0,0:0:0:0:
151,121,79466,6,0,L|144:62,1,45,2|0,1:2|0:0,0:0:0:0:
248,36,79629,2,0,P|257:7|208:16,1,101.250003862381,2|0,1:2|0:0,0:0:0:0:
151,121,79953,6,0,L|172:311,1,180,4|0,3:1|3:0,0:0:0:0:
357,361,80440,1,10,1:2:0:0:
411,289,80602,2,0,B|437:261|437:261|350:244,1,90,2|0,0:0|3:0,0:0:0:0:
170,299,80926,2,0,L|265:320,1,90,2|8,3:2|1:2,0:0:0:0:
389,162,81250,2,0,P|431:123|382:63,1,135,2|0,3:2|0:0,0:0:0:0:
310,43,81574,6,0,B|256:56|279:96|230:111,1,90,2|8,3:2|1:2,0:0:0:0:
160,163,81899,1,2,0:0:0:0:
160,163,81980,1,0,1:0:0:0:
160,163,82061,1,2,3:2:0:0:
50,118,82223,2,0,P|32:88|62:43,1,90,2|8,3:2|1:2,0:0:0:0:
249,195,82548,6,0,P|239:257|234:353,1,135,2|0,3:2|0:0,0:0:0:0:
234,362,82872,1,2,3:2:0:0:
29,281,83034,5,10,1:2:0:0:
128,239,83196,1,2,3:2:0:0:
397,284,83359,5,10,1:2:0:0:
350,365,83521,1,0,3:0:0:0:
316,135,83683,5,10,1:2:0:0:
470,187,83845,6,0,P|423:199|314:130,1,180,6|10,3:2|1:2,0:0:0:0:
382,51,84332,1,10,1:2:0:0:
290,248,84494,1,2,1:2:0:0:
285,258,84575,1,0,1:0:0:0:
280,268,84656,6,0,L|257:318,1,45,2|0,1:2|0:0,0:0:0:0:
202,373,84817,1,8,3:0:0:0:
147,307,84980,1,4,3:0:0:0:
8,374,85142,5,4,3:1:0:0:
256,192,85223,12,0,87250,0:0:0:0:
