osu file format v14

[General]
AudioFilename: audio.mp3
AudioLeadIn: 0
PreviewTime: 48086
Countdown: 0
SampleSet: Soft
StackLeniency: 0.2
Mode: 0
LetterboxInBreaks: 0
WidescreenStoryboard: 1

[Editor]
Bookmarks: 78412
DistanceSpacing: 1
BeatDivisor: 4
GridSize: 4
TimelineZoom: 1

[Metadata]
Title:Kaikai Kitan (TV Size)
TitleUnicode:廻廻奇譚 (TV Size)
Artist:Eve
ArtistUnicode:Eve
Creator:- Nilou -
Version:Normal
Source:呪術廻戦
Tags:jrock j-rock rock j-pop pop jpop utaite male japanese anime op opening jujutsu kaisen vanya2 crysisters mizujin -_aqua aqua_m1x amats syndicate ayyri eiri- annabel
BeatmapID:4221297
BeatmapSetID:2020645

[Difficulty]
HPDrainRate:3
CircleSize:3
OverallDifficulty:4
ApproachRate:6
SliderMultiplier:0.999999999999999
SliderTickRate:1

[Events]
//Background and Video events
Video,-556,"video.mp4"
0,0,"sukuna-jujutsu-kaisen-4k-wallpaper-3840x2160-uhdpaper.com-317.1_a.jpg",0,0
//Break Periods
//Storyboard Layer 0 (Background)
//Storyboard Layer 1 (Fail)
//Storyboard Layer 2 (Pass)
//Storyboard Layer 3 (Foreground)
//Storyboard Layer 4 (Overlay)
//Storyboard Sound Samples

[TimingPoints]
2278,324.324324324324,3,2,1,70,1,0
2278,-100,3,2,1,70,0,0
4223,324.324324324324,4,2,1,70,1,0
4223,-100,3,2,1,70,0,0
5520,-100,3,2,1,75,0,0
7952,-100,3,2,1,75,0,0
8762,-100,3,2,1,75,0,0
13141,-100,3,2,1,75,0,0
15411,-100,3,2,2,75,0,0
15897,-100,3,2,3,75,0,0
17845,324.324324324324,4,2,3,60,1,0
18167,-100,3,2,3,60,0,0
19464,-100,3,2,3,60,0,0
19951,-100,3,2,3,60,0,0
20437,-100,3,2,3,60,0,0
22707,-100,3,2,3,60,0,0
23356,-100,3,2,3,60,0,0
25626,-100,3,2,3,60,0,0
26761,-100,3,2,3,70,0,0
27086,-100,3,2,4,70,0,0
27734,-100,3,2,3,70,0,0
28221,-100,3,2,3,70,0,0
38113,-100,3,2,4,70,0,0
38437,-100,3,2,3,70,0,0
39896,-100,3,2,4,70,0,0
40221,-100,3,2,3,70,0,0
42978,-100,3,2,4,70,0,0
43140,-100,3,2,3,70,0,0
43788,-100,3,2,4,70,0,0
45574,-100,3,2,4,70,0,0
45734,-100,3,2,3,60,0,0
46383,-100,3,2,3,75,0,0
48817,-100,3,2,3,80,0,1
50113,-100,3,2,3,80,0,1
50437,-100,3,2,3,80,0,1
51248,-100,3,2,3,80,0,1
51410,-100,3,2,3,80,0,1
53518,-100,3,2,4,80,0,1
53680,-100,3,2,3,80,0,1
57896,-100,3,2,3,80,0,1
58223,-100,3,2,2,80,0,0
58302,-100,3,2,2,5,0,0
58383,-100,3,2,2,80,0,0
58464,-100,3,2,2,5,0,0
58545,-100,3,2,3,80,0,0
59032,-100,3,2,4,80,0,0
59196,-100,3,2,3,80,0,1
60491,-100,3,2,3,80,0,1
60815,-100,3,2,3,80,0,1
61788,-100,3,2,3,80,0,1
62599,-100,3,2,3,80,0,1
62842,-100,3,2,3,80,0,1
63167,-100,3,2,3,80,0,1
63491,-100,3,2,3,80,0,1
63896,-100,3,2,3,80,0,1
68275,-100,3,2,3,80,0,1
69248,-100,3,2,4,80,0,1
69736,-100,3,2,3,75,0,0
70707,-100,3,2,5,75,0,0
70869,-100,3,2,3,75,0,0
74924,-100,3,2,3,70,0,0
75896,-100,3,2,3,70,0,0
77356,-100,3,2,4,70,0,0
78815,-100,3,2,4,5,0,0
78978,-100,3,2,1,70,0,0
79951,-100,3,2,1,75,0,0
83842,-100,3,2,1,75,0,0
84815,-100,3,2,2,75,0,0
85140,-100,3,2,1,70,0,0
85142,-100,3,2,1,70,0,0
85466,-158.730158730159,3,2,1,65,0,0
85790,-158.730158730159,3,2,1,60,0,0
86115,-158.730158730159,3,2,1,55,0,0
86439,-158.730158730159,3,2,1,50,0,0
86763,-158.730158730159,3,2,1,45,0,0
87088,-158.730158730159,3,2,1,40,0,0
87250,-158.730158730159,3,2,1,35,0,0

[Colours]
Combo1 : 157,157,157
Combo2 : 130,192,255
Combo3 : 0,120,240

[HitObjects]
8,361,2278,6,0,P|47:330|96:328,1,99.9999999999999,10|2,2:2|1:2,0:0:0:0:
141,350,2764,1,10,2:2:0:0:
223,293,3088,1,2,1:2:0:0:
223,293,3250,2,1,P|211:232|204:171,1,99.9999999999999,10|0,2:2|1:1,0:0:0:0:
217,145,3737,1,10,2:2:0:0:
289,76,4061,1,2,1:2:0:0:
289,76,4223,6,0,P|300:17|303:-14,2,74.9999999999999,8|8|8,2:2|2:2|2:2,0:0:0:0:
506,199,5520,6,0,B|468:180|468:180|411:190,1,99.9999999999999,4|10,1:2|2:2,0:0:0:0:
367,213,6006,1,2,2:2:0:0:
291,278,6331,1,2,1:2:0:0:
201,233,6655,2,0,P|187:281|176:329,1,99.9999999999999,2|2,1:2|1:2,0:0:0:0:
81,351,7304,1,10,2:2:0:0:
81,351,7466,2,0,P|55:359|21:363,2,50,2|2|8,1:2|1:2|2:2,0:0:0:0:
73,301,7952,6,1,P|48:257|61:199,1,99.9999999999999,2|2,1:2|1:2,0:0:0:0:
90,174,8439,1,10,2:2:0:0:
160,103,8763,2,0,P|194:112|221:116,1,50,2|0,1:2|1:1,0:0:0:0:
256,127,9087,1,10,2:2:0:0:
256,127,9250,2,0,P|332:68|391:90,1,150,2|10,1:2|2:2,0:0:0:0:
455,141,10060,2,0,P|464:199|472:255,1,99.9999999999999,10|0,2:2|1:1,0:0:0:0:
475,289,10547,1,10,2:2:0:0:
475,289,10709,5,0,1:1:0:0:
398,353,11033,1,10,2:2:0:0:
398,353,11195,2,0,P|362:344|336:342,1,50,2|0,2:2|1:1,0:0:0:0:
298,341,11520,1,2,1:2:0:0:
212,289,11844,2,0,B|192:251|192:251|212:196,1,99.9999999999999,2|2,1:2|1:2,0:0:0:0:
276,121,12493,1,10,2:2:0:0:
276,121,12655,2,0,P|309:114|335:108,2,50,2|2|8,1:2|1:2|2:2,0:0:0:0:
239,87,13141,6,1,P|192:52|140:57,1,99.9999999999999,2|2,1:2|1:2,0:0:0:0:
107,75,13628,1,10,2:2:0:0:
26,133,13952,2,0,P|35:167|39:197,1,50,10|0,2:2|1:1,0:0:0:0:
35,231,14277,1,10,2:2:0:0:
35,231,14439,2,0,B|92:234|71:259|135:267,1,99.9999999999999,6|8,1:2|2:2,0:0:0:0:
173,247,14925,1,10,2:2:0:0:
268,209,15250,1,2,1:2:0:0:
268,209,15412,2,0,P|295:250|292:299,1,99.9999999999999,10|10,2:2|2:2,0:0:0:0:
267,342,15898,5,4,1:2:0:0:
19,177,17845,5,0,1:1:0:0:
6,77,18169,1,2,1:2:0:0:
98,40,18493,1,2,1:2:0:0:
192,87,18817,1,2,1:2:0:0:
192,87,18980,2,0,P|186:147|178:194,1,99.9999999999999,2|2,2:2|2:2,0:0:0:0:
143,220,19466,1,2,1:2:0:0:
124,321,19790,1,2,1:2:0:0:
124,321,19953,2,0,P|165:347|214:343,1,99.9999999999999,2|2,2:2|2:2,0:0:0:0:
262,327,20439,5,2,1:2:0:0:
346,275,20763,1,2,1:2:0:0:
346,275,20926,1,2,2:2:0:0:
429,330,21250,2,0,P|455:323|480:322,1,50,2|2,2:2|1:2,0:0:0:0:
501,277,21574,2,0,P|475:236|478:187,1,99.9999999999999,2|0,2:2|0:0,0:0:0:0:
494,139,22061,1,2,1:2:0:0:
424,67,22385,1,2,1:2:0:0:
329,100,22709,6,0,P|279:91|230:81,1,99.9999999999999,2|0,1:2|1:1,0:0:0:0:
200,48,23196,1,2,2:2:0:0:
200,48,23358,1,2,1:2:0:0:
105,38,23682,1,2,1:2:0:0:
105,38,23844,2,0,P|85:83|93:131,1,99.9999999999999,2|2,2:2|2:2,0:0:0:0:
134,159,24331,1,2,1:2:0:0:
237,149,24655,1,2,1:2:0:0:
237,149,24817,2,0,P|229:210|222:258,1,99.9999999999999,2|2,2:2|2:2,0:0:0:0:
212,297,25304,1,2,1:2:0:0:
311,303,25628,6,0,P|338:279|375:272,2,74.9999999999999,2|2|2,1:2|2:2|2:2,0:0:0:0:
303,353,26277,1,2,1:2:0:0:
213,308,26601,1,2,1:2:0:0:
213,308,26763,2,1,P|171:317|114:333,1,99.9999999999999,14|8,2:2|2:2,0:0:0:0:
66,324,27250,2,0,P|52:302|49:278,1,50,10|8,2:2|2:2,0:0:0:0:
65,233,27574,1,2,1:2:0:0:
65,233,27736,1,10,2:2:0:0:
31,86,28223,6,0,B|92:72|92:72|113:91|147:94,1,99.9999999999999,0|10,1:1|2:2,0:0:0:0:
216,141,28872,1,2,1:2:0:0:
216,141,29034,2,0,P|228:75|236:31,1,99.9999999999999,2|10,1:2|2:2,0:0:0:0:
266,4,29520,1,2,2:2:0:0:
352,54,29844,2,0,P|386:47|415:45,1,50,8|2,2:2|1:2,0:0:0:0:
451,48,30169,1,2,1:2:0:0:
451,48,30331,1,2,1:2:0:0:
496,136,30655,6,0,B|517:175|517:175|500:238,1,99.9999999999999,10|2,2:2|1:2,0:0:0:0:
481,274,31142,1,10,2:2:0:0:
391,243,31466,1,2,1:2:0:0:
391,243,31628,1,2,1:2:0:0:
329,321,31953,6,0,P|293:287|286:238,1,99.9999999999999,10|2,2:2|1:2,0:0:0:0:
298,190,32439,1,10,2:2:0:0:
241,107,32763,2,0,P|207:100|187:98,1,50,2|0,1:2|1:1,0:0:0:0:
152,66,33088,2,0,B|120:71|120:71|98:90|98:90|54:97,1,99.9999999999999,10|0,2:2|1:1,0:0:0:0:
10,104,33574,1,2,2:2:0:0:
10,104,33736,1,10,2:2:0:0:
65,187,34061,1,2,1:2:0:0:
65,187,34223,2,0,B|93:226|93:226|65:283,1,99.9999999999999,2|10,1:2|2:2,0:0:0:0:
42,314,34709,5,2,2:2:0:0:
123,371,35034,1,10,2:2:0:0:
122,371,35196,2,0,P|164:344|214:341,1,99.9999999999999,2|2,1:2|1:2,0:0:0:0:
260,359,35682,1,2,2:2:0:0:
332,289,36007,1,2,2:2:0:0:
332,289,36169,2,0,P|321:219|318:186,1,99.9999999999999,2|2,1:2|1:2,0:0:0:0:
341,145,36655,1,2,1:2:0:0:
318,52,36980,1,2,2:2:0:0:
318,52,37142,6,0,P|356:21|405:21,1,99.9999999999999,10|0,2:2|1:1,0:0:0:0:
450,42,37628,1,14,2:2:0:0:
499,129,37953,2,0,P|474:131|450:138,1,50,2|8,1:2|2:2,0:0:0:0:
440,190,38277,1,10,2:2:0:0:
440,190,38439,2,1,B|462:231|462:231|446:286,1,99.9999999999999,14|0,2:2|1:1,0:0:0:0:
422,326,38926,1,8,2:2:0:0:
330,286,39250,1,0,1:1:0:0:
250,346,39574,1,10,2:2:0:0:
150,335,39899,6,0,P|138:288|170:232,1,99.9999999999999,10|10,2:2|2:2,0:0:0:0:
198,212,40385,1,2,1:2:0:0:
198,212,40547,1,2,1:2:0:0:
280,153,40872,1,10,2:2:0:0:
280,153,41034,2,0,P|272:92|266:47,1,99.9999999999999,2|2,1:2|1:2,0:0:0:0:
239,12,41520,1,8,2:2:0:0:
157,69,41844,1,0,1:1:0:0:
65,28,42169,2,0,P|53:62|52:83,1,50,8|2,2:2|1:2,0:0:0:0:
40,124,42493,5,2,2:2:0:0:
130,165,42817,2,0,P|126:189|116:212,1,50,10|10,2:2|2:2,0:0:0:0:
113,262,43142,2,0,P|169:240|220:257,1,99.9999999999999,10|0,2:2|1:1,0:0:0:0:
239,285,43628,1,2,1:2:0:0:
239,285,43790,1,4,2:2:0:0:
467,297,45574,6,0,P|474:325|480:347,2,50,10|8|2,2:2|2:2|1:2,0:0:0:0:
455,253,46061,1,10,2:2:0:0:
362,291,46384,6,0,P|319:259|272:261,1,99.9999999999999,12|2,2:2|1:2,0:0:0:0:
232,284,46871,1,12,2:2:0:0:
232,284,47033,2,0,P|226:259|221:235,1,50,2|2,1:2|1:2,0:0:0:0:
197,197,47358,1,14,2:2:0:0:
197,197,47519,1,2,1:2:0:0:
108,152,47844,2,0,P|68:147|40:142,1,50,8|8,2:2|2:2,0:0:0:0:
282,34,48817,6,0,P|318:66|372:61,1,99.9999999999999,14|2,1:2|1:2,0:0:0:0:
409,36,49304,1,8,2:2:0:0:
481,104,49628,2,0,P|492:147|496:171,1,50,2|2,1:2|1:2,0:0:0:0:
485,202,49953,1,10,2:2:0:0:
485,202,50115,2,0,P|449:170|395:175,1,99.9999999999999,2|2,1:2|1:2,0:0:0:0:
356,197,50601,1,8,0:0:0:0:
317,289,50926,2,0,P|354:298|384:302,2,50,2|2|10,1:2|1:2|2:2,0:0:0:0:
274,314,51412,6,1,B|234:338|234:338|159:324,1,99.9999999999999,2|2,1:2|1:2,0:0:0:0:
131,322,51899,1,10,2:2:0:0:
39,281,52223,2,0,P|44:237|50:215,1,50,2|2,1:2|1:2,0:0:0:0:
68,187,52547,1,10,2:2:0:0:
68,187,52709,2,0,P|116:200|159:176,1,99.9999999999999,2|2,1:2|1:2,0:0:0:0:
187,136,53196,1,10,2:2:0:0:
222,42,53520,2,0,P|271:50|318:65,1,99.9999999999999,6|8,1:2|2:2,0:0:0:0:
358,96,54007,1,10,2:2:0:0:
457,128,54331,5,2,2:2:0:0:
457,128,54493,2,0,P|449:172|434:192,1,50,10|2,2:2|1:2,0:0:0:0:
403,201,54817,2,0,P|435:237|433:286,1,99.9999999999999,2|10,1:2|2:2,0:0:0:0:
409,330,55304,1,2,1:2:0:0:
309,329,55628,2,0,P|313:362|319:393,2,50,2|10|2,1:2|2:2|1:2,0:0:0:0:
262,311,56115,2,0,P|242:273|251:219,1,99.9999999999999,2|10,1:2|2:2,0:0:0:0:
279,177,56601,1,2,1:2:0:0:
253,80,56926,5,2,1:2:0:0:
253,80,57088,2,0,P|220:65|203:65,1,50,10|0,2:2|1:1,0:0:0:0:
156,69,57412,1,10,2:2:0:0:
60,99,57736,1,10,2:2:0:0:
60,99,57899,2,0,B|33:139|33:139|46:202,1,99.9999999999999,14|8,2:2|2:2,0:0:0:0:
63,235,58385,1,8,2:2:0:0:
154,275,58709,2,0,P|190:269|210:266,1,50,10|2,2:2|1:2,0:0:0:0:
251,251,59034,1,10,2:2:0:0:
251,251,59196,1,6,1:2:0:0:
336,302,59520,5,2,1:2:0:0:
430,269,59844,2,0,L|438:318,2,50,2|2|2,1:2|1:2|1:2,0:0:0:0:
448,222,60331,1,10,2:2:0:0:
448,222,60493,1,2,1:2:0:0:
385,143,60817,1,2,1:2:0:0:
444,63,61142,1,2,1:2:0:0:
444,63,61304,2,0,P|399:41|350:47,1,99.9999999999999,2|10,1:2|2:2,0:0:0:0:
307,71,61790,1,6,1:2:0:0:
231,136,62115,5,2,1:2:0:0:
231,136,62277,1,10,2:2:0:0:
305,202,62601,1,2,1:2:0:0:
286,300,62926,1,10,2:2:0:0:
196,344,63250,1,14,2:2:0:0:
104,304,63574,2,0,P|96:268|93:237,1,50,10|0,2:2|1:1,0:0:0:0:
122,213,63899,2,0,P|130:177|133:146,1,50,10|10,2:2|2:2,0:0:0:0:
98,135,64223,1,10,2:2:0:0:
98,135,64385,6,1,P|146:98|197:107,1,99.9999999999999,6|2,1:2|1:2,0:0:0:0:
232,92,64872,1,10,2:2:0:0:
319,140,65196,2,0,P|325:174|333:209,1,50,2|2,1:2|1:2,0:0:0:0:
333,238,65520,1,10,2:2:0:0:
275,320,65844,1,2,1:2:0:0:
275,320,66007,1,2,1:2:0:0:
370,364,66331,1,2,1:2:0:0:
370,364,66493,2,0,P|418:339|469:359,1,99.9999999999999,2|10,2:2|2:2,0:0:0:0:
504,325,66980,1,10,2:2:0:0:
504,325,67142,6,0,P|493:289|489:267,1,50,6|2,1:2|1:2,0:0:0:0:
449,248,67466,1,10,2:2:0:0:
454,148,67790,2,0,P|478:145|503:147,2,50,10|2|10,2:2|1:2|2:2,0:0:0:0:
414,116,68277,1,6,1:2:0:0:
319,149,68601,1,10,1:2:0:0:
243,83,68926,2,0,B|208:59|208:59|136:74,1,99.9999999999999,10|10,2:2|2:2,0:0:0:0:
109,96,69412,1,8,2:2:0:0:
48,175,69736,6,0,P|62:226|69:280,1,99.9999999999999,12|0,2:2|1:1,0:0:0:0:
137,352,70385,1,2,2:2:0:0:
137,352,70547,1,2,1:2:0:0:
225,305,70872,2,0,P|258:292|324:324,1,99.9999999999999,2|12,2:2|2:2,0:0:0:0:
344,354,71358,1,2,0:0:0:0:
433,309,71682,1,10,2:2:0:0:
433,309,71844,2,0,B|465:314|465:314|469:317|469:317|481:319,2,50,10|8|10,2:2|2:2|2:2,0:0:0:0:
414,262,72331,6,0,P|421:208|429:159,1,99.9999999999999,4|2,1:2|1:2,0:0:0:0:
432,117,72817,1,10,2:2:0:0:
432,117,72980,1,2,2:2:0:0:
362,53,73304,1,10,2:2:0:0:
362,53,73466,2,0,P|325:90|267:81,1,99.9999999999999,6|2,1:2|1:2,0:0:0:0:
207,28,74115,1,10,2:2:0:0:
207,28,74277,1,10,2:2:0:0:
123,82,74601,2,0,L|134:143,1,50,8|2,2:2|2:2,0:0:0:0:
119,179,74926,5,14,2:2:0:0:
215,222,75250,1,2,1:2:0:0:
215,222,75412,2,0,P|206:272|199:327,1,99.9999999999999,14|2,2:2|1:2,0:0:0:0:
184,368,75899,2,0,P|256:333|333:343,1,150,14|10,2:2|2:2,0:0:0:0:
370,358,76547,1,2,1:2:0:0:
448,295,76872,2,0,P|450:250|451:230,1,50,8|2,2:2|1:2,0:0:0:0:
473,203,77196,1,8,2:2:0:0:
473,203,77358,1,6,1:2:0:0:
36,54,78980,5,8,2:2:0:0:
36,54,79142,1,8,2:2:0:0:
116,113,79466,1,8,2:2:0:0:
116,113,79628,1,8,2:2:0:0:
192,47,79953,2,0,P|243:23|306:37,1,99.9999999999999,4|0,1:2|0:0,0:0:0:0:
329,50,80439,1,10,2:2:0:0:
329,50,80601,1,2,2:2:0:0:
301,146,80926,1,2,1:2:0:0:
388,194,81250,6,0,B|429:182|429:182|491:208,1,99.9999999999999,2|2,1:2|1:2,0:0:0:0:
472,307,81899,1,10,2:2:0:0:
472,307,82061,2,0,P|481:349|486:375,2,50,2|2|8,1:2|1:2|2:2,0:0:0:0:
428,282,82547,2,0,P|392:316|335:316,1,99.9999999999999,2|2,1:2|1:2,0:0:0:0:
304,287,83034,1,10,2:2:0:0:
220,341,83358,2,0,P|176:335|163:331,1,50,10|0,2:2|1:1,0:0:0:0:
131,302,83682,1,10,2:2:0:0:
131,302,83844,1,6,1:2:0:0:
169,209,84169,5,8,2:2:0:0:
169,209,84331,2,0,P|156:168|156:149,1,50,10|10,2:2|2:2,0:0:0:0:
169,113,84655,2,0,P|126:78|66:97,1,99.9999999999999,2|8,1:2|2:2,0:0:0:0:
41,109,85142,1,6,1:2:0:0:
256,192,85304,12,0,87250,0:0:0:0:
