osu file format v14

[General]
AudioFilename: audio.mp3
AudioLeadIn: 0
PreviewTime: 48086
Countdown: 0
SampleSet: Soft
StackLeniency: 0.3
Mode: 0
LetterboxInBreaks: 0
WidescreenStoryboard: 1

[Editor]
Bookmarks: 5520,17842,28221,38437,48815
DistanceSpacing: 0.3
BeatDivisor: 8
GridSize: 32
TimelineZoom: 2.100001

[Metadata]
Title:Kaikai Kitan (TV Size)
TitleUnicode:廻廻奇譚 (TV Size)
Artist:Eve
ArtistUnicode:Eve
Creator:- Nilou -
Version:Mizujin's Insane
Source:呪術廻戦
Tags:jrock j-rock rock j-pop pop jpop utaite male japanese anime op opening jujutsu kaisen vanya2 crysisters mizujin -_aqua aqua_m1x amats syndicate ayyri eiri- annabel
BeatmapID:4225695
BeatmapSetID:2020645

[Difficulty]
HPDrainRate:5
CircleSize:3.6
OverallDifficulty:8
ApproachRate:9
SliderMultiplier:1.6
SliderTickRate:1

[Events]
//Background and Video events
0,0,"sukuna-jujutsu-kaisen-4k-wallpaper-3840x2160-uhdpaper.com-317.1_a.jpg",0,0
Video,-556,"video.mp4"
//Break Periods
//Storyboard Layer 0 (Background)
//Storyboard Layer 1 (Fail)
//Storyboard Layer 2 (Pass)
//Storyboard Layer 3 (Foreground)
//Storyboard Layer 4 (Overlay)
//Storyboard Sound Samples

[TimingPoints]
2278,324.324324324324,3,2,1,70,1,0
2278,-93.4579439252336,3,2,1,70,0,0
4223,324.324324324324,4,2,1,70,1,0
4223,-93.4579439252336,3,2,1,70,0,0
5520,-93.4579439252336,3,2,1,75,0,0
5763,-100,3,2,1,5,0,0
5844,-93.4579439252336,3,2,1,75,0,0
7952,-93.4579439252336,3,2,1,75,0,0
10951,-100,3,2,1,5,0,0
11033,-93.4579439252336,3,2,1,75,0,0
15411,-93.4579439252336,3,2,2,75,0,0
15897,-588.235294117647,3,2,3,75,0,0
17842,-588.235294117647,3,2,3,80,0,0
17845,324.324324324324,4,2,3,60,1,0
18169,-149.253731343284,3,2,3,60,0,0
26763,-93.4579439252336,3,2,3,70,0,0
27088,-93.4579439252336,3,2,4,70,0,0
27736,-93.4579439252336,3,2,3,70,0,0
28223,-114.942528735632,3,2,3,70,0,0
38115,-114.942528735632,3,2,4,70,0,0
38439,-129.87012987013,3,2,3,70,0,0
39898,-129.87012987013,3,2,4,70,0,0
40223,-129.87012987013,3,2,3,70,0,0
42980,-129.87012987013,3,2,4,70,0,0
43142,-129.87012987013,3,2,3,70,0,0
43790,-93.4579439252336,3,2,4,70,0,0
45736,-93.4579439252336,3,2,3,60,0,0
46385,-93.4579439252336,3,2,3,75,0,0
47926,-100,3,2,3,5,0,0
48007,-93.4579439252336,3,2,3,75,0,0
48817,-85.4700854700855,3,2,3,80,0,1
53520,-85.4700854700855,3,2,4,80,0,1
53682,-85.4700854700855,3,2,3,80,0,1
57817,-100,3,2,3,5,0,1
57899,-85.4700854700855,3,2,3,80,0,0
58223,-85.4700854700855,3,2,2,80,0,0
58547,-85.4700854700855,3,2,3,80,0,0
59034,-85.4700854700855,3,2,4,80,0,0
59196,-85.4700854700855,3,2,3,80,0,1
68196,-100,3,2,3,5,0,1
68277,-85.4700854700855,3,2,3,80,0,1
69250,-85.4700854700855,3,2,4,80,0,1
69736,-85.4700854700855,3,2,3,75,0,0
70709,-85.4700854700855,3,2,5,75,0,0
70871,-85.4700854700855,3,2,3,75,0,0
74926,-85.4700854700855,3,2,3,70,0,0
77358,-588.235294117647,3,2,4,70,0,0
78817,-100,3,2,4,5,0,0
78980,-93.4579439252336,3,2,1,70,0,0
79953,-93.4579439252336,3,2,1,75,0,0
84817,-93.4579439252336,3,2,2,75,0,0
85142,-588.235294117647,3,2,1,70,0,0
85466,-588.235294117647,3,2,1,65,0,0
85790,-588.235294117647,3,2,1,60,0,0
86115,-588.235294117647,3,2,1,55,0,0
86439,-588.235294117647,3,2,1,50,0,0
86763,-588.235294117647,3,2,1,45,0,0
87088,-588.235294117647,3,2,1,40,0,0
87250,-588.235294117647,3,2,1,35,0,0

[Colours]
Combo1 : 157,157,157
Combo2 : 130,192,255
Combo3 : 0,120,240

[HitObjects]
512,22,2278,5,10,2:2:0:0:
384,162,2440,1,2,1:2:0:0:
305,39,2602,1,2,1:2:0:0:
390,0,2764,6,0,B|393:13|393:13|372:82,1,85.5999973876954,10|0,2:2|1:1,0:0:0:0:
277,243,3088,1,2,1:2:0:0:
195,202,3250,6,0,B|125:217|125:217|116:252|116:252|54:267,1,171.199994775391,10|0,2:2|1:1,0:0:0:0:
218,120,3737,1,10,2:2:0:0:
277,243,3899,1,2,2:2:0:0:
207,282,4061,1,2,1:2:0:0:
306,127,4223,5,8,2:2:0:0:
421,291,4466,5,8,2:2:0:0:
512,153,4709,5,8,2:2:0:0:
512,153,5520,6,0,B|448:171|455:179|392:198,1,128.399996081543,4|0,1:2|0:0,0:0:0:0:
365,194,5844,2,0,B|343:157|343:157|358:116,1,85.5999973876954,10|2,2:2|2:2,0:0:0:0:
504,245,6168,1,0,1:1:0:0:
459,312,6331,2,0,B|418:321|418:321|416:324|416:324|377:333,1,85.5999973876954,2|8,1:2|2:2,0:0:0:0:
211,376,6655,5,2,1:2:0:0:
211,376,6979,1,2,1:2:0:0:
156,318,7141,2,0,B|152:307|152:307|179:238,1,85.5999973876954,8|10,2:2|2:2,0:0:0:0:
205,205,7385,1,10,2:2:0:0:
205,205,7466,1,2,1:2:0:0:
267,255,7628,1,2,1:2:0:0:
105,379,7790,1,8,2:2:0:0:
41,325,7952,6,0,B|21:242|21:242|17:240|17:240|0:161,1,171.199994775391,2|2,1:2|1:2,0:0:0:0:
86,23,8438,2,0,P|127:16|160:41,1,85.5999973876954,10|10,2:2|2:2,0:0:0:0:
178,78,8681,1,10,2:2:0:0:
178,78,8762,1,2,1:2:0:0:
131,143,8924,1,0,1:1:0:0:
219,260,9087,1,10,2:2:0:0:
298,214,9249,6,0,B|393:229|338:288|432:307,1,171.199994775391,2|2,1:2|1:2,0:0:0:0:
512,198,9735,1,10,2:2:0:0:
441,305,9897,1,2,1:2:0:0:
359,151,10060,6,0,B|357:142|357:142|382:69,1,85.5999973876954,10|10,2:2|1:2,0:0:0:0:
439,13,10303,1,8,1:2:0:0:
439,13,10384,2,0,P|459:8|480:3,1,42.7999986938477,0|0,1:1|1:1,0:0:0:0:
380,64,10546,2,0,P|359:59|338:54,1,42.7999986938477,10|8,2:2|2:2,0:0:0:0:
237,10,10708,6,0,P|177:11|164:69,1,128.399996081543,0|0,1:1|0:0,0:0:0:0:
173,95,11033,2,0,B|214:104|214:104|216:107|216:107|255:116,1,85.5999973876954,10|2,2:2|2:2,0:0:0:0:
392,234,11357,1,0,1:1:0:0:
338,292,11519,2,0,B|297:301|297:301|295:304|295:304|256:313,1,85.5999973876954,2|8,1:2|2:2,0:0:0:0:
52,378,11843,5,2,1:2:0:0:
52,378,12168,1,2,1:2:0:0:
107,320,12330,2,0,L|92:235,1,85.5999973876954,8|10,2:2|2:2,0:0:0:0:
71,204,12573,1,10,2:2:0:0:
71,204,12654,1,2,1:2:0:0:
121,141,12816,1,2,1:2:0:0:
0,315,12979,1,8,2:2:0:0:
52,378,13141,6,0,P|136:361|220:349,1,171.199994775391,2|2,1:2|1:2,0:0:0:0:
392,234,13627,1,10,2:2:0:0:
392,234,13789,1,2,1:2:0:0:
313,297,13951,1,10,2:2:0:0:
236,194,14114,1,0,1:1:0:0:
413,328,14276,1,10,2:2:0:0:
478,268,14438,6,0,B|517:145|517:145|490:112,1,171.199994775391,6|8,1:2|2:2,0:0:0:0:
345,7,14924,1,10,2:2:0:0:
299,70,15087,1,10,2:2:0:0:
301,82,15168,1,10,2:2:0:0:
303,95,15249,1,2,1:2:0:0:
240,272,15411,6,0,L|197:279,2,42.7999986938477,10|8|8,2:2|2:2|2:2,0:0:0:0:
338,200,15735,6,0,L|380:207,1,42.7999986938477,10|0,2:2|0:0,0:0:0:0:
462,204,15897,6,0,B|499:183|499:183|380:206,1,163.200000996094,4|0,1:2|1:1,0:0:0:0:
192,355,18169,6,0,P|141:347|122:300,2,107.199994929199,2|2|2,1:2|1:2|1:2,0:0:0:0:
310,378,18980,2,0,P|335:371|361:366,1,53.5999974645997,2|0,2:2|1:1,0:0:0:0:
416,308,19304,5,2,2:2:0:0:
343,274,19466,2,0,P|317:281|291:286,1,53.5999974645997,2|2,1:2|2:2,0:0:0:0:
477,362,19790,5,2,1:2:0:0:
512,290,19953,2,0,L|502:237,1,53.5999974645997,2|0,2:2|1:1,0:0:0:0:
445,181,20277,5,2,2:2:0:0:
494,117,20439,2,0,L|503:64,1,53.5999974645997,2|0,1:2|0:0,0:0:0:0:
381,0,20763,5,2,1:2:0:0:
323,56,20926,2,0,B|297:66|297:66|271:57,1,53.5999974645997,2|0,2:2|1:1,0:0:0:0:
207,20,21250,5,2,2:2:0:0:
207,20,21412,1,2,1:2:0:0:
94,158,21574,5,2,2:2:0:0:
36,102,21736,2,0,B|31:89|31:89|55:0,2,107.199994929199,0|2|2,1:1|1:2|1:2,0:0:0:0:
290,286,22709,6,0,B|345:271|335:261|389:245,1,107.199994929199,2|0,1:2|1:1,0:0:0:0:
512,284,23196,5,2,2:2:0:0:
453,338,23358,2,0,P|427:330|401:324,1,53.5999974645997,2|0,1:2|0:0,0:0:0:0:
388,245,23682,5,2,1:2:0:0:
447,191,23844,2,0,P|472:198|498:204,1,53.5999974645997,2|0,2:2|1:1,0:0:0:0:
402,118,24169,5,2,2:2:0:0:
338,167,24331,2,0,B|330:169|330:169|285:159,1,53.5999974645997,2|0,1:2|0:0,0:0:0:0:
212,192,24655,5,2,1:2:0:0:
148,143,24817,2,0,B|140:141|140:141|95:151,1,53.5999974645997,2|0,2:2|1:1,0:0:0:0:
0,288,25142,5,2,2:2:0:0:
56,232,25304,1,2,1:2:0:0:
0,175,25466,1,2,2:2:0:0:
78,309,25628,6,0,B|116:317|116:317|118:321|118:321|155:329,2,80.3999961968996,2|2|2,1:2|2:2|2:2,0:0:0:0:
210,380,26277,2,0,B|262:367|262:367|263:363|263:363|310:352,1,107.199994929199,2|2,1:2|1:2,0:0:0:0:
512,353,26763,6,0,P|436:332|445:254,1,171.199994775391,14|8,2:2|2:2,0:0:0:0:
486,239,27169,1,8,2:2:0:0:
486,239,27250,1,10,2:2:0:0:
381,381,27412,1,8,2:2:0:0:
265,197,27574,5,2,1:2:0:0:
265,197,27736,1,10,2:2:0:0:
265,197,28223,6,0,P|231:187|197:180,1,69.6000005841065,0|2,1:1|2:2,0:0:0:0:
345,123,28547,2,0,P|379:115|412:106,1,69.6000005841065,10|0,2:2|0:0,0:0:0:0:
446,104,28790,1,0,0:0:0:0:
446,104,28871,5,2,1:2:0:0:
294,2,29034,2,0,P|267:23|265:57,1,69.6000005841065,2|0,1:2|0:0,0:0:0:0:
350,204,29358,1,10,2:2:0:0:
232,348,29520,6,0,B|197:340|197:340|196:336|196:336|166:329,1,69.6000005841065,2|0,2:2|1:1,0:0:0:0:
128,262,29763,6,0,B|93:269|93:269|92:273|92:273|62:280,1,69.6000005841065,2|0,2:2|0:0,0:0:0:0:
0,327,30007,1,2,1:2:0:0:
0,327,30088,1,0,1:1:0:0:
0,327,30169,5,2,1:2:0:0:
126,162,30331,1,2,1:2:0:0:
126,162,30655,6,0,B|201:173|163:215|242:228,1,139.200001168213,10|2,2:2|1:2,0:0:0:0:
383,126,31142,2,0,P|349:118|322:138,1,69.6000005841065,10|2,2:2|1:2,0:0:0:0:
311,172,31385,1,0,1:1:0:0:
311,172,31466,5,2,1:2:0:0:
399,321,31628,1,2,1:2:0:0:
399,321,31953,6,0,B|343:333|343:333|333:360|333:360|281:372,1,139.200001168213,10|2,2:2|1:2,0:0:0:0:
129,310,32439,2,0,L|116:241,1,69.6000005841065,10|0,2:2|1:1,0:0:0:0:
114,214,32682,1,0,1:1:0:0:
114,214,32763,5,2,1:2:0:0:
234,81,32926,1,0,1:1:0:0:
189,168,33088,1,10,2:2:0:0:
117,132,33250,1,0,0:0:0:0:
260,0,33412,6,0,B|269:-4|269:-4|326:11,1,69.6000005841065,0|2,1:1|2:2,0:0:0:0:
412,128,33736,2,0,B|421:132|421:132|478:117,1,69.6000005841065,10|0,2:2|1:1,0:0:0:0:
512,108,33980,1,0,1:1:0:0:
512,108,34061,5,2,1:2:0:0:
393,242,34223,2,0,L|380:310,1,69.6000005841065,2|0,1:2|0:0,0:0:0:0:
512,223,34547,1,10,2:2:0:0:
322,119,34709,6,0,P|288:126|253:133,1,69.6000005841065,2|0,2:2|1:1,0:0:0:0:
150,273,35034,2,0,P|183:265|217:258,1,69.6000005841065,10|2,2:2|1:2,0:0:0:0:
254,258,35277,1,0,1:1:0:0:
254,258,35358,1,0,1:1:0:0:
130,377,35520,5,2,1:2:0:0:
62,335,35682,2,0,P|42:307|47:273,1,69.6000005841065,2|8,2:2|2:2,0:0:0:0:
195,87,36007,5,2,2:2:0:0:
160,158,36169,2,0,P|134:180|100:179,1,69.6000005841065,2|8,1:2|2:2,0:0:0:0:
0,110,36493,1,2,1:2:0:0:
0,110,36574,1,0,1:1:0:0:
0,110,36655,5,2,1:2:0:0:
54,18,36817,1,2,1:2:0:0:
114,71,36980,1,2,2:2:0:0:
260,0,37142,6,0,B|334:14|294:54|372:71,1,139.200001168213,10|0,2:2|1:1,0:0:0:0:
512,38,37628,1,14,2:2:0:0:
441,0,37790,1,10,2:2:0:0:
430,1,37871,1,8,2:2:0:0:
420,3,37952,5,2,1:2:0:0:
373,71,38115,5,8,2:2:0:0:
436,138,38277,5,10,2:2:0:0:
327,264,38439,6,0,P|266:277|207:293,1,123.199997556152,14|0,2:2|1:1,0:0:0:0:
136,256,38926,2,0,P|119:230|124:200,1,61.5999987780762,8|0,2:2|1:1,0:0:0:0:
152,184,39169,1,0,1:1:0:0:
152,184,39250,1,0,1:1:0:0:
84,322,39412,5,2,1:2:0:0:
155,360,39574,2,0,P|185:366|214:374,1,61.5999987780762,10|2,2:2|1:2,0:0:0:0:
337,323,39898,6,0,B|339:316|339:316|326:263,1,61.5999987780762,10|0,2:2|1:1,0:0:0:0:
278,190,40223,2,0,B|275:183|275:183|288:130,1,61.5999987780762,10|2,2:2|1:2,0:0:0:0:
314,106,40466,1,0,1:1:0:0:
314,106,40547,6,0,P|339:89|369:95,1,61.5999987780762,2|0,1:2|1:1,0:0:0:0:
431,146,40871,1,10,2:2:0:0:
253,20,41034,6,0,B|204:31|204:31|194:52|194:52|146:64,1,123.199997556152,2|2,1:2|1:2,0:0:0:0:
81,110,41520,2,0,L|20:99,1,61.5999987780762,8|0,2:2|1:1,0:0:0:0:
0,84,41763,1,0,1:1:0:0:
0,84,41844,1,0,1:1:0:0:
109,216,42007,5,2,1:2:0:0:
45,265,42169,1,8,2:2:0:0:
0,198,42331,1,2,1:2:0:0:
135,301,42493,6,0,P|165:307|194:314,1,61.5999987780762,2|0,2:2|1:1,0:0:0:0:
275,367,42817,2,0,P|304:359|334:353,1,61.5999987780762,10|10,2:2|2:2,0:0:0:0:
369,343,43061,1,8,2:2:0:0:
369,343,43142,5,10,2:2:0:0:
434,277,43304,5,0,1:1:0:0:
380,215,43466,5,0,1:1:0:0:
321,272,43628,5,2,1:2:0:0:
489,372,43790,5,4,2:2:0:0:
489,372,45574,1,10,2:2:0:0:
489,372,45655,1,8,2:2:0:0:
489,372,45736,5,8,2:2:0:0:
380,215,45898,1,2,1:2:0:0:
481,169,46061,5,10,2:2:0:0:
408,315,46223,1,2,1:2:0:0:
282,163,46385,5,12,2:2:0:0:
448,62,46547,1,2,1:2:0:0:
448,62,46709,1,2,1:2:0:0:
380,215,46871,5,12,2:2:0:0:
222,96,47034,1,2,1:2:0:0:
154,166,47196,1,2,1:2:0:0:
0,55,47358,5,14,2:2:0:0:
72,0,47520,1,2,1:2:0:0:
93,3,47601,1,2,3:2:0:0:
114,7,47682,1,2,3:2:0:0:
135,11,47763,1,2,3:2:0:0:
156,14,47844,6,0,L|198:21,1,42.7999986938477,8|0,2:2|0:0,0:0:0:0:
307,44,48007,1,8,2:2:0:0:
307,44,48817,6,0,B|311:53|311:53|269:225,1,187.200000714111,14|2,1:2|1:2,0:0:0:0:
143,367,49304,2,0,P|169:330|214:328,1,93.6000003570557,8|2,2:2|2:2,0:0:0:0:
254,350,49547,1,0,0:0:0:0:
254,350,49628,5,2,1:2:0:0:
316,297,49790,1,2,1:2:0:0:
185,165,49953,1,10,2:2:0:0:
116,218,50115,6,0,B|99:225|77:238|77:238|17:220|4:142|76:108,1,187.200000714111,2|2,1:2|1:2,0:0:0:0:
180,12,50601,2,0,P|225:23|270:35,1,93.6000003570557,8|2,2:2|1:2,0:0:0:0:
307,44,50844,1,8,2:2:0:0:
307,44,50926,5,2,1:2:0:0:
381,1,51088,1,2,1:2:0:0:
493,151,51250,1,10,2:2:0:0:
428,220,51412,6,0,B|323:238|382:297|276:316,1,187.200000714111,2|2,1:2|1:2,0:0:0:0:
142,187,51898,2,0,B|151:183|151:183|232:205,1,93.6000003570557,10|2,2:2|1:2,0:0:0:0:
263,229,52142,1,8,2:2:0:0:
263,229,52223,5,2,1:2:0:0:
322,164,52385,1,2,1:2:0:0:
177,298,52547,1,10,2:2:0:0:
101,247,52709,6,0,P|81:155|61:63,1,187.200000714111,2|2,1:2|1:2,0:0:0:0:
192,0,53196,2,0,P|181:45|172:91,1,93.6000003570557,10|0,2:2|1:1,0:0:0:0:
263,229,53520,6,0,P|305:243|342:217,1,93.6000003570557,6|10,1:2|2:2,0:0:0:0:
401,161,53763,1,8,2:2:0:0:
401,161,53844,6,0,L|392:114,1,46.8000001785278,8|8,2:2|2:2,0:0:0:0:
314,99,54007,2,0,L|322:146,1,46.8000001785278,10|8,2:2|2:2,0:0:0:0:
433,44,54169,6,0,P|408:6|363:4,1,93.6000003570557,0|2,1:1|2:2,0:0:0:0:
229,92,54493,2,0,P|184:97|153:64,1,93.6000003570557,10|2,2:2|1:2,0:0:0:0:
55,0,54817,5,2,1:2:0:0:
0,116,54980,1,0,1:1:0:0:
145,249,55142,1,10,2:2:0:0:
41,304,55304,6,0,B|37:286|37:286|87:124,1,187.200000714111,2|2,1:2|1:2,0:0:0:0:
244,216,55790,2,0,P|220:254|175:259,1,93.6000003570557,10|2,2:2|1:2,0:0:0:0:
145,249,56034,1,8,2:2:0:0:
145,249,56115,5,2,1:2:0:0:
177,170,56277,1,2,1:2:0:0:
303,332,56439,1,10,2:2:0:0:
386,270,56601,6,0,B|506:244|506:244|474:251|461:286,1,187.200000714111,2|2,1:2|1:2,0:0:0:0:
346,187,57088,2,0,P|322:149|344:109,1,93.6000003570557,10|0,2:2|1:1,0:0:0:0:
468,56,57412,2,0,P|491:93|469:133,1,93.6000003570557,10|0,2:2|1:1,0:0:0:0:
286,250,57736,6,0,P|263:244|240:239,1,46.8000001785278,10|0,2:2|0:0,0:0:0:0:
184,183,57899,2,0,P|138:193|92:203,1,93.6000003570557,14|0,2:2|0:0,0:0:0:0:
0,152,58223,5,8,2:2:0:0:
159,294,58385,1,8,2:2:0:0:
265,133,58547,5,10,2:2:0:0:
262,119,58628,1,8,2:2:0:0:
260,105,58709,1,10,2:2:0:0:
131,0,58871,5,2,1:2:0:0:
128,14,58952,1,8,2:2:0:0:
126,28,59034,1,10,2:2:0:0:
123,42,59115,1,8,2:2:0:0:
121,56,59196,6,0,B|102:101|34:126|-14:76|25:13|54:28,1,187.200000714111,6|2,1:2|1:2,0:0:0:0:
189,169,59682,2,0,B|192:175|192:175|168:258,1,93.6000003570557,8|2,2:2|1:2,0:0:0:0:
159,294,59926,1,8,2:2:0:0:
159,294,60007,5,2,1:2:0:0:
77,248,60169,1,2,1:2:0:0:
262,119,60331,1,10,2:2:0:0:
342,180,60493,6,0,B|416:162|416:162|430:125|430:125|500:109,1,187.200000714111,2|2,1:2|1:2,0:0:0:0:
363,0,60980,2,0,P|325:25|328:69,1,93.6000003570557,8|2,2:2|1:2,0:0:0:0:
354,97,61223,1,8,2:2:0:0:
354,97,61304,5,2,1:2:0:0:
433,72,61466,1,2,1:2:0:0:
512,241,61628,1,10,2:2:0:0:
429,310,61790,6,0,P|338:285|247:264,1,187.200000714111,6|2,1:2|1:2,0:0:0:0:
69,355,62277,2,0,P|111:341|122:297,1,93.6000003570557,10|0,2:2|1:1,0:0:0:0:
80,234,62520,1,8,2:2:0:0:
80,234,62601,6,0,B|75:223|75:223|96:143,1,93.6000003570557,2|0,1:2|1:1,0:0:0:0:
266,75,62926,2,0,B|270:85|270:85|249:165,1,93.6000003570557,10|0,2:2|1:1,0:0:0:0:
148,33,63250,1,14,2:2:0:0:
148,33,63412,1,0,1:1:0:0:
326,0,63574,6,0,P|371:11|417:21,1,93.6000003570557,10|0,2:2|1:1,0:0:0:0:
489,67,63817,1,0,1:1:0:0:
489,67,63898,6,0,L|497:113,1,46.8000001785278,10|8,2:2|2:2,0:0:0:0:
460,184,64061,2,0,L|451:230,1,46.8000001785278,10|8,2:2|2:2,0:0:0:0:
496,307,64223,1,10,2:2:0:0:
496,307,64304,1,8,2:2:0:0:
496,307,64385,6,0,P|410:297|386:380,1,187.200000714111,6|2,1:2|1:2,0:0:0:0:
266,265,64871,2,0,B|257:260|257:260|175:278,1,93.6000003570557,10|2,2:2|1:2,0:0:0:0:
141,297,65115,1,8,2:2:0:0:
141,297,65196,5,2,1:2:0:0:
67,237,65358,1,2,1:2:0:0:
195,125,65520,1,10,2:2:0:0:
144,198,65682,1,2,2:2:0:0:
78,77,65844,1,2,1:2:0:0:
158,5,66007,6,0,B|232:23|232:23|246:60|246:60|316:76,1,187.200000714111,2|2,1:2|1:2,0:0:0:0:
488,0,66493,2,0,L|395:16,1,93.6000003570557,2|2,2:2|1:2,0:0:0:0:
381,194,66817,2,0,P|417:167|414:122,1,93.6000003570557,10|10,2:2|2:2,0:0:0:0:
395,98,67061,1,8,2:2:0:0:
395,98,67142,5,6,1:2:0:0:
504,200,67304,1,2,1:2:0:0:
381,292,67466,5,10,2:2:0:0:
264,228,67628,1,2,1:2:0:0:
381,194,67790,5,10,2:2:0:0:
287,316,67953,1,2,1:2:0:0:
171,193,68115,6,0,L|162:146,1,46.8000001785278,10|0,2:2|0:0,0:0:0:0:
235,112,68277,2,0,L|251:204,1,93.6000003570557,6|0,1:2|0:0,0:0:0:0:
161,140,68601,5,10,1:2:0:0:
321,30,68763,1,8,2:2:0:0:
464,177,68926,5,10,2:2:0:0:
466,191,69007,1,8,2:2:0:0:
469,204,69088,1,8,2:2:0:0:
404,342,69250,5,10,2:2:0:0:
390,344,69331,1,8,2:2:0:0:
377,347,69412,1,8,2:2:0:0:
306,300,69574,1,2,1:2:0:0:
118,367,69736,6,0,B|93:386|40:380|25:333|25:333|51:368|95:362,1,187.200000714111,12|0,2:2|1:1,0:0:0:0:
168,295,70223,2,0,B|171:285|171:285|153:203,1,93.6000003570557,8|2,2:2|2:2,0:0:0:0:
20,103,70547,2,0,P|45:140|90:142,1,93.6000003570557,2|12,1:2|2:2,0:0:0:0:
205,57,70871,1,2,2:2:0:0:
205,57,71034,1,0,1:1:0:0:
275,114,71196,6,0,P|366:134|457:156,1,187.200000714111,12|0,2:2|1:1,0:0:0:0:
339,260,71682,1,10,2:2:0:0:
325,263,71763,1,8,2:2:0:0:
311,267,71844,2,0,P|288:272|265:278,1,46.8000001785278,10|8,2:2|2:2,0:0:0:0:
203,327,72007,5,8,2:2:0:0:
189,324,72088,1,8,2:2:0:0:
175,320,72169,2,0,P|152:313|129:308,1,46.8000001785278,10|8,2:2|2:2,0:0:0:0:
67,260,72331,6,0,B|63:247|63:247|110:79,1,187.200000714111,4|2,1:2|1:2,0:0:0:0:
183,21,72817,1,10,2:2:0:0:
247,82,72980,2,0,P|287:103|329:86,1,93.6000003570557,2|0,2:2|1:1,0:0:0:0:
456,0,73304,1,10,2:2:0:0:
512,68,73466,6,0,P|520:153|436:173,1,187.200000714111,6|2,1:2|1:2,0:0:0:0:
332,198,73953,2,0,P|286:185|240:176,1,93.6000003570557,8|10,2:2|2:2,0:0:0:0:
209,175,74196,1,8,2:2:0:0:
209,175,74277,5,10,2:2:0:0:
329,85,74439,1,0,1:1:0:0:
402,257,74601,1,8,2:2:0:0:
402,257,74926,6,0,B|299:286|355:331|255:364,1,187.200000714111,14|2,2:2|1:2,0:0:0:0:
111,326,75412,6,0,P|150:249|235:267,1,187.200000714111,14|2,2:2|1:2,0:0:0:0:
430,359,75898,6,0,B|437:343|437:343|397:178,1,187.200000714111,14|0,2:2|1:1,0:0:0:0:
257,56,76385,5,10,2:2:0:0:
190,101,76547,2,0,P|144:111|99:123,1,93.6000003570557,2|2,1:2|1:2,0:0:0:0:
190,11,76871,5,8,2:2:0:0:
257,56,77033,2,0,P|302:66|347:78,1,93.6000003570557,2|8,1:2|2:2,0:0:0:0:
511,45,77358,6,0,P|455:57|449:114,1,122.40000074707,6|0,1:2|0:0,0:0:0:0:
512,171,78980,5,8,2:2:0:0:
392,12,79142,1,8,2:2:0:0:
392,20,79466,5,8,2:2:0:0:
512,179,79628,1,8,2:2:0:0:
512,179,79953,6,0,B|429:199|429:199|427:203|427:203|348:220,1,171.199994775391,4|0,1:2|0:0,0:0:0:0:
235,178,80439,2,0,B|214:139|214:139|232:99,1,85.5999973876954,10|2,2:2|2:2,0:0:0:0:
347,220,80763,1,0,1:1:0:0:
408,168,80926,2,0,L|393:83,1,85.5999973876954,2|8,1:2|2:2,0:0:0:0:
264,257,81250,5,2,1:2:0:0:
264,257,81574,1,2,1:2:0:0:
208,315,81736,2,0,P|169:330|133:311,1,85.5999973876954,8|10,2:2|2:2,0:0:0:0:
119,281,81980,1,10,2:2:0:0:
119,281,82061,1,2,1:2:0:0:
173,221,82223,1,2,1:2:0:0:
311,374,82385,1,8,2:2:0:0:
395,323,82547,6,0,B|434:200|434:200|407:167,1,171.199994775391,2|2,1:2|1:2,0:0:0:0:
277,59,83034,1,10,2:2:0:0:
277,59,83196,1,2,1:2:0:0:
322,143,83358,1,10,2:2:0:0:
422,56,83521,1,0,1:1:0:0:
512,175,83683,1,10,2:2:0:0:
395,323,83844,6,0,B|311:343|311:343|309:347|309:347|230:365,1,171.199994775391,6|8,1:2|2:2,0:0:0:0:
83,259,84331,1,10,2:2:0:0:
148,216,84494,1,10,2:2:0:0:
160,218,84575,1,10,2:2:0:0:
173,221,84656,1,2,1:2:0:0:
250,176,84817,5,10,2:2:0:0:
321,249,84980,5,8,2:2:0:0:
427,168,85142,6,0,B|446:145|470:120|470:120|446:99|425:74|425:74|433:100|435:122,1,176.800001079102,6|0,1:2|0:0,0:0:0:0:
