osu file format v14

[General]
AudioFilename: audio.mp3
AudioLeadIn: 0
PreviewTime: 48086
Countdown: 0
SampleSet: Soft
StackLeniency: 0.4
Mode: 0
LetterboxInBreaks: 0
WidescreenStoryboard: 1

[Editor]
Bookmarks: 2278,5520,10709,15898,17844,23033,28222,33411,38438,43789,48816,57898,59195,69735,74925,77357,79952,83843,85141,87249
DistanceSpacing: 0.6
BeatDivisor: 4
GridSize: 32
TimelineZoom: 2.1

[Metadata]
Title:Kaikai Kitan (TV Size)
TitleUnicode:廻廻奇譚 (TV Size)
Artist:Eve
ArtistUnicode:Eve
Creator:- Nilou -
Version:Ayyri's Hard
Source:呪術廻戦
Tags:jrock j-rock rock j-pop pop jpop utaite male japanese anime op opening jujutsu kaisen vanya2 crysisters mizujin -_aqua aqua_m1x amats syndicate ayyri eiri- annabel
BeatmapID:4231742
BeatmapSetID:2020645

[Difficulty]
HPDrainRate:4
CircleSize:4
OverallDifficulty:6
ApproachRate:8
SliderMultiplier:1.4
SliderTickRate:1

[Events]
//Background and Video events
Video,-556,"video.mp4"
0,0,"sukuna-jujutsu-kaisen-4k-wallpaper-3840x2160-uhdpaper.com-317.1_a.jpg",0,0
//Break Periods
//Storyboard Layer 0 (Background)
//Storyboard Layer 1 (Fail)
//Storyboard Layer 2 (Pass)
//Storyboard Layer 3 (Foreground)
//Storyboard Layer 4 (Overlay)
//Storyboard Sound Samples

[TimingPoints]
2278,324.324324324324,3,2,1,70,1,0
3250,-100,4,2,1,70,0,0
3737,-100,4,2,1,70,0,0
4223,324.324324324324,4,2,1,70,1,0
5520,-86.9565217391304,4,2,1,75,0,0
10709,-86.9565217391304,4,2,1,75,0,0
10871,-86.9565217391304,4,2,1,75,0,0
14439,-86.9565217391304,4,2,1,75,0,0
15411,-86.9565217391304,4,2,2,75,0,0
15898,-200,4,2,3,75,0,0
17845,324.324324324324,4,2,3,60,1,0
17845,-125,4,2,3,60,0,0
26762,-111.111111111111,4,2,3,70,0,0
27086,-111.111111111111,4,2,4,70,0,0
27734,-111.111111111111,4,2,3,70,0,0
28222,-90.9090909090909,4,2,3,70,0,0
37627,-90.9090909090909,4,2,3,70,0,0
38113,-90.9090909090909,4,2,4,70,0,0
38438,-100,4,2,3,70,0,0
39899,-100,4,2,4,70,0,0
40221,-100,4,2,3,70,0,0
42978,-100,4,2,4,70,0,0
43140,-100,4,2,3,70,0,0
43789,-125,4,2,4,70,0,0
45735,-111.111111111111,4,2,3,60,0,0
46384,-100,4,2,3,75,0,0
46871,-100,4,2,3,75,0,0
47357,-100,4,2,3,75,0,0
48817,-80,4,2,3,80,0,1
53518,-80,4,2,4,80,0,1
53680,-80,4,2,3,80,0,1
54168,-80,4,2,3,80,0,1
54330,-80,4,2,3,80,0,1
57899,-80,4,2,3,80,0,0
58221,-80,4,2,2,80,0,0
58383,-80,4,2,2,80,0,0
58545,-80,4,2,3,80,0,0
59032,-80,4,2,4,80,0,0
59196,-80,4,2,3,80,0,1
61789,-80,4,2,3,80,0,1
63249,-80,4,2,3,80,0,1
64384,-80,4,2,3,80,0,1
64546,-80,4,2,3,80,0,1
67141,-80,4,2,3,80,0,1
68276,-80,4,2,3,80,0,1
69248,-80,4,2,4,80,0,1
69736,-86.9565217391304,4,2,3,75,0,0
69898,-86.9565217391304,4,2,3,75,0,0
70707,-86.9565217391304,4,2,5,75,0,0
70872,-86.9565217391304,4,2,3,75,0,0
71195,-86.9565217391304,4,2,3,75,0,0
72330,-86.9565217391304,4,2,3,75,0,0
73465,-86.9565217391304,4,2,3,75,0,0
74600,-86.9565217391304,4,2,3,75,0,0
74925,-86.9565217391304,4,2,3,70,0,0
75411,-86.9565217391304,4,2,3,70,0,0
75898,-86.9565217391304,4,2,3,70,0,0
77357,-153.846153846154,4,2,4,70,0,0
78815,-153.846153846154,4,2,4,5,0,0
78978,-153.846153846154,4,2,1,70,0,0
79952,-86.9565217391304,4,2,1,75,0,0
83843,-86.9565217391304,4,2,1,75,0,0
84815,-86.9565217391304,4,2,2,75,0,0
85141,-200,4,2,1,70,0,0
85466,-158.730158730159,3,2,1,65,0,0
85790,-158.730158730159,3,2,1,60,0,0
86115,-158.730158730159,3,2,1,55,0,0
86439,-158.730158730159,3,2,1,50,0,0
86763,-158.730158730159,3,2,1,45,0,0
87088,-158.730158730159,3,2,1,40,0,0
87250,-158.730158730159,3,2,1,35,0,0

[Colours]
Combo1 : 157,157,157
Combo2 : 130,192,255
Combo3 : 0,120,240

[HitObjects]
121,335,2278,6,0,L|39:322,2,70,10|2|2,2:2|1:2|1:2,0:0:0:0:
196,284,2764,2,0,L|278:271,2,70,10|0|2,2:2|1:1|1:2,0:0:0:0:
129,221,3250,2,1,L|116:139,2,70,10|0|0,2:2|0:0|1:1,0:0:0:0:
203,167,3737,2,0,L|216:249,2,70,10|2|2,2:2|2:2|1:2,0:0:0:0:
261,97,4223,6,0,B|307:104|307:104|314:110|314:110|380:119,2,105,8|8|8,2:2|2:2|2:2,0:0:0:0:
261,97,5520,6,0,B|279:79|284:64|284:64|292:150|308:216,1,161.000003070831,4|10,1:2|2:2,0:0:0:0:
371,248,6006,2,0,P|421:236|428:192,1,80.5000015354157,2|0,2:2|1:1,0:0:0:0:
474,126,6331,2,0,P|427:115|382:91,1,80.5000015354157,2|8,1:2|0:0,0:0:0:0:
317,47,6655,1,2,1:2:0:0:
241,204,6979,1,2,1:2:0:0:
76,158,7304,1,10,2:2:0:0:
140,102,7466,1,2,1:2:0:0:
140,102,7628,2,0,P|154:154|162:203,1,80.5000015354157,2|8,1:2|2:2,0:0:0:0:
241,229,7952,6,1,P|200:314|174:394,1,161.000003070831,2|2,1:2|1:2,0:0:0:0:
81,375,8439,2,0,P|40:360|33:312,1,80.5000015354157,10|10,2:2|2:2,0:0:0:0:
9,233,8763,2,0,P|67:240|180:264,1,161.000003070831,2|10,1:2|2:2,0:0:0:0:
245,203,9250,2,0,P|253:256|268:300,1,80.5000015354157,2|0,1:2|0:0,0:0:0:0:
350,242,9574,1,2,1:2:0:0:
350,242,9736,2,0,P|360:203|365:163,1,80.5000015354157,10|2,2:2|1:2,0:0:0:0:
286,107,10060,1,10,1:2:0:0:
333,26,10222,1,10,2:2:0:0:
333,26,10304,1,8,2:2:0:0:
333,26,10385,2,0,L|403:34,3,40.2500007677078,0|0|10|8,1:1|1:1|2:2|2:2,0:0:0:0:
407,64,10709,6,0,B|437:163|351:110|393:236,1,161.000003070831,0|10,1:1|2:2,0:0:0:0:
320,284,11195,2,0,P|270:272|263:228,1,80.5000015354157,2|0,2:2|1:1,0:0:0:0:
286,155,11520,2,0,P|249:138|209:130,1,80.5000015354157,2|8,1:2|2:2,0:0:0:0:
118,162,11844,1,2,1:2:0:0:
0,0,12168,1,2,1:2:0:0:
189,38,12493,1,10,2:2:0:0:
99,65,12655,1,2,1:2:0:0:
99,65,12817,2,0,P|59:60|19:53,1,80.5000015354157,2|8,1:2|2:2,0:0:0:0:
2,148,13141,6,1,P|27:234|44:316,1,161.000003070831,2|2,1:2|1:2,0:0:0:0:
120,360,13628,2,0,P|134:323|174:293,1,80.5000015354157,10|2,2:2|1:2,0:0:0:0:
140,203,13952,2,0,P|198:210|311:234,1,161.000003070831,10|10,2:2|2:2,0:0:0:0:
387,191,14439,1,6,1:2:0:0:
449,373,14763,1,8,2:2:0:0:
473,279,14925,1,10,2:2:0:0:
380,306,15087,2,0,L|324:299,2,40.2500007677078,10|10|2,2:2|2:2|1:2,0:0:0:0:
473,279,15412,2,0,L|487:111,1,161.000003070831,10|10,2:2|2:2,0:0:0:0:
444,33,15898,6,0,B|202:76|394:255|165:314,1,420,4|0,1:2|1:1,0:0:0:0:
100,282,18006,5,0,0:0:0:0:
100,282,18168,2,0,P|115:236|116:213,1,56,2|0,1:2|0:0,0:0:0:0:
68,159,18492,2,0,P|83:113|84:90,1,56,2|0,1:2|0:0,0:0:0:0:
151,54,18816,1,2,1:2:0:0:
151,54,18979,6,0,P|209:43|277:37,1,112,2|2,2:2|2:2,0:0:0:0:
273,120,19465,2,0,P|215:131|147:137,1,112,2|2,1:2|1:2,0:0:0:0:
114,205,19952,1,2,2:2:0:0:
276,259,20276,1,2,2:2:0:0:
276,259,20438,6,0,P|268:214|267:191,1,56,2|0,1:2|0:0,0:0:0:0:
344,167,20762,1,2,1:2:0:0:
344,167,20926,2,0,P|352:122|353:99,1,56,2|0,2:2|0:0,0:0:0:0:
311,49,21249,1,2,2:2:0:0:
311,49,21411,1,2,1:2:0:0:
311,49,21573,6,0,P|354:64|443:79,1,112,2|0,2:2|0:0,0:0:0:0:
497,45,22060,2,0,P|510:98|519:120,1,56,2|0,1:2|0:0,0:0:0:0:
495,181,22384,1,2,1:2:0:0:
330,215,22708,2,0,P|324:274|312:344,1,112,2|0,1:2|1:1,0:0:0:0:
395,366,23195,5,2,2:2:0:0:
395,366,23357,2,0,P|429:350|467:339,1,56,2|0,1:2|0:0,0:0:0:0:
412,273,23681,1,2,1:2:0:0:
412,273,23843,2,0,P|385:263|360:251,1,56,2|0,2:2|1:1,0:0:0:0:
347,170,24168,5,2,2:2:0:0:
347,170,24330,2,0,P|363:136|374:98,1,56,2|0,1:2|0:0,0:0:0:0:
447,159,24654,1,2,1:2:0:0:
447,159,24816,2,0,P|456:185|468:210,1,56,2|0,2:2|1:1,0:0:0:0:
412,273,25141,1,2,2:2:0:0:
412,273,25303,1,2,1:2:0:0:
246,243,25627,6,0,B|264:217|264:217|246:152,1,84,2|2,1:2|2:2,0:0:0:0:
260,43,26114,1,2,2:2:0:0:
260,43,26276,2,0,P|198:80|147:94,1,112,2|2,1:2|1:2,0:0:0:0:
70,61,26762,5,14,2:2:0:0:
46,248,27087,2,0,L|-3:256,2,31.4999990386963,8|8|10,2:2|2:2|2:2,0:0:0:0:
124,194,27411,1,8,2:2:0:0:
166,283,27573,1,2,1:2:0:0:
166,283,27735,1,10,2:2:0:0:
417,242,28222,5,0,1:1:0:0:
375,173,28384,1,2,2:2:0:0:
375,173,28546,2,0,P|372:223|360:330,1,154.000004699707,10|2,2:2|1:2,0:0:0:0:
434,369,29033,2,0,P|477:358|480:306,1,77.0000023498536,2|0,1:2|0:0,0:0:0:0:
449,260,29357,1,10,2:2:0:0:
449,260,29519,6,0,L|315:281,2,115.50000352478,2|2|2,2:2|2:2|1:2,0:0:0:0:
498,191,30168,1,2,1:2:0:0:
498,191,30330,1,2,1:2:0:0:
361,90,30654,6,0,P|311:82|203:55,1,154.000004699707,10|2,2:2|1:2,0:0:0:0:
154,121,31141,2,0,P|165:175|168:219,1,77.0000023498536,10|2,2:2|1:2,0:0:0:0:
242,244,31465,1,2,1:2:0:0:
242,244,31627,1,2,1:2:0:0:
135,376,31952,6,0,P|84:363|48:342,1,77.0000023498536,10|0,2:2|0:0,0:0:0:0:
28,279,32276,1,2,1:2:0:0:
28,279,32438,2,0,P|79:266|115:245,1,77.0000023498536,10|0,2:2|1:1,0:0:0:0:
133,176,32762,2,0,P|112:99|98:10,2,154.000004699707,2|10|0,1:2|2:2|1:1,0:0:0:0:
213,202,33573,5,2,2:2:0:0:
213,202,33735,2,0,P|274:190|314:188,1,77.0000023498536,10|0,2:2|1:1,0:0:0:0:
350,130,34060,1,2,1:2:0:0:
350,130,34222,2,0,P|411:142|451:144,1,77.0000023498536,2|0,1:2|0:0,0:0:0:0:
467,222,34546,1,10,2:2:0:0:
467,222,34708,6,0,P|406:234|366:236,1,77.0000023498536,2|0,2:2|1:1,0:0:0:0:
330,294,35033,1,10,2:2:0:0:
330,294,35195,2,0,P|269:282|229:280,1,77.0000023498536,2|0,1:2|1:1,0:0:0:0:
180,318,35519,5,2,1:2:0:0:
180,318,35681,2,0,P|168:257|166:217,1,77.0000023498536,2|8,2:2|2:2,0:0:0:0:
108,181,36006,1,2,2:2:0:0:
108,181,36168,2,0,P|120:120|122:80,1,77.0000023498536,2|8,1:2|2:2,0:0:0:0:
181,46,36492,1,2,1:2:0:0:
181,46,36654,6,0,P|242:34|282:32,1,77.0000023498536,2|2,1:2|1:2,0:0:0:0:
317,99,36979,1,2,2:2:0:0:
317,99,37141,2,0,P|256:111|216:113,2,77.0000023498536,10|0|0,2:2|0:0|1:1,0:0:0:0:
395,130,37627,1,14,2:2:0:0:
449,66,37789,1,10,2:2:0:0:
449,66,37871,1,8,2:2:0:0:
449,66,37952,2,0,P|423:25|409:-10,2,77.0000023498536,2|8|10,1:2|2:2|2:2,0:0:0:0:
395,130,38438,6,1,B|388:176|388:176|394:189|394:189|376:300,1,140,14|0,2:2|1:1,0:0:0:0:
420,342,38925,2,0,P|377:354|342:372,1,70,8|0,2:2|1:1,0:0:0:0:
354,365,39168,1,0,1:1:0:0:
354,365,39249,1,0,1:1:0:0:
274,338,39411,1,2,1:2:0:0:
304,259,39573,2,0,P|289:227|281:193,1,70,10|0,2:2|0:0,0:0:0:0:
202,163,39898,6,0,P|234:106|266:14,1,140,10|10,2:2|2:2,0:0:0:0:
349,27,40384,1,2,1:2:0:0:
349,27,40465,1,0,1:1:0:0:
349,27,40546,2,0,P|354:83|361:111,2,70,2|0|10,1:2|1:1|2:2,0:0:0:0:
428,56,41033,6,0,P|469:66|514:70,1,70,2|0,1:2|0:0,0:0:0:0:
487,153,41357,2,0,P|452:148|418:139,2,70,2|8|0,1:2|2:2|1:1,0:0:0:0:
487,153,41762,1,0,1:1:0:0:
487,153,41843,1,0,1:1:0:0:
441,224,42006,2,0,P|454:268|477:314,1,70,2|8,1:2|2:2,0:0:0:0:
507,367,42330,1,2,1:2:0:0:
507,367,42492,6,0,P|462:356|363:313,1,140,2|10,2:2|2:2,0:0:0:0:
299,338,42979,1,10,2:2:0:0:
299,338,43060,1,8,2:2:0:0:
299,338,43141,2,0,P|306:284|304:247,2,70,10|0|0,2:2|1:1|1:1,0:0:0:0:
223,375,43627,1,2,1:2:0:0:
170,309,43789,6,0,B|227:287|239:208|188:160|140:229|173:248,2,168,4|2|0,2:2|0:0|0:0,0:0:0:0:
223,375,44925,2,0,P|306:361|352:356,1,112,2|0,2:2|0:0,0:0:0:0:
396,302,45411,1,0,0:0:0:0:
338,247,45573,1,10,2:2:0:0:
338,247,45654,1,8,2:2:0:0:
338,247,45735,2,0,P|327:209|325:161,1,62.9999980773926,8|2,2:2|1:2,0:0:0:0:
231,205,46060,2,0,P|241:242|244:291,1,62.9999980773926,10|2,2:2|1:2,0:0:0:0:
165,324,46384,6,0,B|142:322|142:322|136:326|136:326|88:323,2,70,12|2|2,2:2|1:2|1:2,0:0:0:0:
222,244,46871,2,0,B|224:221|224:221|220:215|220:215|223:167,2,70,12|2|2,2:2|1:2|1:2,0:0:0:0:
306,303,47357,1,14,2:2:0:0:
306,303,47519,2,0,B|329:305|329:305|335:301|335:301|383:304,1,70,2|0,1:2|0:0,0:0:0:0:
475,316,47843,1,8,2:2:0:0:
475,316,48006,1,8,2:2:0:0:
475,316,48654,1,0,0:0:0:0:
475,316,48817,6,0,P|488:219|507:117,2,175,14|2|2,1:2|1:2|2:2,0:0:0:0:
395,370,49627,2,0,P|352:355|355:307,1,87.5,2|2,1:2|1:2,0:0:0:0:
330,227,49952,1,10,2:2:0:0:
330,227,50114,6,0,P|406:248|520:269,2,175,2|2|2,1:2|1:2|1:2,0:0:0:0:
236,250,50925,1,2,1:2:0:0:
236,250,51087,1,2,1:2:0:0:
297,330,51249,1,10,2:2:0:0:
297,330,51411,6,1,P|369:339|358:232,1,175,2|2,1:2|1:2,0:0:0:0:
457,187,51898,2,0,P|467:130|481:76,1,87.5,10|2,2:2|1:2,0:0:0:0:
409,29,52222,2,0,P|418:71|425:114,2,87.5,2|2|10,1:2|1:2|2:2,0:0:0:0:
322,70,52708,6,0,P|257:57|140:42,1,175,2|2,1:2|1:2,0:0:0:0:
61,3,53195,2,0,P|51:45|44:88,1,87.5,10|0,2:2|1:1,0:0:0:0:
123,143,53519,1,6,1:2:0:0:
58,214,53681,1,10,2:2:0:0:
58,214,53762,1,8,2:2:0:0:
58,214,53843,2,0,L|70:276,3,43.75,8|8|10|8,2:2|2:2|2:2|2:2,0:0:0:0:
102,289,54168,5,0,1:1:0:0:
181,235,54330,2,0,P|224:241|267:244,2,87.5,2|10|2,2:2|2:2|1:2,0:0:0:0:
117,163,54816,1,2,1:2:0:0:
255,121,55060,1,0,1:1:0:0:
295,259,55303,6,0,P|338:252|486:253,1,175,2|2,1:2|1:2,0:0:0:0:
508,163,55789,1,10,2:2:0:0:
418,198,55952,1,2,1:2:0:0:
358,122,56114,2,0,P|375:75|381:30,1,87.5,2|2,1:2|1:2,0:0:0:0:
476,13,56438,1,10,2:2:0:0:
476,13,56600,6,0,P|459:60|453:105,1,87.5,2|0,1:2|0:0,0:0:0:0:
368,139,56925,1,2,1:2:0:0:
368,139,57087,2,0,P|268:128|177:123,2,175,10|10|10,2:2|2:2|2:2,0:0:0:0:
460,109,57898,1,14,2:2:0:0:
430,301,58222,5,8,2:2:0:0:
430,301,58384,1,8,2:2:0:0:
340,334,58546,2,0,L|333:385,2,43.75,10|8|10,2:2|2:2|2:2,0:0:0:0:
271,265,58871,2,0,L|264:214,3,43.75,2|8|10|8,1:2|2:2|2:2|2:2,0:0:0:0:
299,187,59195,6,0,P|455:206|483:207,2,175,6|2|2,1:2|1:2|1:2,0:0:0:0:
353,106,60006,2,0,P|329:60|272:71,1,87.5,2|2,1:2|1:2,0:0:0:0:
218,11,60330,1,10,2:2:0:0:
218,11,60492,6,0,P|211:93|194:213,2,175,2|2|2,1:2|1:2|1:2,0:0:0:0:
298,73,61303,1,2,1:2:0:0:
298,73,61465,1,2,1:2:0:0:
213,115,61627,1,10,2:2:0:0:
213,115,61789,6,1,P|142:125|30:145,1,175,6|2,1:2|1:2,0:0:0:0:
12,236,62276,2,0,P|21:278|28:321,1,87.5,10|0,2:2|1:1,0:0:0:0:
113,367,62600,1,2,1:2:0:0:
292,296,62925,1,10,2:2:0:0:
119,210,63249,5,14,2:2:0:0:
284,307,63573,1,10,2:2:0:0:
368,256,63735,1,0,1:1:0:0:
368,256,63816,1,0,0:0:0:0:
368,256,63898,2,0,L|374:197,3,43.75,10|8|10|8,2:2|2:2|2:2|2:2,0:0:0:0:
379,164,64222,1,10,2:2:0:0:
436,87,64384,6,1,P|491:91|495:153,1,87.5,6|0,1:2|0:0,0:0:0:0:
448,192,64708,2,0,P|406:196|379:163,2,87.5,2|10|2,1:2|2:2|1:2,0:0:0:0:
504,115,65195,1,2,1:2:0:0:
416,74,65357,1,2,1:2:0:0:
380,164,65519,2,0,P|316:157|265:155,1,87.5,10|2,2:2|2:2,0:0:0:0:
212,206,65843,5,2,1:2:0:0:
212,206,66006,1,2,1:2:0:0:
398,252,66330,2,0,P|405:316|407:367,2,87.5,2|2|2,1:2|2:2|1:2,0:0:0:0:
461,180,66816,1,10,2:2:0:0:
423,101,66979,1,10,2:2:0:0:
423,101,67060,1,8,2:2:0:0:
423,101,67141,6,0,L|323:90,1,87.5,6|2,1:2|1:2,0:0:0:0:
362,183,67465,2,0,L|448:192,1,87.5,10|2,2:2|1:2,0:0:0:0:
475,283,67789,2,0,L|387:273,1,87.5,10|2,2:2|1:2,0:0:0:0:
414,370,68114,1,10,2:2:0:0:
414,370,68276,2,1,L|502:380,1,87.5,6|0,1:2|0:0,0:0:0:0:
479,287,68600,5,10,1:2:0:0:
479,287,68762,1,8,2:2:0:0:
395,326,68925,1,10,2:2:0:0:
395,326,69006,1,8,2:2:0:0:
395,326,69087,1,8,2:2:0:0:
327,256,69250,2,0,L|321:202,2,43.75,10|8|8,2:2|2:2|2:2,0:0:0:0:
244,304,69573,1,2,1:2:0:0:
169,249,69736,6,0,P|109:240|5:207,1,161.000003070831,12|0,2:2|1:1,0:0:0:0:
103,193,70222,1,8,2:2:0:0:
103,193,70384,2,0,P|129:146|147:91,1,80.5000015354157,2|2,2:2|1:2,0:0:0:0:
63,84,70708,1,12,2:2:0:0:
63,84,70871,6,0,P|123:75|227:42,1,161.000003070831,2|12,2:2|2:2,0:0:0:0:
279,109,71357,2,0,P|266:161|262:218,1,80.5000015354157,2|0,0:0|1:1,0:0:0:0:
207,256,71681,2,0,L|146:264,3,40.2500007677078,10|8|10|8,2:2|2:2|2:2|2:2,0:0:0:0:
133,231,72006,2,0,L|72:223,3,40.2500007677078,8|8|10|8,2:2|2:2|2:2|2:2,0:0:0:0:
53,244,72330,6,0,P|68:316|156:290,1,161.000003070831,4|2,1:2|1:2,0:0:0:0:
207,256,72816,1,10,2:2:0:0:
242,337,72979,2,0,P|333:344|436:358,1,161.000003070831,2|10,2:2|2:2,0:0:0:0:
484,319,73465,1,6,1:2:0:0:
330,231,73789,1,2,1:2:0:0:
487,143,74114,1,10,2:2:0:0:
487,143,74195,1,8,2:2:0:0:
487,143,74276,2,0,P|474:93|473:50,1,80.5000015354157,10|0,2:2|1:1,0:0:0:0:
399,14,74600,1,8,2:2:0:0:
262,127,74925,6,0,P|228:135|151:143,1,80.5000015354157,14|0,2:2|0:0,0:0:0:0:
96,124,75249,1,2,1:2:0:0:
118,209,75411,2,0,P|151:217|229:225,1,80.5000015354157,14|0,2:2|0:0,0:0:0:0:
284,206,75735,1,2,1:2:0:0:
262,291,75898,2,0,P|238:224|223:108,1,161.000003070831,14|0,2:2|1:1,0:0:0:0:
172,63,76384,6,0,P|203:28|218:-4,2,80.5000015354157,10|2|2,2:2|1:2|1:2,0:0:0:0:
250,114,76871,1,8,2:2:0:0:
250,114,77033,2,0,P|296:111|329:99,1,80.5000015354157,2|8,1:2|2:2,0:0:0:0:
269,205,77357,6,1,B|226:72|349:143|310:6,2,204.749990627289,6|0|0,1:2|0:0|0:0,0:0:0:0:
179,247,78979,1,8,2:2:0:0:
179,247,79141,1,8,2:2:0:0:
380,277,79465,1,8,2:2:0:0:
380,277,79627,1,8,2:2:0:0:
214,377,79952,6,0,B|200:349|200:329|200:329|156:326|90:314|90:314|72:363|26:377,1,241.500004606247,4|10,1:2|2:2,0:0:0:0:
4,282,80600,2,0,P|21:234|24:179,1,80.5000015354157,2|0,2:2|1:1,0:0:0:0:
74,121,80925,2,0,P|111:106|151:100,1,80.5000015354157,2|8,1:2|2:2,0:0:0:0:
245,118,81249,1,2,1:2:0:0:
169,295,81573,1,2,1:2:0:0:
15,176,81898,1,10,2:2:0:0:
74,101,82060,1,2,1:2:0:0:
74,101,82222,2,0,P|88:153|96:202,1,80.5000015354157,2|8,1:2|2:2,0:0:0:0:
183,212,82546,6,0,P|149:300|130:382,1,161.000003070831,2|2,1:2|1:2,0:0:0:0:
230,376,83033,2,0,P|269:357|268:309,1,80.5000015354157,10|2,2:2|1:2,0:0:0:0:
182,298,83357,2,0,P|260:280|340:270,1,161.000003070831,10|10,2:2|2:2,0:0:0:0:
417,212,83843,1,6,1:2:0:0:
353,34,84168,1,8,2:2:0:0:
353,34,84330,1,10,2:2:0:0:
287,104,84492,2,0,L|298:176,2,40.2500007677078,10|10|2,2:2|2:2|1:2,0:0:0:0:
203,56,84816,2,0,P|156:75|140:124,1,80.5000015354157,10|8,2:2|2:2,0:0:0:0:
68,33,85141,6,0,B|310:76|118:276|378:337,1,455,6|0,1:2|0:0,0:0:0:0:
