osu file format v14

[General]
AudioFilename: audio.mp3
AudioLeadIn: 0
PreviewTime: 48097
Countdown: 0
SampleSet: Soft
StackLeniency: 0.7
Mode: 0
LetterboxInBreaks: 0
WidescreenStoryboard: 1

[Editor]
Bookmarks: 26758,48812,68434,86596,107191,143604,167037,177253
DistanceSpacing: 0.2
BeatDivisor: 4
GridSize: 8
TimelineZoom: 2.6

[Metadata]
Title:Kaikai Kitan
TitleUnicode:廻廻奇譚
Artist:Eve
ArtistUnicode:Eve
Creator:AirinCat
Version:FuJu's Expert
Source:呪術廻戦
Tags:moph fuju Sorcery Fight Jujutsu Kaisen anime opening japanese pop jpop rock jrock full version kaikaikitan utaite
BeatmapID:2771907
BeatmapSetID:1273536

[Difficulty]
HPDrainRate:5.5
CircleSize:4.1
OverallDifficulty:8.5
ApproachRate:9.2
SliderMultiplier:1.6
SliderTickRate:1

[Events]
//Background and Video events
0,0,"twitterpic.png",0,0
//Break Periods
2,157512,166473
//Storyboard Layer 0 (Background)
//Storyboard Layer 1 (Fail)
//Storyboard Layer 2 (Pass)
//Storyboard Layer 3 (Foreground)
//Storyboard Layer 4 (Overlay)
//Storyboard Sound Samples

[TimingPoints]
2287,324.324324324324,4,2,1,70,1,0
2287,-95.2380952380952,4,2,1,70,0,0
4232,-133.333333333333,4,2,1,70,0,0
4314,-133.333333333333,4,2,1,5,0,0
4476,-133.333333333333,4,2,1,70,0,0
4558,-133.333333333333,4,2,1,5,0,0
4719,-133.333333333333,4,2,1,70,0,0
4801,-133.333333333333,4,2,1,5,0,0
5530,324.324324324324,4,2,1,70,1,0
5530,-95.2380952380952,4,2,1,70,0,0
10962,-95.2380952380952,4,2,1,5,0,0
11043,-95.2380952380952,4,2,1,70,0,0
15908,-322.58064516129,4,2,1,70,0,0
16232,-322.58064516129,4,2,1,5,0,0
17854,324.324324324324,4,2,1,40,1,0
17854,-133.333333333333,4,2,1,40,0,0
26772,-105.263157894737,4,2,1,50,0,0
28232,-105.263157894737,4,2,1,60,0,0
30583,-105.263157894737,4,2,1,5,0,0
30664,-105.263157894737,4,2,1,60,0,0
38448,-117.647058823529,4,2,1,50,0,0
43799,-181.818181818182,4,2,1,40,0,0
45583,-117.647058823529,4,2,1,50,0,0
46394,-95.2380952380952,4,2,1,60,0,0
48178,-95.2380952380952,4,2,1,45,0,0
48826,-90.9090909090909,4,2,1,76,0,1
49070,-90.9090909090909,4,2,1,5,0,1
49151,-90.9090909090909,4,2,1,76,0,1
50367,-90.9090909090909,4,2,1,5,0,1
50448,-90.9090909090909,4,2,1,76,0,1
52962,-90.9090909090909,4,2,1,5,0,1
53043,-90.9090909090909,4,2,1,76,0,1
59448,-90.9090909090909,4,2,1,5,0,1
59529,-90.9090909090909,4,2,1,76,0,1
60745,-90.9090909090909,4,2,1,5,0,1
60826,-90.9090909090909,4,2,1,76,0,1
68529,-90.9090909090909,4,2,1,5,0,1
68610,-90.9090909090909,4,2,1,76,0,1
69745,-100,4,2,1,60,0,0
72583,-100,4,2,1,5,0,0
72664,-100,4,2,1,60,0,0
74935,-100,4,2,1,70,0,0
75178,-100,4,2,1,5,0,0
75259,-100,4,2,1,70,0,0
75664,-100,4,2,1,5,0,0
75745,-100,4,2,1,70,0,0
77367,-249.999999999999,4,2,1,70,0,0
77691,-249.999999999999,4,2,1,5,0,0
78989,-249.999999999999,4,2,1,70,0,0
79962,-95.2380952380952,4,2,1,70,0,0
81502,-95.2380952380952,4,2,1,5,0,0
81583,-95.2380952380952,4,2,1,70,0,0
85151,-142.857142857143,4,2,1,70,0,0
85475,-142.857142857143,4,2,1,5,0,0
86610,-208.333333333333,4,2,2,60,0,0
86935,-133.333333333333,4,2,2,60,0,0
97313,-117.647058823529,4,2,2,60,0,0
105421,-86.9565217391302,4,2,2,60,0,0
106232,-86.9565217391302,4,2,2,45,0,0
107043,-105.263157894737,4,2,1,50,0,0
112556,-133.333333333333,4,2,1,50,0,0
114178,-117.647058823529,4,2,1,50,0,0
115151,-86.9565217391304,4,2,1,70,0,0
116205,-86.9565217391304,4,2,1,5,0,0
116286,-86.9565217391304,4,2,1,70,0,0
116529,-86.9565217391304,4,2,1,5,0,0
116610,-86.9565217391304,4,2,1,70,0,0
116691,-86.9565217391304,4,2,1,5,0,0
116772,-86.9565217391304,4,2,1,70,0,0
116853,-86.9565217391304,4,2,1,5,0,0
116935,-285.714285714286,4,2,1,45,0,0
117583,-86.9565217391304,4,2,1,76,0,1
117826,-86.9565217391304,4,2,1,5,0,1
117908,-86.9565217391304,4,2,1,76,0,1
119124,-86.9565217391304,4,2,1,5,0,1
119206,-86.9565217391304,4,2,1,76,0,1
121718,-86.9565217391304,4,2,1,5,0,1
121800,-86.9565217391304,4,2,1,76,0,1
128205,-86.9565217391304,4,2,1,5,0,1
128287,-86.9565217391304,4,2,1,76,0,1
129502,-86.9565217391304,4,2,1,5,0,1
129584,-86.9565217391304,4,2,1,76,0,1
137286,-86.9565217391304,4,2,1,5,0,1
137368,-86.9565217391304,4,2,1,76,0,1
138340,-142.857142857143,4,2,1,50,0,0
138664,-142.857142857143,4,2,1,5,0,0
138989,-95.2380952380952,4,2,1,60,0,0
140205,-95.2380952380952,4,2,1,5,0,0
140286,-95.2380952380952,4,2,1,60,0,0
145556,-95.2380952380952,4,2,1,5,0,0
145637,-95.2380952380952,4,2,1,60,0,0
146205,-95.2380952380952,4,2,1,5,0,0
146286,-95.2380952380952,4,2,1,60,0,0
146691,-95.2380952380952,4,2,1,5,0,0
146772,-95.2380952380952,4,2,1,60,0,0
154313,-95.2380952380952,4,2,1,5,0,0
154394,-95.2380952380952,4,2,1,60,0,0
154799,-95.2380952380952,4,2,1,5,0,0
154880,-95.2380952380952,4,2,1,60,0,0
156664,-133.333333333333,4,2,2,40,0,0
156881,-133.333333333333,4,2,2,30,0,0
157097,-133.333333333333,4,2,2,20,0,0
157313,-133.333333333333,4,2,2,10,0,0
167043,-133.333333333333,4,2,2,40,0,0
174016,-95.2380952380949,4,2,2,60,0,0
174178,-95.2380952380949,4,2,1,60,0,0
176610,-285.714285714286,4,2,1,45,0,0
177259,-90.9090909090909,4,2,1,76,0,1
177502,-90.9090909090909,4,2,1,5,0,1
177584,-90.9090909090909,4,2,1,76,0,1
178799,-90.9090909090909,4,2,1,5,0,1
178881,-90.9090909090909,4,2,1,76,0,1
181394,-90.9090909090909,4,2,1,5,0,1
181476,-90.9090909090909,4,2,1,76,0,1
187881,-90.9090909090909,4,2,1,5,0,1
187963,-90.9090909090909,4,2,1,76,0,1
189178,-90.9090909090909,4,2,1,5,0,1
189260,-90.9090909090909,4,2,1,76,0,1
196962,-90.9090909090909,4,2,1,5,0,1
197044,-90.9090909090909,4,2,1,76,0,1
198178,-105.263157894737,4,2,1,60,0,0
203610,-105.263157894737,4,2,1,5,0,0
203691,-105.263157894737,4,2,1,60,0,0
204097,-105.263157894737,4,2,1,5,0,0
204178,-105.263157894737,4,2,1,60,0,0
205799,-222.222222222222,4,2,1,60,0,0
206124,-222.222222222222,4,2,1,5,0,0
207421,-222.222222222222,4,2,1,60,0,0
208394,-95.2380952380952,4,2,1,70,0,0
209935,-95.2380952380952,4,2,1,5,0,0
210016,-95.2380952380952,4,2,1,70,0,0
213664,-95.2380952380952,4,2,1,20,0,0

[Colours]
Combo1 : 174,188,210
Combo2 : 167,216,197
Combo3 : 222,188,165
Combo4 : 236,185,185

[HitObjects]
45,34,2287,5,12,0:2:0:0:
204,142,2449,1,0,1:2:0:0:
34,225,2611,1,0,1:2:0:0:
204,329,2773,2,0,P|244:318|286:316,1,83.9999974365235,10|0,0:2|1:2,0:2:0:0:
469,127,3097,1,0,1:2:0:0:
483,239,3259,6,0,B|448:196|391:207|391:207|367:238|326:227,1,167.999994873047,10|0,0:2|1:2,0:2:0:0:
218,132,3746,2,0,P|229:91|231:49,1,83.9999974365235,14|2,0:2|0:2,0:0:0:0:
115,285,4070,1,2,1:2:0:0:
333,228,4232,6,0,P|327:214|324:199,1,30.0000011444092,8|0,0:1|0:0,0:0:0:0:
24,270,4476,6,0,P|29:256|32:241,1,30.0000011444092,8|0,0:1|0:0,0:0:0:0:
250,353,4719,6,0,P|253:367|258:381,1,30.0000011444092,8|0,0:1|0:0,0:0:0:0:
258,381,5530,6,0,P|279:344|267:299,1,83.9999974365235,6|0,1:2|0:2,0:2:0:0:
315,186,5854,1,8,0:2:0:0:
214,122,6016,2,0,P|174:134|132:141,1,83.9999974365235,2|0,0:2|1:2,0:2:0:0:
78,317,6340,1,2,1:2:0:0:
192,216,6502,1,8,0:2:0:0:
68,90,6665,2,0,P|42:122|47:163,1,83.9999974365235,2|0,1:2|0:2,0:2:0:0:
161,384,6989,2,0,P|186:351|181:310,1,83.9999974365235,2|8,1:2|0:2,0:0:0:0:
279,215,7313,5,2,3:2:0:0:
287,212,7394,1,0,3:2:0:0:
295,210,7475,1,2,1:2:0:0:
353,149,7638,1,2,1:2:0:0:
313,75,7800,1,8,0:2:0:0:
291,322,7962,6,0,B|342:310|342:310|377:263|377:263|439:252,1,167.999994873047,2|0,1:2|1:2,0:2:0:0:
235,151,8448,1,10,0:2:0:0:
187,384,8611,1,2,3:2:0:0:
193,378,8692,1,0,3:2:0:0:
199,373,8773,2,0,L|184:291,1,83.9999974365235,2|0,1:2|1:2,0:2:0:0:
106,72,9097,5,10,0:2:0:0:
14,260,9259,2,0,B|61:268|87:230|61:212|96:166|155:184,1,167.999994873047,2|0,1:2|1:2,0:2:0:0:
278,234,9746,2,0,L|293:316,1,83.9999974365235,10|0,0:2|1:2,0:2:0:0:
145,181,10070,1,2,1:2:0:0:
251,54,10232,1,8,0:3:0:0:
256,59,10313,1,8,0:3:0:0:
262,64,10394,2,0,L|302:73,1,41.9999987182618,4|4,0:3|0:3,0:2:0:0:
396,180,10557,2,0,L|355:170,1,41.9999987182618,8|8,0:2|0:2,0:0:0:0:
255,382,10719,6,0,P|304:344|365:350,1,125.999996154785,6|0,1:2|0:0,0:2:0:0:
365,350,11043,1,10,0:2:0:0:
453,313,11205,2,0,P|475:278|467:238,1,83.9999974365235,2|0,0:2|1:2,0:2:0:0:
279,155,11529,1,2,1:2:0:0:
418,25,11692,1,8,0:2:0:0:
279,155,11854,2,0,L|196:139,1,83.9999974365235,2|0,1:2|0:2,0:2:0:0:
274,360,12178,2,0,P|298:327|292:286,1,83.9999974365235,2|8,1:2|0:2,0:0:0:0:
148,247,12502,5,2,3:2:0:0:
144,254,12584,1,0,3:2:0:0:
140,261,12665,1,2,1:2:0:0:
117,171,12827,1,2,1:2:0:0:
94,81,12989,1,8,0:2:0:0:
280,19,13151,6,0,B|344:42|344:42|361:79|361:79|423:102,1,167.999994873047,2|0,1:2|1:2,0:2:0:0:
300,266,13638,5,10,0:2:0:0:
213,104,13800,1,2,1:2:0:0:
248,374,13962,5,10,0:2:0:0:
341,187,14124,1,0,1:2:0:0:
113,384,14286,5,10,0:2:0:0:
1,223,14448,2,0,B|54:210|84:247|64:271|98:301|148:286,1,167.999994873047,6|8,1:2|0:3,0:2:0:0:
250,149,14935,1,8,0:3:0:0:
177,51,15097,1,8,0:2:0:0:
174,63,15178,1,8,0:2:0:0:
172,75,15259,1,0,1:2:0:0:
319,272,15421,2,0,L|326:230,2,41.9999987182618,8|8|8,0:3|0:3|0:3,0:0:0:0:
248,374,15746,2,0,L|206:366,1,41.9999987182618,8|8,0:3|0:3,0:0:0:0:
37,293,15908,6,0,B|52:193|151:179|233:222|203:318|134:299,1,297.59998819336,4|0,1:2|1:2,0:0:0:0:
214,364,18016,1,2,0:2:0:0:
214,364,18178,2,0,P|244:356|274:355,1,60.0000022888184,2|0,1:2|0:2,0:2:0:0:
277,238,18502,2,0,P|311:283|369:278,1,120.000004577637,2|2,1:2|1:2,0:2:0:0:
442,211,18989,6,0,P|432:151|425:92,1,120.000004577637,2|2,0:2|0:2,0:2:0:0:
335,13,19475,2,0,P|305:20|275:21,1,60.0000022888184,2|0,1:2|0:2,0:2:0:0:
142,72,19799,1,2,1:2:0:0:
235,114,19962,2,0,P|200:68|142:73,1,120.000004577637,2|2,0:2|0:2,0:2:0:0:
105,160,20448,6,0,P|139:205|197:200,1,120.000004577637,2|2,1:2|1:2,0:2:0:0:
268,250,20935,2,0,P|261:279|256:308,1,60.0000022888184,2|0,0:2|1:2,0:2:0:0:
207,373,21259,1,2,0:2:0:0:
207,373,21421,1,2,1:2:0:0:
334,298,21583,2,0,B|382:311|382:311|397:332|397:332|446:342,1,120.000004577637,2|2,0:2|0:2,0:2:0:0:
324,185,22070,1,2,1:2:0:0:
332,187,22394,6,0,P|357:135|330:84,2,120.000004577637,2|2|0,1:2|1:2|1:2,0:2:0:0:
276,257,23205,1,2,0:2:0:0:
220,326,23367,2,0,L|160:318,1,60.0000022888184,2|0,1:2|0:2,0:2:0:0:
0,324,23691,1,2,1:2:0:0:
82,373,23853,2,0,L|67:253,1,120.000004577637,2|2,0:2|0:2,0:2:0:0:
6,191,24340,6,0,B|53:155|53:155|108:180,1,120.000004577637,2|2,1:2|1:2,0:2:0:0:
149,107,24826,2,0,L|268:121,1,120.000004577637,2|2,0:2|0:2,0:2:0:0:
356,86,25313,2,0,P|370:60|367:30,1,60.0000022888184,2|0,1:2|0:2,0:2:0:0:
255,213,25637,6,0,P|259:242|262:272,1,60.0000022888184,2|0,1:2|0:0,0:0:0:0:
320,336,25881,1,2,0:2:0:0:
324,329,25962,2,0,P|353:324|383:321,1,60.0000022888184,0|2,1:2|0:2,0:0:0:0:
187,253,26286,2,0,P|129:243|83:278,1,120.000004577637,2|2,1:2|1:2,0:2:0:0:
0,50,26772,6,0,P|43:105|137:97,1,151.999995941162,10|8,0:2|0:3,0:2:0:0:
188,57,27178,1,8,0:3:0:0:
191,50,27259,1,8,1:3:0:0:
246,112,27421,1,0,1:2:0:0:
335,15,27583,5,8,0:1:0:0:
202,183,27745,1,8,0:1:0:0:
369,333,28232,5,4,1:2:0:0:
439,244,28394,1,2,0:2:0:0:
356,164,28556,2,0,L|282:180,1,75.9999979705811,10|2,0:2|0:3,0:2:0:0:
278,187,28799,1,2,0:3:0:0:
274,193,28881,1,2,1:2:0:0:
196,286,29043,2,0,B|144:274|144:274|116:236|116:236|65:225,1,151.999995941162,2|10,1:2|0:2,0:2:0:0:
7,121,29529,6,0,P|38:100|74:106,1,75.9999979705811,2|2,0:2|1:3,0:2:0:0:
170,80,29772,1,2,0:3:0:0:
163,83,29853,2,0,L|146:8,1,75.9999979705811,8|2,0:2|2:3,0:0:0:0:
140,4,30097,1,2,2:3:0:0:
133,0,30178,1,2,1:2:0:0:
232,143,30340,2,0,L|344:121,1,113.999996955872,2|0,1:2|0:0,0:0:0:0:
419,158,30664,6,0,P|466:214|447:286,1,151.999995941162,10|0,0:2|1:2,0:2:0:0:
269,356,31151,1,10,0:2:0:0:
389,234,31313,1,2,0:3:0:0:
389,234,31394,1,2,0:3:0:0:
389,234,31475,1,2,1:2:0:0:
353,372,31637,2,0,L|337:298,1,75.9999979705811,2|0,1:2|0:2,0:2:0:0:
245,209,31962,6,0,B|204:200|165:224|184:249|151:274|105:264,1,151.999995941162,10|0,0:2|1:2,0:2:0:0:
0,205,32448,2,0,P|7:167|12:130,1,75.9999979705811,10|2,0:2|0:3,0:0:0:0:
9,123,32691,1,2,0:3:0:0:
5,116,32772,1,2,1:2:0:0:
84,185,32935,1,0,1:2:0:0:
0,384,33097,2,0,P|59:340|132:353,1,151.999995941162,10|0,0:2|1:2,0:2:0:0:
320,259,33583,5,2,0:2:0:0:
239,381,33745,2,0,L|226:306,1,75.9999979705811,10|2,0:2|2:3,0:2:0:0:
221,300,33989,1,2,0:3:0:0:
215,294,34070,1,2,1:2:0:0:
367,134,34232,2,0,B|310:145|310:145|289:182|289:182|236:196,1,151.999995941162,2|8,1:2|0:2,0:2:0:0:
114,80,34718,6,0,P|151:88|188:92,1,75.9999979705811,2|0,0:2|1:2,0:2:0:0:
28,176,35043,1,10,0:2:0:0:
126,249,35205,1,2,0:3:0:0:
126,249,35286,1,2,0:3:0:0:
126,249,35367,1,2,1:2:0:0:
40,345,35529,1,2,1:2:0:0:
215,383,35691,2,0,P|230:350|222:313,1,75.9999979705811,2|8,0:2|0:2,0:2:0:0:
367,175,36016,5,2,0:2:0:0:
387,283,36178,2,0,P|350:273|312:268,1,75.9999979705811,2|8,1:2|0:2,0:2:0:0:
286,56,36502,1,2,0:3:0:0:
281,62,36583,1,2,0:3:0:0:
277,68,36664,2,0,P|240:77|202:82,1,75.9999979705811,2|2,1:2|1:2,0:0:0:0:
70,177,36989,1,2,0:2:0:0:
152,324,37151,6,0,B|181:290|173:250|148:257|137:210|177:174,1,151.999995941162,10|0,0:2|1:2,0:2:0:0:
93,62,37637,1,10,0:2:0:0:
241,228,37799,5,8,0:2:0:0:
243,235,37881,1,8,0:2:0:0:
246,241,37962,1,2,1:2:0:0:
328,226,38124,1,8,0:3:0:0:
410,211,38286,1,4,0:3:0:0:
235,372,38448,6,0,B|203:342|161:351|161:351|137:380|102:372,1,136.000002593994,4|4,1:2|0:3,0:2:0:0:
70,177,38935,2,0,P|67:210|59:243,1,68.0000012969971,8|0,0:2|0:2,0:2:0:0:
55,249,39178,1,8,0:3:0:0:
50,254,39259,1,4,0:3:0:0:
2,95,39421,1,10,0:3:0:0:
97,48,39583,2,0,P|130:56|163:58,1,68.0000012969971,8|6,0:2|0:3,0:0:0:0:
251,149,39908,6,0,P|304:110|369:123,1,136.000002593994,2|8,0:3|0:2,0:2:0:0:
453,209,40394,1,10,0:3:0:0:
456,214,40475,1,8,0:3:0:0:
459,220,40556,2,0,L|441:285,1,68.0000012969971,6|4,0:3|0:3,0:2:0:0:
347,349,40881,1,8,0:2:0:0:
268,267,41043,6,0,L|203:285,1,68.0000012969971,6|8,0:3|0:3,0:2:0:0:
81,199,41367,2,0,L|146:181,1,68.0000012969971,6|8,0:3|0:2,0:2:0:0:
314,124,41691,1,8,0:3:0:0:
314,124,41772,1,8,0:3:0:0:
314,124,41853,1,4,0:3:0:0:
244,52,42016,2,0,P|210:50|179:64,1,68.0000012969971,6|8,0:3|0:2,0:2:0:0:
314,124,42340,1,6,0:3:0:0:
202,285,42502,6,0,P|216:218|223:151,1,136.000002593994,2|8,0:3|0:2,0:2:0:0:
371,217,42989,1,8,0:2:0:0:
371,217,43070,1,8,0:2:0:0:
371,217,43151,1,10,0:2:0:0:
300,291,43313,1,8,0:3:0:0:
374,362,43475,1,4,0:3:0:0:
445,288,43637,1,8,0:3:0:0:
223,150,43799,5,6,0:2:0:0:
89,212,45583,5,8,0:3:0:0:
89,212,45664,1,8,0:3:0:0:
89,212,45745,1,8,0:2:0:0:
135,100,45908,1,0,1:2:0:0:
216,5,46070,5,10,0:2:0:0:
262,117,46233,1,2,1:2:0:0:
364,358,46394,5,12,0:2:0:0:
426,267,46557,1,2,1:2:0:0:
343,195,46718,2,0,P|301:201|260:211,1,83.9999974365235,2|10,1:2|0:2,0:0:0:0:
189,366,47043,5,2,1:2:0:0:
100,340,47205,1,2,1:2:0:0:
11,314,47367,1,10,0:2:0:0:
75,139,47529,6,0,P|116:132|157:122,1,83.9999974365235,6|0,1:2|1:2,0:2:0:0:
320,19,47853,1,8,0:1:0:0:
260,211,48016,1,8,0:1:0:0:
287,108,48178,5,2,0:2:0:0:
290,115,48340,5,2,0:2:0:0:
293,122,48502,5,2,0:2:0:0:
414,54,48664,5,2,0:2:0:0:
296,287,48826,6,0,P|249:243|186:252,1,132.00000402832,4|0,1:1|0:0,0:2:0:0:
135,345,49151,2,0,P|177:334|221:331,1,88.000002685547,2|8,1:2|0:2,0:2:0:0:
260,211,49475,1,2,0:2:0:0:
137,123,49637,2,0,P|106:152|105:195,1,88.000002685547,2|2,1:2|1:2,0:0:0:0:
26,118,49962,1,10,0:2:0:0:
192,25,50124,6,0,P|254:46|319:53,1,132.00000402832,2|0,1:2|0:0,0:2:0:0:
388,131,50448,2,0,B|344:121|344:121|310:147,1,88.000002685547,2|8,1:2|0:2,0:2:0:0:
342,263,50772,1,2,3:2:0:0:
337,268,50853,1,0,3:2:0:0:
335,275,50935,2,0,B|379:285|379:285|413:259,1,88.000002685547,2|2,1:2|1:2,0:0:0:0:
400,370,51259,1,10,0:2:0:0:
222,366,51421,6,0,B|127:322|127:322|75:327|91:381,1,176.000005371094,2|0,1:2|1:2,0:2:0:0:
40,165,51908,2,0,P|11:196|15:239,1,88.000002685547,10|2,0:2|3:2,0:2:0:0:
21,243,52151,5,0,3:2:0:0:
28,248,52232,1,2,1:2:0:0:
125,110,52394,1,2,1:2:0:0:
0,26,52556,1,10,0:2:0:0:
99,227,52718,6,0,P|150:188|214:194,1,132.00000402832,2|0,1:2|0:0,0:2:0:0:
215,204,53043,1,2,1:2:0:0:
383,103,53205,2,0,P|350:131|307:136,1,88.000002685547,10|0,0:2|1:2,0:2:0:0:
323,353,53529,2,0,P|355:325|398:320,1,88.000002685547,2|8,1:2|0:2,0:2:0:0:
467,277,53772,1,10,0:2:0:0:
473,280,53853,2,0,P|480:300|483:322,1,44.0000013427735,8|8,0:3|0:3,0:2:0:0:
371,206,54016,5,10,0:2:0:0:
369,198,54097,1,8,0:2:0:0:
369,189,54178,2,0,P|374:145|382:102,1,88.000002685547,6|0,1:2|0:2,0:2:0:0:
432,24,54502,2,0,P|474:16|512:37,1,88.000002685547,10|2,0:2|0:2,0:0:0:0:
299,131,54826,5,2,1:2:0:0:
79,64,55070,5,2,0:2:0:0:
75,57,55151,2,0,P|67:36|65:14,1,44.0000013427735,10|0,0:2|0:2,0:0:0:0:
0,141,55313,2,0,B|56:121|91:156|76:186|111:216|149:202,1,176.000005371094,2|2,1:2|1:2,0:2:0:0:
269,1,55799,2,0,P|295:34|291:77,1,88.000002685547,10|2,0:2|3:2,0:0:0:0:
352,324,56124,5,2,1:2:0:0:
478,235,56286,1,2,1:2:0:0:
338,171,56448,1,10,0:2:0:0:
413,384,56610,2,0,P|439:350|435:307,1,88.000002685547,2|0,1:2|0:2,0:2:0:0:
352,324,56935,5,2,1:2:0:0:
199,245,57097,2,0,P|156:249|117:269,1,88.000002685547,10|0,0:2|1:2,0:2:0:0:
42,105,57421,2,0,P|15:138|20:180,1,88.000002685547,10|0,0:2|1:2,0:2:0:0:
129,162,57745,1,10,0:2:0:0:
253,373,57908,6,0,B|305:360|305:360|339:305|339:305|395:295,1,176.000005371094,6|8,1:2|0:1,0:2:0:0:
283,230,58394,1,8,0:1:0:0:
487,334,58556,5,8,0:2:0:0:
483,341,58637,1,8,0:2:0:0:
479,348,58718,1,8,0:2:0:0:
395,164,58881,5,8,0:2:0:0:
399,157,58962,1,8,0:2:0:0:
403,150,59043,2,0,L|393:107,1,44.0000013427735,8|8,0:3|0:3,0:2:0:0:
407,16,59205,6,0,P|370:68|307:66,1,132.00000402832,4|0,1:1|0:0,0:2:0:0:
222,45,59529,2,0,L|241:130,1,88.000002685547,2|8,1:2|0:2,0:2:0:0:
199,256,59853,1,2,3:2:0:0:
195,263,59934,1,0,3:2:0:0:
190,268,60016,2,0,P|147:278|108:261,1,88.000002685547,2|2,1:2|1:2,0:0:0:0:
155,195,60340,1,10,0:2:0:0:
257,384,60502,6,0,P|312:350|376:359,1,132.00000402832,2|0,1:2|0:0,0:2:0:0:
453,329,60826,2,0,P|477:293|468:252,1,88.000002685547,2|8,1:2|0:2,0:2:0:0:
288,92,61151,1,2,3:2:0:0:
361,39,61313,2,0,P|367:82|374:126,1,88.000002685547,2|2,1:2|1:2,0:0:0:0:
32,95,61637,5,10,0:2:0:0:
0,207,61799,2,0,B|47:156|103:178|103:178|128:212|169:205,1,176.000005371094,6|2,1:2|1:2,0:2:0:0:
242,24,62286,1,10,0:2:0:0:
183,281,62529,5,0,3:2:0:0:
173,283,62610,2,0,P|148:249|154:206,1,88.000002685547,2|0,1:2|1:2,0:0:0:0:
226,155,62853,1,2,0:2:0:0:
236,153,62935,2,0,P|261:187|255:230,1,88.000002685547,10|0,0:2|1:2,0:2:0:0:
160,76,63259,5,10,0:2:0:0:
364,174,63421,1,0,1:2:0:0:
213,315,63583,1,10,0:2:0:0:
415,372,63745,1,8,0:2:0:0:
421,378,63826,1,8,0:2:0:0:
427,384,63908,2,0,L|434:341,1,44.0000013427735,8|8,0:2|0:2,0:0:0:0:
512,219,64070,2,0,L|471:234,1,44.0000013427735,8|8,0:3|0:3,0:2:0:0:
360,255,64232,5,8,0:2:0:0:
354,250,64313,1,8,0:2:0:0:
347,245,64394,2,0,P|339:157|329:69,1,176.000005371094,6|0,1:2|1:2,0:2:0:0:
260,175,64881,1,10,0:2:0:0:
443,66,65043,1,2,3:2:0:0:
443,66,65124,1,0,3:2:0:0:
443,66,65205,1,2,1:2:0:0:
257,184,65367,5,0,1:2:0:0:
151,110,65529,2,0,P|127:74|140:34,1,88.000002685547,10|2,0:2|0:2,0:2:0:0:
132,240,65853,5,2,1:2:0:0:
88,372,66016,2,0,P|152:317|235:336,1,176.000005371094,2|2,1:2|1:2,0:2:0:0:
0,143,66502,2,0,P|36:165|80:167,1,88.000002685547,2|2,0:2|1:2,0:2:0:0:
252,43,66826,2,0,P|230:46|211:56,1,44.0000013427735,10|8,0:2|0:2,0:0:0:0:
253,181,66989,2,0,P|274:177|293:167,1,44.0000013427735,8|8,0:2|0:2,0:0:0:0:
336,86,67151,5,6,1:2:0:0:
342,249,67313,1,2,1:2:0:0:
478,249,67475,5,10,0:2:0:0:
317,384,67637,1,0,1:2:0:0:
253,181,67799,5,10,0:2:0:0:
437,361,67962,1,2,1:2:0:0:
230,317,68124,1,10,0:2:0:0:
152,130,68286,6,0,B|87:132|87:166|25:168,1,132.00000402832,6|0,1:2|0:2,0:2:0:0:
0,101,68610,2,0,L|10:58,1,44.0000013427735,8|0,0:1|0:0,0:0:0:0:
58,245,68772,2,0,L|100:256,1,44.0000013427735,8|0,0:1|0:0,0:0:0:0:
146,333,68935,1,8,0:2:0:0:
149,341,69016,1,8,0:2:0:0:
152,349,69097,1,8,0:2:0:0:
234,175,69259,1,8,0:3:0:0:
234,166,69340,1,8,0:3:0:0:
234,157,69421,2,0,L|217:70,1,88.000002685547,8|4,0:3|0:3,0:0:0:0:
335,240,69745,5,4,1:2:0:0:
146,333,69908,2,0,B|184:340|184:340|185:342|185:342|223:349,1,80,2|0,0:0|1:2,0:0:0:0:
297,369,70151,1,8,0:2:0:0:
304,371,70232,1,8,0:2:0:0:
479,269,70394,1,2,0:2:0:0:
472,271,70475,1,2,0:2:0:0:
465,274,70556,1,2,1:2:0:0:
335,240,70718,1,8,0:2:0:0:
379,113,70881,6,0,B|300:128|300:128|299:131|299:131|223:147,1,160,2|8,0:2|0:2,0:2:0:0:
113,95,71367,2,0,P|90:62|96:24,1,80,2|0,0:0|1:2,0:0:0:0:
15,188,71691,1,8,0:2:0:0:
20,194,71772,1,8,0:2:0:0:
24,200,71853,2,0,L|63:208,1,40,8|8,0:2|0:2,0:0:0:0:
134,310,72016,5,8,0:2:0:0:
149,286,72097,1,8,0:2:0:0:
171,270,72178,1,8,0:2:0:0:
198,263,72259,1,8,0:2:0:0:
226,267,72340,2,0,L|197:383,1,120,6|0,1:2|0:0,0:2:0:0:
191,381,72664,5,2,1:2:0:0:
134,310,72826,1,10,0:2:0:0:
314,225,72989,2,0,L|391:244,1,80,2|0,0:2|1:2,0:2:0:0:
211,63,73313,5,8,0:2:0:0:
276,13,73475,2,0,B|300:45|300:45|289:84,1,80,6|0,1:2|0:2,0:2:0:0:
144,108,73799,2,0,B|120:76|120:76|131:37,1,80,2|8,1:2|0:2,0:2:0:0:
48,223,74124,5,0,3:2:0:0:
52,229,74205,1,0,3:2:0:0:
56,235,74286,1,8,0:2:0:0:
213,375,74448,1,0,1:2:0:0:
218,279,74610,2,0,P|181:294|142:304,1,80,8|0,0:2|1:2,0:0:0:0:
359,383,74935,6,0,P|400:343|459:346,1,120,6|0,1:2|0:2,0:2:0:0:
463,356,75259,1,2,1:2:0:0:
218,279,75421,2,0,P|177:237|180:178,1,120,10|0,0:2|0:2,0:2:0:0:
190,176,75745,1,0,1:2:0:0:
292,42,75908,6,0,B|367:29|372:97|445:77,1,160,14|0,0:2|1:2,0:2:0:0:
285,151,76394,1,10,0:2:0:0:
128,75,76556,2,0,P|146:40|144:0,1,80,2|2,1:2|1:2,0:0:0:0:
66,233,76881,5,8,0:2:0:0:
223,94,77043,1,2,1:2:0:0:
63,244,77205,1,8,0:2:0:0:
124,334,77367,6,0,B|175:302|223:340|208:371|264:417|331:382|313:290|271:304,1,256,6|0,1:2|0:0,0:2:0:0:
274,312,78989,5,8,0:1:0:0:
448,384,79151,1,8,0:1:0:0:
341,212,79475,5,8,0:1:0:0:
124,334,79637,1,8,0:1:0:0:
18,373,79962,6,0,B|67:323|40:259|40:259|0:296,1,167.999994873047,6|0,1:2|1:2,0:2:0:0:
124,334,80448,1,10,0:2:0:0:
174,175,80610,2,0,P|136:194|95:203,1,83.9999974365235,2|0,0:2|1:2,0:2:0:0:
199,5,80935,2,0,P|228:35|229:76,1,83.9999974365235,2|8,1:2|0:2,0:2:0:0:
358,293,81259,6,0,P|320:245|337:187,1,125.999996154785,2|0,1:2|0:0,0:2:0:0:
413,158,81583,2,0,P|450:177|491:186,1,83.9999974365235,2|8,1:2|0:2,0:0:0:0:
322,376,81908,1,2,3:2:0:0:
314,372,81989,1,0,3:2:0:0:
306,368,82070,1,2,1:2:0:0:
259,304,82232,2,0,P|224:281|183:284,1,83.9999974365235,2|8,1:2|0:2,0:2:0:0:
0,158,82556,6,0,B|36:112|88:127|88:127|110:157|151:152,1,167.999994873047,2|0,1:2|1:2,0:2:0:0:
17,50,83043,1,10,0:2:0:0:
102,238,83205,1,2,1:2:0:0:
197,68,83367,5,10,0:2:0:0:
6,251,83529,1,0,1:2:0:0:
260,325,83691,5,10,0:2:0:0:
308,241,83853,2,0,P|385:224|433:288,1,167.999994873047,6|8,1:2|0:1,0:2:0:0:
254,159,84340,1,8,0:1:0:0:
470,59,84502,5,8,0:3:0:0:
465,70,84583,1,8,0:3:0:0:
461,82,84664,1,8,0:2:0:0:
325,45,84826,6,0,L|338:5,2,41.9999987182618,4|4|8,0:3|0:3|0:3,0:0:0:0:
254,159,85151,6,0,B|205:139|152:157|119:229|119:229|151:118|126:58|67:34|10:61|5:145|56:138,1,475.999985473633,4|0,1:2|0:0,0:0:0:0:
61,134,86610,6,0,P|52:96|42:59,1,76.800001875,0|2,1:2|0:2,0:0:0:0:
87,232,87259,6,0,L|28:246,1,60.0000022888184,10|0,0:2|0:0,0:0:0:0:
37,324,87502,2,0,L|124:302,1,90.0000034332277,2|2,0:2|0:2,0:0:0:0:
186,358,87908,2,0,P|214:323|203:281,2,90.0000034332277,2|2|2,0:2|0:2|1:2,0:0:0:0:
236,200,88556,2,0,P|282:217|331:226,1,100.000003814697,10|2,0:2|0:2,0:0:0:0:
502,21,89043,6,0,P|489:27|474:30,1,30.0000011444092,0|2,0:2|0:2,0:0:0:0:
431,90,89205,2,0,P|403:78|374:71,1,60.0000022888184,2|0,1:2|0:2,0:2:0:0:
348,148,89529,2,0,P|375:159|404:166,1,60.0000022888184,2|0,0:2|1:2,0:2:0:0:
313,21,89853,5,10,0:2:0:0:
210,74,90097,5,2,0:2:0:0:
42,189,90340,6,0,L|38:209,2,14.874999546051,2|0|0,0:2|0:2|0:2,0:2:0:0:
102,145,90502,5,2,0:2:0:0:
150,201,90664,2,0,B|129:319,1,120.000004577637,0|0,1:2|1:2,0:2:0:0:
233,193,91151,5,10,0:2:0:0:
371,273,91394,5,2,0:2:0:0:
232,353,91637,5,2,0:2:0:0:
240,355,91799,6,0,B|261:237,1,120.000004577637,2|0,1:2|0:2,0:2:0:0:
271,235,92286,2,0,B|259:293,1,60.0000022888184,0|0,1:2|0:2,0:0:0:0:
119,384,92610,6,0,B|130:325,1,60.0000022888184,2|0,0:2|0:0,0:0:0:0:
109,384,92935,2,0,B|120:325,1,60.0000022888184,2|0,0:2|0:0,0:2:0:0:
0,225,93259,6,0,L|58:239,1,60.0000022888184,2|0,1:2|0:0,0:0:0:0:
126,191,93583,2,0,L|138:132,1,60.0000022888184,2|8,1:2|0:2,0:0:0:0:
209,87,93908,2,0,L|267:101,1,60.0000022888184,2|0,1:2|0:2,0:2:0:0:
346,78,94232,5,2,0:3:0:0:
351,74,94313,1,2,0:3:0:0:
354,69,94394,2,0,P|358:39|348:11,1,60.0000022888184,2|0,1:2|0:0,0:2:0:0:
440,169,94881,6,0,L|424:236,1,60.0000022888184,2|8,1:2|0:2,0:0:0:0:
228,238,95205,2,0,L|293:218,1,60.0000022888184,2|0,0:2|0:0,0:0:0:0:
396,384,95529,2,0,L|345:336,1,60.0000022888184,2|0,0:2|0:0,0:2:0:0:
356,267,95853,1,2,0:2:0:0:
356,267,96016,1,2,0:2:0:0:
237,378,96340,6,0,P|214:359|184:355,1,60.0000022888184,2|0,0:2|0:0,0:0:0:0:
123,301,96664,1,2,0:2:0:0:
123,301,96826,2,0,L|126:286,4,15.0000005722046,2|2|2|2|2,1:3|0:3|0:3|0:3|1:3,0:3:0:0:
30,61,97313,6,0,L|47:126,1,68.0000012969971,2|0,0:2|1:2,0:2:0:0:
54,237,97637,2,0,P|84:202|130:202,1,90.6666683959961,10|2,0:0|0:0,0:0:0:0:
193,143,97962,2,0,L|171:54,1,90.6666683959961,2|2,0:2|0:2,0:0:0:0:
241,8,98286,2,0,P|284:19|329:29,1,90.6666683959961,2|2,0:2|0:0,0:2:0:0:
329,29,98610,1,2,0:2:0:0:
495,132,98826,5,2,0:2:0:0:
491,125,98935,2,0,P|440:122|404:161,1,90.6666683959961,10|2,0:2|0:0,0:2:0:0:
440,215,99259,2,0,B|428:260|428:260|429:263|429:263|418:301,1,90.6666683959961,2|2,0:2|0:0,0:2:0:0:
418,302,99583,1,0,1:2:0:0:
254,380,99908,6,0,P|235:352|242:320,1,68.0000012969971,2|0,0:2|1:2,0:2:0:0:
273,247,100232,2,0,B|266:225|266:225|267:223|267:223|258:196,2,45.3333341979981,10|2|2,0:2|0:2|0:2,0:0:0:0:
330,305,100556,2,0,P|352:342|338:384,1,90.6666683959961,2|2,0:2|0:2,0:2:0:0:
338,384,100881,1,2,0:2:0:0:
432,210,101097,5,2,0:2:0:0:
441,202,101205,2,0,L|425:112,1,90.6666683959961,2|2,0:2|0:2,0:2:0:0:
329,0,101529,2,0,L|313:90,1,90.6666683959961,10|2,0:2|0:2,0:2:0:0:
327,92,101853,2,0,L|339:25,1,68.0000012969971,2|2,0:2|0:2,0:0:0:0:
437,110,102178,6,0,L|450:177,1,68.0000012969971,2|0,1:2|0:0,0:2:0:0:
498,367,102664,6,0,P|470:349|437:349,1,68.0000012969971,2|8,1:2|0:2,0:2:0:0:
429,355,102908,1,2,0:2:0:0:
423,363,102989,2,0,L|356:350,1,68.0000012969971,2|0,0:2|0:0,0:0:0:0:
273,384,103313,2,0,P|254:356|259:323,1,68.0000012969971,2|0,0:2|0:0,0:2:0:0:
265,228,103637,6,0,B|199:218|199:273|133:257,2,136.000002593994,2|2|2,1:2|1:2|1:2,0:0:0:0:
331,138,104610,2,0,P|350:165|345:197,1,68.0000012969971,2|2,0:3|1:2,0:0:0:0:
232,128,104935,2,0,L|244:61,1,68.0000012969971,2|0,0:3|0:2,0:0:0:0:
146,154,105259,6,0,L|112:162,1,34.0000006484985,2|0,1:2|0:2,0:2:0:0:
7,242,105421,6,0,P|-5:241|5:248,2,30.6666672515869,10|2|2,0:2|0:3|0:3,0:3:0:0:
154,237,105637,6,0,P|166:237|155:242,2,30.6666672515869,2|2|2,0:3|0:3|0:3,0:3:0:0:
84,370,105853,6,0,P|81:380|78:367,2,30.6666672515869,2|2|2,0:3|0:3|0:3,0:3:0:0:
81,295,106232,5,2,0:2:0:0:
88,289,106394,5,2,0:2:0:0:
88,279,106556,5,2,0:2:0:0:
80,273,106718,5,2,0:2:0:0:
72,278,106881,5,2,0:2:0:0:
222,370,107043,5,4,0:3:0:0:
315,383,107205,2,0,P|304:346|295:309,1,75.9999979705811,6|0,1:2|0:2,0:2:0:0:
348,171,107529,2,0,P|359:208|368:245,1,75.9999979705811,2|8,1:2|0:2,0:0:0:0:
405,37,107853,5,8,0:3:0:0:
405,37,107935,1,8,0:3:0:0:
405,37,108016,1,0,1:2:0:0:
470,82,108178,2,0,P|489:50|480:14,1,75.9999979705811,0|8,1:2|0:2,0:0:0:0:
348,171,108502,5,0,1:2:0:0:
292,37,108664,2,0,P|283:74|273:110,1,75.9999979705811,2|2,0:2|1:2,0:0:0:0:
174,224,108989,2,0,P|136:229|104:210,1,75.9999979705811,10|0,0:2|0:2,0:2:0:0:
99,204,109232,1,8,0:3:0:0:
95,197,109313,1,2,1:2:0:0:
157,137,109475,1,4,0:3:0:0:
266,345,109637,5,10,0:2:0:0:
200,384,109799,2,0,B|179:351|179:351|193:317,1,75.9999979705811,2|0,1:2|0:2,0:2:0:0:
335,309,110124,2,0,B|356:342|356:342|342:376,1,75.9999979705811,2|8,1:2|0:2,0:0:0:0:
387,220,110448,1,8,0:3:0:0:
387,220,110529,1,8,0:3:0:0:
387,220,110610,1,0,1:2:0:0:
352,122,110772,2,0,L|369:47,1,75.9999979705811,2|8,1:2|0:2,0:2:0:0:
448,127,111097,1,2,1:2:0:0:
508,319,111259,6,0,L|433:302,1,75.9999979705811,8|0,0:3|0:0,0:2:0:0:
231,221,111583,1,10,0:2:0:0:
262,376,111745,5,8,0:2:0:0:
259,369,111826,1,8,0:2:0:0:
256,362,111908,1,10,0:2:0:0:
314,279,112070,1,4,0:3:0:0:
231,221,112232,1,8,0:3:0:0:
173,304,112394,1,4,0:3:0:0:
51,203,112556,6,0,P|11:160|22:103,1,120.000004577637,6|2,1:2|0:3,0:2:0:0:
15,13,113043,2,0,L|73:27,1,60.0000022888184,2|8,1:3|0:2,0:0:0:0:
154,155,113367,2,0,L|95:140,1,60.0000022888184,2|0,0:3|1:2,0:0:0:0:
14,278,113691,6,0,P|56:238|113:249,1,120.000004577637,2|8,0:3|0:2,0:3:0:0:
159,355,114178,1,8,0:3:0:0:
162,362,114259,1,8,0:3:0:0:
165,369,114340,2,0,L|170:335,1,34.0000006484985,8|8,0:2|0:2,0:2:0:0:
225,281,114502,2,0,P|251:261|285:262,1,68.0000012969971,10|0,0:2|1:2,0:2:0:0:
369,329,114826,5,10,0:2:0:0:
369,329,114989,1,2,1:2:0:0:
233,188,115151,6,0,P|241:142|243:96,1,92.0000017547608,12|0,0:2|1:2,0:2:0:0:
41,161,115475,5,2,1:2:0:0:
225,281,115637,1,10,0:2:0:0:
25,377,115799,1,2,1:2:0:0:
92,274,115962,1,2,1:2:0:0:
315,356,116124,6,0,L|360:367,1,46.0000008773804,10|0,0:2|0:0,0:0:0:0:
435,339,116286,6,0,P|479:290|462:226,1,138.000002632141,6|0,1:2|0:2,0:2:0:0:
462,226,116610,6,0,L|417:239,1,46.0000008773804,8|0,0:1|0:0,0:0:0:0:
303,133,116772,2,0,L|347:119,1,46.0000008773804,8|0,0:1|0:0,0:0:0:0:
405,52,116935,5,2,0:2:0:0:
405,52,117097,2,0,L|459:40,1,55.9999982910157,2|2,0:2|0:2,0:0:0:0:
296,248,117583,6,0,B|257:237|257:237|221:189|221:189|184:179,1,138.000002632141,4|0,1:1|0:2,0:2:0:0:
139,115,117908,2,0,P|105:145|110:189,1,92.0000017547608,2|8,1:2|0:2,0:2:0:0:
24,110,118232,1,2,0:2:0:0:
0,335,118394,2,0,P|44:323|89:316,1,92.0000017547608,2|0,1:2|1:2,0:2:0:0:
184,179,118718,5,10,0:2:0:0:
382,384,118881,2,0,P|422:331|401:268,1,138.000002632141,2|0,1:2|0:2,0:2:0:0:
338,219,119205,2,0,P|368:185|412:190,1,92.0000017547608,2|8,1:2|0:2,0:2:0:0:
297,5,119529,1,2,3:2:0:0:
303,11,119610,1,0,3:2:0:0:
309,17,119691,2,0,P|299:62|287:106,1,92.0000017547608,2|0,1:2|1:2,0:2:0:0:
132,271,120016,5,10,0:2:0:0:
52,211,120178,2,0,B|95:158|156:177|156:177|183:210|226:205,1,184.000003509522,2|0,1:2|1:2,0:2:0:0:
436,264,120664,2,0,P|406:298|362:293,1,92.0000017547608,8|2,0:2|3:2,0:0:0:0:
356,287,120908,5,0,3:2:0:0:
351,279,120989,1,2,1:2:0:0:
486,367,121151,1,2,1:2:0:0:
365,182,121313,1,10,0:2:0:0:
265,379,121475,6,0,P|208:343|140:343,1,138.000002632141,2|0,1:2|0:0,0:2:0:0:
138,351,121799,1,2,1:2:0:0:
52,211,121962,2,0,P|18:240|22:284,1,92.0000017547608,10|0,0:2|1:2,0:2:0:0:
194,153,122286,2,0,P|182:108|177:62,1,92.0000017547608,2|8,1:2|0:2,0:2:0:0:
236,0,122529,1,10,0:2:0:0:
244,1,122610,2,0,P|254:21|257:44,1,46.0000008773804,0|0,1:2|1:2,0:2:0:0:
207,244,122772,5,8,0:2:0:0:
208,236,122853,1,8,0:2:0:0:
205,229,122935,2,0,P|173:196|128:194,1,92.0000017547608,6|0,1:2|0:2,0:2:0:0:
90,292,123259,2,0,P|121:324|166:326,1,92.0000017547608,10|2,0:2|0:2,0:0:0:0:
194,153,123583,1,2,1:2:0:0:
345,371,123826,5,2,0:2:0:0:
342,363,123908,2,0,L|352:318,1,46.0000008773804,10|0,0:2|0:0,0:0:0:0:
423,273,124070,2,0,L|388:92,1,184.000003509522,2|2,1:2|1:2,0:2:0:0:
205,0,124556,2,0,P|172:30|175:75,1,92.0000017547608,10|2,0:2|3:2,0:0:0:0:
97,296,124881,5,2,1:2:0:0:
207,151,125043,1,2,1:2:0:0:
27,129,125205,1,10,0:2:0:0:
209,302,125367,2,0,P|241:271|238:226,1,92.0000017547608,2|0,1:2|0:2,0:2:0:0:
388,92,125691,5,2,1:2:0:0:
455,21,125853,2,0,P|409:14|366:0,1,92.0000017547608,10|2,0:0|1:2,0:2:0:0:
327,169,126178,2,0,P|372:175|415:190,1,92.0000017547608,10|2,0:0|1:2,0:2:0:0:
388,92,126502,1,10,0:2:0:0:
287,336,126664,6,0,B|235:343|211:281|240:285|215:223|157:232,1,184.000003509522,6|8,1:2|0:1,0:2:0:0:
42,68,127151,1,8,0:1:0:0:
166,85,127313,5,8,0:2:0:0:
171,92,127394,1,8,0:2:0:0:
173,100,127475,1,8,0:2:0:0:
73,255,127637,5,8,0:2:0:0:
68,248,127718,1,8,0:2:0:0:
66,240,127799,2,0,P|65:217|72:195,1,46.0000008773804,8|8,0:3|0:3,0:2:0:0:
151,361,127962,6,0,P|217:344|286:335,1,138.000002632141,4|0,1:1|0:2,0:2:0:0:
339,274,128286,2,0,P|371:304|370:349,1,92.0000017547608,2|8,1:2|0:2,0:2:0:0:
460,158,128610,1,2,3:2:0:0:
455,163,128691,1,0,3:2:0:0:
450,168,128772,2,0,P|417:137|418:92,1,92.0000017547608,2|2,1:2|1:2,0:0:0:0:
244,1,129097,5,10,0:2:0:0:
278,129,129259,2,0,P|228:84|164:99,1,138.000002632141,2|0,1:2|0:2,0:2:0:0:
116,195,129583,2,0,P|158:178|204:174,1,92.0000017547608,2|8,1:2|0:2,0:2:0:0:
29,346,129908,1,2,3:2:0:0:
35,352,129989,1,0,3:2:0:0:
41,358,130070,2,0,B|68:322|68:322|50:278,1,92.0000017547608,2|2,1:2|1:2,0:0:0:0:
164,99,130394,1,10,0:2:0:0:
269,367,130556,6,0,B|321:355|321:355|352:287|352:287|407:278,1,184.000003509522,6|0,1:2|1:2,0:2:0:0:
512,384,131043,1,10,0:2:0:0:
309,166,131286,5,0,3:2:0:0:
305,173,131367,2,0,P|261:184|226:157,1,92.0000017547608,2|0,1:2|1:2,0:0:0:0:
237,81,131610,1,2,0:2:0:0:
241,74,131691,2,0,P|285:63|320:90,1,92.0000017547608,10|0,0:2|1:2,0:2:0:0:
163,204,132016,5,10,0:2:0:0:
154,201,132097,1,8,0:2:0:0:
148,197,132178,2,0,P|139:177|138:154,1,46.0000008773804,0|2,1:2|0:2,0:0:0:0:
226,157,132340,1,8,0:2:0:0:
124,365,132502,5,8,0:2:0:0:
115,368,132583,1,8,0:2:0:0:
107,372,132664,2,0,L|62:362,1,46.0000008773804,8|8,0:2|0:2,0:0:0:0:
85,275,132826,2,0,L|130:285,1,46.0000008773804,8|8,0:3|0:3,0:2:0:0:
260,356,132988,5,4,0:3:0:0:
264,348,133069,1,4,0:3:0:0:
269,339,133151,2,0,B|370:317|370:317|424:335|392:405,1,184.000003509522,6|2,1:2|1:2,0:2:0:0:
285,208,133637,1,10,0:2:0:0:
484,324,133799,1,2,3:2:0:0:
484,324,133881,1,0,3:2:0:0:
484,324,133962,1,2,1:2:0:0:
485,94,134124,5,0,1:2:0:0:
512,185,134286,2,0,P|468:171|423:161,1,92.0000017547608,10|2,0:2|0:2,0:0:0:0:
285,208,134610,5,2,1:2:0:0:
180,241,134772,2,0,B|208:130|208:130|184:163|148:164,1,184.000003509522,2|0,1:2|1:2,0:2:0:0:
99,362,135259,2,0,P|71:326|79:282,1,92.0000017547608,2|0,0:2|1:2,0:2:0:0:
316,353,135583,2,0,L|360:364,1,46.0000008773804,10|8,0:2|0:2,0:0:0:0:
384,281,135745,2,0,L|339:269,1,46.0000008773804,8|8,0:2|0:2,0:0:0:0:
265,289,135908,5,6,1:2:0:0:
452,208,136070,1,0,1:2:0:0:
277,108,136232,5,10,0:2:0:0:
439,346,136394,1,0,1:2:0:0:
400,17,136556,5,10,0:2:0:0:
204,200,136718,1,0,1:2:0:0:
49,22,136881,5,10,0:2:0:0:
186,58,137043,2,0,B|146:73|146:73|120:118|120:118|80:136,1,138.000002632141,6|0,1:2|0:0,0:2:0:0:
9,110,137367,2,0,P|-4:99|14:104,1,46.0000008773804,8|0,0:1|0:0,0:0:0:0:
95,212,137529,2,0,L|83:256,1,46.0000008773804,8|0,0:1|0:0,0:0:0:0:
35,366,137691,5,8,0:2:0:0:
33,375,137772,1,8,0:2:0:0:
31,384,137853,2,0,L|10:294,1,92.0000017547608,8|0,0:1|0:0,0:0:0:0:
151,310,138097,2,0,L|139:354,1,46.0000008773804,8|0,0:1|0:0,0:0:0:0:
251,383,138340,6,0,B|275:311|364:292|408:379|342:386,1,195.999994018555,12|0,0:2|0:0,0:0:0:0:
343,379,138989,6,0,L|369:213,1,167.999994873047,6|0,1:2|1:2,0:2:0:0:
420,12,139475,2,0,P|445:44|442:85,1,83.9999974365235,8|0,0:2|1:2,0:2:0:0:
436,91,139718,1,0,3:3:0:0:
430,97,139799,1,0,1:2:0:0:
249,162,139962,2,0,P|204:119|142:116,1,125.999996154785,0|0,1:2|0:0,0:2:0:0:
79,165,140286,2,0,P|104:197|144:198,1,83.9999974365235,8|0,0:2|0:0,0:2:0:0:
235,46,140610,1,0,1:2:0:0:
368,231,140772,2,0,P|358:191|352:149,1,83.9999974365235,8|0,0:2|3:0,0:2:0:0:
464,261,141016,5,0,3:2:0:0:
457,255,141097,2,2,B|374:244|388:313|287:293,1,167.999994873047,2|0,1:3|0:2,0:1:0:0:
177,310,141583,2,0,P|153:342|159:383,1,83.9999974365235,8|0,0:2|0:0,0:2:0:0:
229,237,141908,1,0,1:2:0:0:
229,237,142070,1,2,0:2:0:0:
41,163,142232,2,0,P|81:152|122:144,1,83.9999974365235,8|0,0:3|0:2,0:2:0:0:
229,237,142556,5,0,1:2:0:0:
272,35,142718,2,0,P|231:45|190:53,1,83.9999974365235,8|0,0:2|0:2,0:2:0:0:
412,174,143043,1,0,1:2:0:0:
395,77,143205,1,8,0:3:0:0:
387,73,143286,1,8,0:3:0:0:
378,69,143367,2,0,P|365:86|361:106,1,41.9999987182618,8|8,1:3|0:3,0:0:0:0:
499,312,143529,5,4,0:3:0:0:
496,303,143610,1,4,0:3:0:0:
490,295,143691,2,0,B|456:251|395:261|395:261|376:297|332:290,1,167.999994873047,4|0,1:2|1:2,0:2:0:0:
186,340,144178,2,0,P|228:346|263:368,1,83.9999974365235,8|0,0:2|0:0,0:2:0:0:
116,237,144502,1,0,1:2:0:0:
23,374,144664,2,0,P|-2:341|7:302,1,83.9999974365235,8|0,0:2|0:2,0:2:0:0:
225,172,144989,5,0,1:2:0:0:
82,50,145151,1,0,1:2:0:0:
233,176,145313,2,0,L|358:161,1,125.999996154785,8|0,0:2|0:0,0:0:0:0:
425,104,145637,2,0,P|398:72|357:71,1,83.9999974365235,2|0,0:2|1:2,0:2:0:0:
358,281,145962,2,0,P|398:235|458:241,1,125.999996154785,8|0,0:2|0:0,0:0:0:0:
461,249,146286,5,2,1:3:0:0:
200,229,146448,2,0,P|245:269|235:329,1,125.999996154785,0|0,1:2|0:2,0:2:0:0:
142,378,146772,2,0,P|158:339|160:298,1,83.9999974365235,8|0,0:2|0:0,0:2:0:0:
116,47,147097,1,0,1:2:0:0:
45,84,147259,2,0,P|28:122|26:163,1,83.9999974365235,8|8,0:2|0:2,0:2:0:0:
32,170,147502,5,8,0:2:0:0:
37,176,147583,1,0,1:2:0:0:
180,98,147745,2,0,P|206:62|194:15,1,83.9999974365235,8|4,0:3|0:3,0:0:0:0:
200,229,148070,2,0,B|249:214|283:255|264:278|293:312|337:303,1,167.999994873047,4|0,1:2|1:2,0:2:0:0:
446,184,148556,2,0,P|409:203|367:209,1,83.9999974365235,8|0,0:2|0:0,0:2:0:0:
360,205,148799,5,8,0:3:0:0:
352,200,148881,1,4,0:3:0:0:
512,261,149043,1,0,1:2:0:0:
411,379,149205,2,0,P|447:359|489:353,1,83.9999974365235,8|0,0:2|1:2,0:0:0:0:
512,261,149529,1,8,0:3:0:0:
512,261,149691,1,0,1:2:0:0:
288,159,149853,2,0,P|267:125|277:85,1,83.9999974365235,8|0,0:2|0:0,0:2:0:0:
285,82,150097,5,8,0:3:0:0:
292,78,150178,1,4,0:3:0:0:
367,209,150340,1,0,1:2:0:0:
234,314,150502,2,0,L|150:302,1,83.9999974365235,8|0,0:2|1:2,0:0:0:0:
74,368,150826,1,8,0:3:0:0:
74,368,150989,1,0,1:2:0:0:
166,101,151151,2,0,P|187:135|177:175,1,83.9999974365235,8|8,0:2|0:2,0:0:0:0:
171,181,151394,5,8,0:2:0:0:
164,186,151475,1,12,1:2:0:0:
303,384,151637,1,8,0:2:0:0:
295,378,151718,1,8,0:2:0:0:
293,368,151799,1,8,1:2:0:0:
335,216,151962,5,8,0:2:0:0:
367,209,152043,1,8,0:2:0:0:
396,224,152124,1,8,0:3:0:0:
414,252,152205,1,8,0:3:0:0:
437,276,152286,1,8,0:2:0:0:
468,287,152367,1,8,0:2:0:0:
498,271,152448,2,0,P|495:250|487:230,1,41.9999987182618,6|0,1:2|0:0,0:2:0:0:
360,203,152610,5,8,0:2:0:0:
355,198,152691,1,8,0:2:0:0:
349,192,152772,2,0,L|373:146,1,41.9999987182618,8|8,1:2|0:2,0:2:0:0:
231,33,152935,2,0,L|258:76,1,41.9999987182618,8|8,0:2|0:2,0:0:0:0:
423,10,153097,2,0,L|371:11,1,41.9999987182618,8|8,1:2|0:2,0:0:0:0:
340,80,153259,1,8,0:3:0:0:
340,80,153340,1,8,0:3:0:0:
340,80,153421,1,4,0:3:0:0:
231,203,153583,5,4,0:3:0:0:
207,198,153664,1,4,0:3:0:0:
182,193,153745,1,4,1:3:0:0:
157,188,153826,1,4,0:3:0:0:
133,183,153907,1,8,1:3:0:0:
108,178,153988,1,8,0:3:0:0:
83,172,154070,6,0,P|71:110|55:50,1,125.999996154785,4|0,1:2|0:0,0:2:0:0:
60,43,154394,1,0,1:2:0:0:
12,217,154556,2,0,P|71:210|106:259,1,125.999996154785,8|0,0:2|0:0,0:2:0:0:
102,267,154881,1,0,1:2:0:0:
199,359,155043,6,0,B|237:318|289:338|289:338|314:377|354:371,1,167.999994873047,8|0,0:2|1:2,0:2:0:0:
442,291,155475,5,8,0:2:0:0:
508,323,155583,5,8,0:2:0:0:
460,378,155691,6,0,P|445:354|444:326,1,55.9999982910157,8|8,0:2|0:2,0:0:0:0:
455,195,155908,5,8,0:2:0:0:
503,250,156016,5,8,0:2:0:0:
504,119,156178,5,8,0:3:0:0:
496,121,156340,5,4,0:3:0:0:
488,123,156502,5,4,0:3:0:0:
429,70,156664,6,0,P|412:48|432:66,3,80.0000030517579,4|2|2|2,1:2|0:3|0:3|0:3,0:2:0:0:
27,37,167043,6,0,P|84:35|118:81,1,120.000004577637,2|0,1:2|0:2,0:2:0:0:
60,174,167529,1,0,1:2:0:0:
60,174,167691,2,0,P|47:146|43:117,1,60.0000022888184,8|0,0:2|0:0,0:0:0:0:
202,82,168016,2,0,P|214:109|218:138,1,60.0000022888184,2|0,0:2|0:2,0:2:0:0:
281,215,168340,6,0,B|337:203|347:242|398:233,2,120.000004577637,2|0|10,0:2|0:0|0:2,0:0:0:0:
220,281,169232,1,2,0:2:0:0:
271,354,169475,1,2,0:2:0:0:
278,359,169556,1,2,0:0:0:0:
285,364,169637,2,0,B|341:358|341:358|344:361|344:361|408:356,1,120.000004577637,2|0,1:2|0:0,0:2:0:0:
485,207,170124,5,0,1:2:0:0:
397,255,170286,2,0,P|366:216|375:169,1,100.000003814697,10|2,0:2|0:2,0:0:0:0:
509,0,170772,1,2,0:2:0:0:
509,0,170935,2,0,P|481:34|438:39,2,90.0000034332277,2|2|0,0:2|0:0|1:2,0:0:0:0:
337,69,171583,5,10,0:2:0:0:
485,207,171826,1,2,0:2:0:0:
291,266,172070,1,2,0:3:0:0:
287,257,172151,1,2,0:3:0:0:
282,247,172232,2,0,P|231:218|171:216,1,120.000004577637,2|0,1:2|0:2,0:2:0:0:
96,259,172718,2,0,B|59:209|59:209|90:160,1,120.000004577637,2|0,1:2|0:0,0:0:0:0:
245,28,173205,5,2,0:2:0:0:
138,3,173367,2,0,P|160:58|173:117,1,120.000004577637,2|0,0:2|1:2,0:2:0:0:
411,228,174016,5,8,0:3:0:0:
417,224,174097,1,8,0:3:0:0:
424,220,174178,1,10,1:2:0:0:
333,113,174340,1,2,1:2:0:0:
512,204,174502,5,10,0:2:0:0:
409,327,174664,1,2,1:2:0:0:
210,202,174826,5,12,0:2:0:0:
269,262,174989,1,0,1:2:0:0:
243,341,175151,1,2,1:2:0:0:
41,137,175313,6,0,P|77:157|118:163,1,83.9999974365235,10|2,0:2|1:2,0:0:0:0:
320,33,175637,2,0,P|284:13|243:7,1,83.9999974365235,2|10,1:2|0:2,0:0:0:0:
56,228,175962,6,0,L|61:255,3,27.9999991455078,6|0|0|0,1:2|1:2|1:2|1:2,0:2:0:0:
118,163,176286,5,8,0:1:0:0:
0,321,176448,1,8,0:1:0:0:
56,228,176610,6,0,L|61:255,2,27.9999991455078,2|2|2,0:2|0:2|0:2,0:0:0:0:
0,321,177097,1,2,0:2:0:0:
219,384,177259,6,0,P|264:337|327:342,1,132.00000402832,4|0,1:1|0:0,0:2:0:0:
383,283,177583,2,0,P|409:316|405:359,1,88.000002685547,2|8,1:2|0:2,0:2:0:0:
231,268,177908,1,2,0:2:0:0:
364,163,178070,2,0,P|404:180|447:187,1,88.000002685547,2|2,1:2|1:2,0:0:0:0:
175,79,178394,5,10,0:2:0:0:
222,6,178556,2,0,P|268:49|255:111,1,132.00000402832,2|0,1:2|0:0,0:2:0:0:
196,173,178881,2,0,P|155:155|112:148,1,88.000002685547,2|8,1:2|0:2,0:2:0:0:
68,282,179205,1,0,3:2:0:0:
72,289,179286,1,0,3:2:0:0:
76,296,179367,2,0,P|116:313|159:320,1,88.000002685547,2|2,1:2|1:2,0:0:0:0:
19,196,179691,1,10,0:2:0:0:
238,374,179853,6,0,B|281:329|337:349|337:349|361:379|399:378,1,176.000005371094,2|0,1:2|1:2,0:2:0:0:
358,168,180340,2,0,P|324:192|327:235,1,88.000002685547,10|0,0:2|3:2,0:0:0:0:
333,241,180583,1,0,3:2:0:0:
339,246,180664,1,2,1:2:0:0:
427,91,180826,1,2,1:2:0:0:
246,180,180989,1,10,0:2:0:0:
442,358,181151,6,0,P|427:293|420:228,1,132.00000402832,2|0,1:2|0:0,0:2:0:0:
425,223,181475,1,2,1:2:0:0:
238,374,181637,2,0,P|195:363|151:358,1,88.000002685547,10|0,0:2|1:2,0:2:0:0:
0,183,181962,2,0,P|42:193|86:198,1,88.000002685547,2|8,1:2|0:2,0:2:0:0:
142,136,182205,1,10,0:2:0:0:
137,126,182286,2,0,P|118:114|96:112,1,44.0000013427735,8|8,0:3|0:3,0:2:0:0:
17,273,182448,5,8,0:2:0:0:
23,278,182529,1,8,0:2:0:0:
30,282,182610,2,0,L|40:369,1,88.000002685547,6|0,1:2|0:2,0:2:0:0:
227,165,182935,2,0,L|216:77,1,88.000002685547,10|2,0:2|0:2,0:0:0:0:
86,198,183259,1,2,1:2:0:0:
314,352,183502,5,2,0:2:0:0:
319,362,183583,2,0,P|337:373|359:375,1,44.0000013427735,8|0,0:2|0:0,0:0:0:0:
505,230,183745,2,0,B|456:210|418:247|434:273|403:312|360:294,1,176.000005371094,2|2,1:2|1:2,0:2:0:0:
316,106,184232,2,0,P|352:129|395:137,1,88.000002685547,10|2,0:2|3:2,0:0:0:0:
386,44,184556,5,2,1:2:0:0:
284,226,184718,1,2,1:2:0:0:
168,129,184881,1,10,0:2:0:0:
134,332,185043,2,0,P|170:308|213:300,1,88.000002685547,2|0,1:2|0:2,0:2:0:0:
67,206,185367,5,2,1:2:0:0:
11,28,185529,2,0,B|-15:64|-15:64|-1:104,1,88.000002685547,10|0,0:2|1:2,0:2:0:0:
168,129,185853,2,0,B|194:93|194:93|179:52,1,88.000002685547,10|0,0:2|1:2,0:2:0:0:
8,304,186178,5,10,0:2:0:0:
172,384,186340,2,0,P|226:318|310:326,1,176.000005371094,6|8,1:2|0:1,0:2:0:0:
478,379,186826,1,8,0:1:0:0:
389,246,186989,5,8,0:2:0:0:
380,245,187070,1,8,0:2:0:0:
374,249,187151,1,8,0:2:0:0:
371,375,187313,5,8,0:2:0:0:
380,376,187394,1,8,0:2:0:0:
386,372,187475,2,0,P|396:350|397:329,1,44.0000013427735,8|8,0:3|0:3,0:2:0:0:
189,241,187637,6,0,P|201:177|209:111,1,132.00000402832,4|0,1:1|0:0,0:2:0:0:
146,57,187962,2,0,P|170:23|213:23,1,88.000002685547,2|12,1:2|0:2,0:0:0:0:
289,203,188286,1,0,0:2:0:0:
139,317,188448,2,0,P|104:292|104:249,1,88.000002685547,2|2,1:2|1:2,0:0:0:0:
289,203,188772,1,10,0:2:0:0:
390,384,188935,6,0,B|432:370|432:370|448:328|448:328|489:314,1,132.00000402832,2|0,1:2|0:0,0:2:0:0:
449,248,189259,2,0,P|476:215|468:173,1,88.000002685547,2|8,1:2|0:2,0:2:0:0:
324,138,189583,1,2,3:2:0:0:
317,132,189664,1,0,3:2:0:0:
309,128,189745,2,0,P|281:161|289:203,1,88.000002685547,2|2,1:2|1:2,0:0:0:0:
409,68,190070,1,10,0:2:0:0:
214,257,190232,6,0,P|132:228|45:220,1,176.000005371094,6|0,1:2|1:2,0:2:0:0:
107,326,190718,1,10,0:2:0:0:
85,87,190962,5,0,3:2:0:0:
76,85,191043,2,0,P|37:102|25:143,1,88.000002685547,2|8,1:2|0:2,0:0:0:0:
45,220,191286,1,8,0:2:0:0:
54,222,191367,2,0,P|92:204|104:163,1,88.000002685547,10|8,0:2|0:2,0:0:0:0:
104,163,191610,1,8,0:2:0:0:
104,163,191691,1,8,0:2:0:0:
195,10,191854,6,0,P|184:28|180:51,1,44.0000013427735,8|8,0:2|0:2,0:0:0:0:
190,135,192016,1,8,0:2:0:0:
332,32,192178,5,8,0:2:0:0:
339,37,192259,1,8,0:2:0:0:
347,40,192340,2,0,P|358:22|362:-1,1,44.0000013427735,4|4,0:3|0:3,0:0:0:0:
369,119,192502,2,0,P|389:114|408:100,1,44.0000013427735,8|8,0:3|0:3,0:2:0:0:
413,236,192664,5,8,0:2:0:0:
419,232,192745,1,8,0:2:0:0:
422,225,192827,2,0,P|363:169|258:197,1,176.000005371094,6|0,1:2|1:2,0:2:0:0:
213,369,193313,1,10,0:2:0:0:
337,264,193475,1,2,3:2:0:0:
337,264,193556,1,0,3:2:0:0:
337,264,193637,1,2,1:2:0:0:
67,218,193799,5,0,1:2:0:0:
141,155,193962,2,0,P|147:198|160:240,1,88.000002685547,10|2,0:2|0:2,0:0:0:0:
256,71,194286,5,2,1:2:0:0:
20,0,194448,2,0,B|70:-15|105:23|85:43|119:88|164:64,1,176.000005371094,2|2,1:2|1:2,0:2:0:0:
444,34,194935,2,0,P|413:6|370:5,1,88.000002685547,2|0,0:2|1:2,0:2:0:0:
497,233,195259,6,0,P|500:211|508:190,1,44.0000013427735,10|8,0:2|0:2,0:0:0:0:
415,158,195421,2,0,P|411:179|403:200,1,44.0000013427735,8|8,0:2|0:2,0:0:0:0:
478,116,195583,5,6,1:2:0:0:
337,239,195745,1,0,1:2:0:0:
395,366,195908,5,10,0:2:0:0:
195,257,196070,1,2,1:2:0:0:
326,145,196232,5,10,0:2:0:0:
250,379,196394,1,2,1:2:0:0:
335,140,196556,1,10,0:2:0:0:
152,351,196718,6,0,P|108:302|43:309,1,132.00000402832,6|0,1:2|0:2,0:2:0:0:
40,384,197043,2,0,L|82:371,1,44.0000013427735,8|0,0:1|0:0,0:0:0:0:
153,228,197205,2,0,L|195:240,1,44.0000013427735,8|0,0:1|0:0,0:0:0:0:
271,265,197367,1,10,0:2:0:0:
279,267,197448,1,8,0:2:0:0:
287,270,197529,1,8,0:2:0:0:
471,377,197691,1,8,0:3:0:0:
463,379,197772,1,8,0:3:0:0:
455,382,197853,2,0,L|436:295,1,88.000002685547,8|4,0:3|0:3,0:0:0:0:
358,80,198178,5,4,1:2:0:0:
509,204,198340,2,0,P|481:180|444:175,1,75.9999979705811,2|0,0:0|1:2,0:0:0:0:
390,226,198583,1,8,0:2:0:0:
385,232,198664,1,8,0:2:0:0:
231,362,198826,1,2,0:2:0:0:
227,355,198907,1,2,0:2:0:0:
223,348,198989,1,2,1:2:0:0:
42,195,199151,5,8,0:2:0:0:
26,321,199313,2,0,P|74:265|148:269,1,151.999995941162,2|8,0:2|0:2,0:2:0:0:
248,193,199799,2,0,P|262:158|259:120,1,75.9999979705811,2|0,0:0|1:2,0:0:0:0:
141,0,200124,1,8,0:2:0:0:
135,4,200205,1,8,0:2:0:0:
129,7,200286,2,0,P|119:24|114:42,1,37.9999989852906,8|8,0:3|0:3,0:2:0:0:
42,195,200448,5,4,0:3:0:0:
55,172,200529,1,4,0:3:0:0:
77,157,200610,1,4,0:3:0:0:
103,152,200691,1,4,0:3:0:0:
128,159,200772,2,0,B|113:202|113:202|116:227|116:227|103:269,1,113.999996955872,4|0,1:2|0:0,0:2:0:0:
109,274,201097,5,2,1:2:0:0:
182,374,201259,1,10,0:2:0:0:
293,329,201421,2,0,P|311:297|301:261,1,75.9999979705811,2|0,0:2|1:2,0:2:0:0:
403,132,201745,5,10,0:2:0:0:
461,208,201908,2,0,P|424:211|387:222,1,75.9999979705811,6|0,1:2|0:2,0:2:0:0:
249,64,202232,2,0,P|286:61|323:50,1,75.9999979705811,2|8,1:2|0:2,0:2:0:0:
200,182,202556,5,0,3:2:0:0:
196,188,202637,1,0,3:2:0:0:
192,194,202718,1,8,0:2:0:0:
19,337,202881,1,0,1:2:0:0:
90,384,203043,2,0,P|111:351|95:310,1,75.9999979705811,8|2,0:2|0:2,0:0:0:0:
163,97,203367,6,0,P|111:121|55:129,1,113.999996955872,6|0,1:2|0:2,0:2:0:0:
48,123,203691,1,0,1:2:0:0:
306,152,203853,2,0,P|330:203|338:259,1,113.999996955872,10|0,0:2|0:2,0:2:0:0:
332,267,204177,1,2,1:2:0:0:
294,21,204340,6,0,P|338:78|410:69,1,151.999995941162,14|0,0:2|1:2,0:2:0:0:
245,224,204826,1,10,0:2:0:0:
401,316,204989,2,0,P|422:286|418:249,1,75.9999979705811,2|2,1:2|1:2,0:0:0:0:
228,324,205313,5,8,0:2:0:0:
147,344,205475,1,0,1:2:0:0:
66,364,205637,1,8,0:2:0:0:
21,174,205799,6,0,B|53:256|129:271|199:237|196:176|145:122|108:167,1,287.999991210938,6|0,1:2|0:0,0:2:0:0:
117,170,207421,5,8,0:1:0:0:
228,324,207583,1,8,0:1:0:0:
178,87,207908,5,8,0:1:0:0:
22,294,208070,1,8,0:1:0:0:
290,188,208394,6,0,B|337:179|370:215|356:237|387:270|429:258,1,167.999994873047,6|0,1:2|1:2,0:2:0:0:
474,78,208881,1,10,0:2:0:0:
390,15,209043,2,0,P|400:54|379:89,1,83.9999974365235,2|0,0:2|1:2,0:2:0:0:
217,214,209367,2,0,P|206:174|227:139,1,83.9999974365235,2|8,1:2|0:2,0:2:0:0:
268,307,209691,6,0,P|328:322|383:352,1,125.999996154785,2|0,1:2|0:0,0:2:0:0:
451,310,210016,2,0,P|472:344|461:384,1,83.9999974365235,2|8,1:2|0:2,0:0:0:0:
204,373,210340,5,0,3:2:0:0:
200,365,210421,1,0,3:2:0:0:
196,357,210502,1,2,1:2:0:0:
119,298,210664,2,0,L|133:215,1,83.9999974365235,2|8,1:2|0:2,0:2:0:0:
174,46,210989,6,0,B|94:79|94:79|36:73|66:12,1,167.999994873047,2|0,1:2|1:2,0:2:0:0:
271,30,211475,1,10,0:2:0:0:
133,215,211637,1,2,1:2:0:0:
305,285,211799,5,10,0:2:0:0:
174,46,211961,1,0,1:2:0:0:
298,295,212124,5,10,0:2:0:0:
382,355,212286,2,0,B|461:321|461:321|520:328|490:389,1,167.999994873047,6|8,1:2|0:1,0:2:0:0:
364,220,212772,1,8,0:1:0:0:
231,367,212935,1,8,0:2:0:0:
223,363,213016,1,8,0:2:0:0:
215,359,213097,1,8,0:2:0:0:
140,230,213259,2,0,L|178:246,2,41.9999987182618,8|4|4,0:3|0:3|0:3,0:0:0:0:
0,384,213583,5,6,1:2:0:0:
256,192,213664,12,0,215691,0:2:0:0:
