osu file format v14

[General]
AudioFilename: audio.mp3
AudioLeadIn: 0
PreviewTime: 68874
Countdown: 0
SampleSet: Soft
StackLeniency: 0.6
Mode: 0
LetterboxInBreaks: 0
WidescreenStoryboard: 1

[Editor]
Bookmarks: 42656,56083,62796,94684,132446,157620,159299,166012,182795,186152,211327,221397
DistanceSpacing: 1
BeatDivisor: 4
GridSize: 4
TimelineZoom: 1.6

[Metadata]
Title:Inochi no Tabekata (movie ver.)
TitleUnicode:いのちの食べ方 (movie ver.)
Artist:Eve
ArtistUnicode:Eve
Creator:AirinCat
Version:Normal
Source:
Tags:japanese pop jpop rock jrock smile utaite how to eat life
BeatmapID:3073941
BeatmapSetID:1370456

[Difficulty]
HPDrainRate:3
CircleSize:3.4
OverallDifficulty:4
ApproachRate:5.4
SliderMultiplier:1.1
SliderTickRate:1

[Events]
//Background and Video events
0,0,"nyom.jpg",0,0
//Break Periods
2,94882,96900
2,105591,107808
2,159297,164878
2,211524,213542
//Storyboard Layer 0 (Background)
//Storyboard Layer 1 (Fail)
//Storyboard Layer 2 (Pass)
//Storyboard Layer 3 (Foreground)
//Storyboard Layer 4 (Overlay)
//Storyboard Sound Samples

[TimingPoints]
14123,419.58041958042,4,2,1,60,1,0
15801,-100,4,2,1,60,0,0
27549,-111.111111111111,4,2,1,30,0,0
29227,-111.111111111111,4,2,1,40,0,0
35941,-111.111111111111,4,2,1,50,0,0
37619,-111.111111111111,4,2,1,50,0,0
38248,-111.111111111111,4,2,1,50,0,0
40976,-111.111111111111,4,2,1,30,0,0
42654,-105.263157894737,4,2,1,60,0,0
55661,-105.263157894737,4,2,1,60,0,0
56081,-125,4,2,2,40,0,0
65311,-125,4,2,2,50,0,0
65731,-111.111111111111,4,2,2,60,0,0
67829,-111.111111111111,4,2,1,60,0,0
67934,-111.111111111111,4,2,1,5,0,0
68143,-111.111111111111,4,2,1,70,0,0
68248,-111.111111111111,4,2,1,5,0,0
68458,-111.111111111111,4,2,1,70,0,0
69088,-111.111111111111,4,2,1,50,0,0
69192,-100,4,2,1,5,0,0
69297,-100,4,2,1,50,0,0
69402,-100,4,2,1,5,0,0
69507,-90.9090909090909,4,2,1,70,0,1
89647,-90.9090909090909,4,2,2,70,0,1
93004,-90.9090909090909,4,2,2,70,0,1
94682,-100,4,2,1,50,0,0
98039,-111.111111111111,4,2,1,50,0,0
105591,419.58041958042,4,2,1,50,1,0
105591,-111.111111111111,4,2,1,50,0,0
107479,-166.666666666666,4,2,1,50,0,0
108947,-111.111111111111,4,2,1,40,0,0
112304,-105.263157894737,4,2,1,50,0,0
117339,-111.111111111111,4,2,1,40,0,0
119017,-105.263157894737,4,2,1,60,0,0
132024,-125,4,2,1,30,0,0
132444,-125,4,2,2,40,0,0
145870,-125,4,2,3,50,0,0
152584,-125,4,2,2,50,0,0
155101,-125,4,2,2,60,0,0
155940,-111.111111111111,4,2,1,60,0,0
157723,-111.111111111111,4,2,1,5,0,0
157933,-111.111111111111,4,2,1,60,0,0
158038,-111.111111111111,4,2,1,5,0,0
158248,-111.111111111111,4,2,1,60,0,0
166017,419.58041958042,4,2,1,50,1,0
166017,-111.111111111111,4,2,4,56,0,0
166856,-111.111111111111,4,2,4,56,0,0
182793,419.58041958042,4,2,1,50,1,0
182793,-111.111111111111,4,2,4,56,0,0
183632,-111.111111111111,4,2,4,60,0,0
184471,-125,4,2,1,70,0,0
185730,-100,4,2,1,50,0,0
185835,-100,4,2,1,5,0,0
185940,-100,4,2,1,50,0,0
186045,-100,4,2,1,5,0,0
186149,-90.9090909090909,4,2,1,70,0,1
206290,-90.9090909090909,4,2,2,70,0,1
209646,-90.9090909090909,4,2,2,70,0,1
211324,-90.9090909090909,4,2,1,50,0,0
214681,-100,4,2,1,60,0,0
217618,-100,4,2,1,60,0,0
219087,-100,4,2,1,60,0,0
219716,-111.111111111111,4,2,1,50,0,0

[Colours]
Combo1 : 138,101,83
Combo2 : 255,146,94

[HitObjects]
18,265,15381,5,8,0:2:0:0:
110,324,15801,6,0,P|141:317|180:310,1,55,2|2,1:2|3:2,0:0:0:0:
215,332,16220,2,0,P|243:326|282:320,1,55,10|2,0:2|3:2,0:0:0:0:
312,287,16640,2,0,P|304:241|299:193,2,82.5,2|2|2,1:2|0:2|3:2,0:0:0:0:
413,340,17689,1,2,3:2:0:0:
413,340,17899,1,10,0:2:0:0:
496,268,18318,1,2,1:2:0:0:
496,268,18528,2,0,P|487:237|480:207,1,55,2|8,3:2|0:2,0:0:0:0:
402,137,19157,6,0,P|375:145|340:153,1,55,2|2,1:2|3:2,0:0:0:0:
299,126,19577,2,0,P|272:132|245:140,1,55,10|2,0:2|3:2,0:0:0:0:
192,127,19997,2,0,P|184:85|172:38,2,82.5,2|2|2,1:2|0:2|3:2,0:0:0:0:
122,213,21046,1,2,3:2:0:0:
122,213,21255,1,10,0:2:0:0:
229,254,21675,1,2,1:2:0:0:
229,254,21885,2,0,P|232:276|238:315,1,55,2|8,3:2|0:2,0:0:0:0:
156,382,22514,6,0,P|124:370|93:366,1,55,2|2,1:2|3:2,0:0:0:0:
55,338,22934,2,0,P|65:312|73:286,1,55,10|2,0:2|3:2,0:0:0:0:
90,234,23353,2,0,P|48:229|18:195,2,82.5,2|2|2,1:2|0:2|3:2,0:0:0:0:
102,128,24402,1,2,3:2:0:0:
102,128,24612,1,10,0:2:0:0:
207,88,25032,1,2,1:2:0:0:
207,88,25241,2,0,P|240:90|279:98,1,55,2|8,3:2|0:2,0:0:0:0:
362,137,25871,6,0,P|356:163|353:191,1,55,2|2,1:2|3:2,0:0:0:0:
300,207,26290,2,0,P|296:234|290:261,1,55,10|2,0:2|3:2,0:0:0:0:
261,308,26710,2,0,P|313:296|363:330,1,110,2|8,1:2|0:1,0:0:0:0:
393,368,27339,1,2,1:3:0:0:
474,311,27759,6,0,P|468:278|468:254,1,49.4999984893799,2|2,0:2|0:2,0:0:0:0:
403,186,28388,2,0,P|412:156|418:126,1,49.4999984893799,2|2,0:2|0:2,0:0:0:0:
286,65,29227,6,0,P|275:110|263:163,1,98.9999969787599,0|2,1:2|1:2,0:0:0:0:
166,183,30067,2,0,P|126:155|76:170,2,98.9999969787599,2|0|0,1:2|1:2|1:2,0:0:0:0:
102,258,31325,1,2,1:2:0:0:
156,342,31745,2,0,P|201:348|259:363,1,98.9999969787599,0|0,1:2|1:2,0:0:0:0:
332,302,32584,5,2,1:3:0:0:
403,371,33004,1,2,1:3:0:0:
480,309,33423,2,0,P|507:270|492:226,2,98.9999969787599,2|0|0,1:3|1:2|1:2,0:0:0:0:
383,288,34682,2,0,P|376:259|372:218,1,49.4999984893799,2|2,1:3|0:3,0:0:0:0:
375,189,35102,1,2,1:3:0:0:
307,116,35521,1,2,1:3:0:0:
224,174,35941,6,0,P|177:166|115:152,1,98.9999969787599,2|0,1:3|1:2,0:0:0:0:
43,208,36780,2,0,B|36:234|36:234|49:252,1,49.4999984893799,2|0,1:2|0:0,0:0:0:0:
88,282,37199,2,0,B|104:304|104:304|94:323,1,49.4999984893799,2|0,1:2|0:0,0:0:0:0:
76,370,37619,2,0,P|121:354|191:348,1,98.9999969787599,0|0,1:2|1:2,0:0:0:0:
235,271,38458,1,0,1:2:0:0:
311,333,38878,2,0,P|309:359|303:388,2,49.4999984893799,0|2|2,1:2|0:2|1:2,0:0:0:0:
345,297,39507,2,0,P|392:287|431:314,1,98.9999969787599,2|2,0:2|3:2,0:0:0:0:
479,303,40136,1,0,1:2:0:0:
511,209,40556,2,0,P|503:182|500:156,1,49.4999984893799,0|2,1:2|3:2,0:0:0:0:
496,111,40976,5,2,0:2:0:0:
272,37,42654,6,0,B|206:41|236:73|172:77,1,104.499997209549,2|8,1:2|0:2,0:0:0:0:
78,47,43493,1,0,1:2:0:0:
14,130,43913,2,0,P|22:150|28:186,1,52.2499986047745,8|2,0:2|0:2,0:0:0:0:
27,232,44332,2,0,P|59:202|118:213,1,104.499997209549,2|8,1:2|0:2,0:0:0:0:
169,233,44962,1,2,0:2:0:0:
169,233,45171,2,0,P|161:256|155:286,1,52.2499986047745,2|2,1:2|0:2,0:0:0:0:
115,317,45591,1,10,0:2:0:0:
203,372,46011,5,0,1:2:0:0:
298,330,46430,2,0,P|337:323|368:342,2,78.3749979071618,8|2|2,0:2|3:3|0:3,0:0:0:0:
260,294,47269,2,0,P|259:245|282:220,2,78.3749979071618,8|2|2,0:2|3:3|0:3,0:0:0:0:
212,316,48109,2,0,P|162:291|112:309,1,104.499997209549,8|0,0:2|1:2,0:0:0:0:
26,253,48948,6,0,P|6:286|10:324,2,78.3749979071618,8|2|2,0:0|0:3|0:2,0:0:0:0:
64,217,49787,2,0,P|55:181|55:158,1,52.2499986047745,8|2,0:2|3:2,0:0:0:0:
20,126,50206,1,2,1:2:0:0:
92,50,50626,1,8,0:2:0:0:
185,97,51046,2,0,L|234:80,1,52.2499986047745,2|2,1:2|0:2,0:0:0:0:
286,76,51465,2,0,P|255:116|266:165,1,104.499997209549,10|2,0:2|1:2,0:0:0:0:
279,269,52304,2,0,L|350:254,1,52.2499986047745,10|2,0:2|0:2,0:0:0:0:
382,241,52724,5,0,1:2:0:0:
382,241,52934,2,0,P|415:271|402:338,1,104.499997209549,2|2,0:2|3:0,0:0:0:0:
383,371,53563,1,0,1:2:0:0:
281,347,53983,2,0,P|254:353|222:362,1,52.2499986047745,8|2,0:2|0:2,0:0:0:0:
183,336,54402,5,2,1:2:0:0:
89,383,54822,1,10,0:2:0:0:
15,309,55241,1,2,1:2:0:0:
70,220,55661,1,10,0:2:0:0:
170,251,56081,6,0,B|197:228|275:226|286:288|250:296|286:358|340:375|373:348,1,264,4|0,0:1|0:0,0:0:0:0:
448,305,57759,1,2,0:2:0:0:
312,193,58598,1,2,0:2:0:0:
470,117,59437,5,2,0:2:0:0:
441,42,59752,2,0,P|354:2|281:62,1,198,2|0,0:2|0:0,0:0:0:0:
245,141,61116,1,2,0:2:0:0:
368,266,61955,1,2,0:2:0:0:
228,373,62794,6,0,P|186:361|135:348,1,88,8|8,0:2|0:2,0:0:0:0:
77,290,63633,2,0,P|90:244|102:200,1,88,8|8,0:2|0:2,0:0:0:0:
51,132,64472,1,10,0:2:0:0:
108,65,64892,1,10,0:2:0:0:
194,79,65311,1,10,0:2:0:0:
226,161,65731,1,10,0:2:0:0:
173,228,66150,6,0,P|177:249|183:288,1,49.4999984893799,10|8,0:2|0:2,0:0:0:0:
139,304,66570,2,0,P|145:325|149:360,1,49.4999984893799,8|10,0:2|0:2,0:0:0:0:
190,378,66990,2,0,P|210:371|240:365,1,49.4999984893799,10|10,0:2|0:2,0:0:0:0:
282,343,67409,2,0,P|304:349|339:355,1,49.4999984893799,10|10,0:2|0:2,0:0:0:0:
376,336,67829,2,0,P|380:296|390:244,2,74.2499977340699,0|0|0,1:2|1:2|1:2,0:0:0:0:
500,254,69088,2,0,P|502:224|505:199,1,49.4999984893799,2|2,0:2|0:2,0:0:0:0:
475,151,69507,6,0,P|427:110|367:127,1,121.000003692627,6|8,1:2|0:2,0:0:0:0:
261,163,70346,2,0,P|217:158|190:124,2,90.7500027694703,2|2|2,1:2|3:2|3:2,0:0:0:0:
306,211,71185,2,0,P|297:239|295:270,1,60.5000018463135,2|2,1:2|3:2,0:0:0:0:
254,315,71605,2,0,P|201:290|148:315,1,121.000003692627,10|0,0:2|1:2,0:0:0:0:
63,245,72444,1,8,0:2:0:0:
63,245,72654,1,2,3:2:0:0:
63,245,72864,6,0,P|101:201|94:142,1,121.000003692627,2|8,1:2|0:2,0:0:0:0:
91,21,73703,2,0,P|46:18|14:53,2,90.7500027694703,2|2|2,1:2|3:2|3:2,0:0:0:0:
139,56,74542,2,0,P|195:69|235:30,1,121.000003692627,2|8,1:2|0:2,0:0:0:0:
293,6,75171,2,0,P|335:24|421:44,1,121.000003692627,2|0,3:2|3:2,0:0:0:0:
467,53,75801,1,10,0:2:0:0:
482,172,76220,6,0,P|435:207|439:265,1,121.000003692627,2|8,1:2|0:2,0:0:0:0:
416,323,76850,1,2,3:2:0:0:
416,323,77060,2,0,B|360:302|357:356|301:340,1,121.000003692627,2|8,1:2|0:2,0:0:0:0:
251,306,77689,2,0,P|263:274|269:236,1,60.5000018463135,2|0,3:2|1:2,0:0:0:0:
251,189,78109,1,2,3:2:0:0:
136,169,78528,5,2,3:2:0:0:
136,169,78738,2,0,P|87:197|96:254,1,121.000003692627,2|8,1:2|0:2,0:0:0:0:
107,313,79367,2,0,P|139:299|186:292,1,60.5000018463135,2|0,3:2|1:2,0:0:0:0:
221,273,79787,1,2,3:2:0:0:
330,324,80206,2,0,P|324:348|319:401,2,60.5000018463135,2|2|2,3:2|1:2|3:2,0:0:0:0:
380,288,80836,1,10,0:2:0:0:
380,288,81046,1,2,3:2:0:0:
380,288,81255,6,0,P|431:310|483:279,1,121.000003692627,6|8,1:2|0:2,0:0:0:0:
508,223,81885,1,2,3:2:0:0:
399,168,82304,1,10,0:1:0:0:
375,112,82514,1,10,0:1:0:0:
406,60,82724,1,10,0:1:0:0:
356,24,82934,6,0,B|291:19|319:70|244:62,1,121.000003692627,6|8,1:2|0:2,0:0:0:0:
130,94,83773,2,0,P|142:47|148:-3,2,90.7500027694703,2|2|2,1:2|3:2|3:2,0:0:0:0:
119,153,84612,2,0,P|151:160|177:168,1,60.5000018463135,2|2,1:2|3:2,0:0:0:0:
236,184,85032,2,0,P|298:169|346:212,1,121.000003692627,10|0,0:2|1:2,0:0:0:0:
366,328,85871,1,10,0:2:0:0:
366,328,86081,1,2,3:2:0:0:
366,328,86290,6,0,B|300:313|321:365|252:350,1,121.000003692627,2|8,1:2|0:2,0:0:0:0:
152,281,87129,1,2,1:2:0:0:
50,340,87549,1,10,0:2:0:0:
50,340,87759,1,2,3:2:0:0:
50,340,87969,2,0,P|25:287|54:235,1,121.000003692627,2|10,1:2|0:2,0:0:0:0:
56,179,88598,1,2,3:2:0:0:
56,179,88808,1,2,1:2:0:0:
126,80,89227,2,0,P|160:88|188:95,1,60.5000018463135,10|2,0:2|3:2,0:0:0:0:
233,58,89647,5,6,1:2:0:0:
336,120,90067,2,0,L|320:191,1,60.5000018463135,8|2,1:2|3:2,0:0:0:0:
298,234,90486,2,0,P|345:267|346:326,2,121.000003692627,8|8|8,1:2|1:2|1:2,0:0:0:0:
242,225,91535,1,2,3:2:0:0:
242,225,91745,1,10,1:2:0:0:
153,307,92164,1,10,1:2:0:0:
60,229,92584,2,0,P|73:201|79:171,1,60.5000018463135,10|0,1:2|0:0,0:0:0:0:
59,114,93004,6,0,P|118:114|150:58,1,121.000003692627,8|10,1:2|1:2,0:0:0:0:
205,39,93633,1,2,3:2:0:0:
205,39,93843,2,0,L|278:53,1,60.5000018463135,10|0,1:2|3:2,0:0:0:0:
294,103,94262,2,0,L|367:89,1,60.5000018463135,8|0,1:2|3:2,0:0:0:0:
404,112,94682,1,4,1:2:0:0:
128,351,98039,6,0,P|80:339|31:331,1,98.9999969787599,6|2,1:2|1:2,0:0:0:0:
60,236,98878,2,0,P|95:244|137:251,2,74.2499977340699,2|2|2,1:2|0:2|0:2,0:0:0:0:
87,140,99927,2,0,P|115:147|144:150,1,49.4999984893799,2|2,0:2|1:2,0:0:0:0:
219,95,100556,1,2,1:2:0:0:
219,95,100766,2,0,P|246:95|278:102,1,49.4999984893799,2|0,0:2|1:2,0:0:0:0:
345,162,101395,6,0,P|336:208|331:266,1,98.9999969787599,2|2,1:2|1:2,0:0:0:0:
430,261,102234,2,0,P|431:221|441:183,2,74.2499977340699,2|2|2,1:2|0:2|0:2,0:0:0:0:
427,360,103283,2,0,P|396:353|371:351,1,49.4999984893799,2|2,0:2|1:2,0:0:0:0:
291,314,103913,1,2,1:2:0:0:
291,314,104123,2,0,P|263:320|229:323,1,49.4999984893799,2|0,0:2|1:2,0:0:0:0:
87,361,108947,6,0,P|84:311|75:262,1,98.9999969787599,2|2,1:2|1:2,0:0:0:0:
119,174,109786,2,0,P|72:160|30:183,2,98.9999969787599,2|0|0,1:2|1:2|1:2,0:0:0:0:
161,199,110835,2,0,P|188:190|227:183,1,49.4999984893799,2|2,0:2|1:2,0:0:0:0:
279,116,111465,1,2,1:2:0:0:
377,128,111884,1,2,1:2:0:0:
415,225,112304,6,0,P|402:272|394:332,1,104.499997209549,2|0,1:2|1:2,0:0:0:0:
299,371,113143,1,2,1:2:0:0:
218,303,113563,2,0,P|168:292|126:321,1,104.499997209549,2|0,1:2|1:2,0:0:0:0:
77,338,114192,2,0,P|68:305|59:274,1,52.2499986047745,2|0,0:2|1:2,0:0:0:0:
89,186,114821,2,0,P|98:157|103:126,1,52.2499986047745,2|2,1:2|3:2,0:0:0:0:
119,86,115241,2,0,P|80:78|43:61,2,78.3749979071618,2|2|2,1:2|0:2|3:2,0:0:0:0:
215,41,116290,1,2,3:2:0:0:
215,41,116500,1,2,1:2:0:0:
299,102,116919,1,2,1:2:0:0:
246,185,117339,5,2,0:2:0:0:
111,329,119017,6,0,P|161:332|222:348,1,104.499997209549,2|8,1:2|0:2,0:0:0:0:
298,283,119856,1,0,1:2:0:0:
384,342,120276,2,0,P|416:337|451:331,1,52.2499986047745,8|2,0:2|0:2,0:0:0:0:
476,300,120695,2,0,P|490:252|457:207,1,104.499997209549,2|8,1:2|0:2,0:0:0:0:
417,191,121325,1,2,3:2:0:0:
417,191,121535,1,2,1:2:0:0:
317,221,121954,2,0,P|293:212|254:204,1,52.2499986047745,10|0,0:2|3:2,0:0:0:0:
241,160,122374,5,0,1:2:0:0:
136,167,122793,2,0,P|108:193|107:232,2,78.3749979071618,8|2|2,0:0|0:3|0:3,0:0:0:0:
136,114,123632,2,0,P|105:90|66:90,2,78.3749979071618,8|2|2,0:2|0:3|0:3,0:0:0:0:
182,89,124472,2,0,P|242:78|262:33,1,104.499997209549,8|0,0:2|1:2,0:0:0:0:
351,98,125311,6,0,P|343:135|336:183,2,78.3749979071618,8|2|2,0:2|0:3|0:2,0:0:0:0:
391,64,126150,2,0,P|414:71|449:75,1,52.2499986047745,8|2,0:2|3:2,0:0:0:0:
485,104,126570,1,0,1:2:0:0:
506,206,126989,1,8,0:2:0:0:
417,261,127409,2,0,P|368:248|310:238,1,104.499997209549,2|10,1:2|0:2,0:0:0:0:
266,248,128038,1,2,3:2:0:0:
266,248,128248,1,2,1:2:0:0:
203,164,128667,2,0,P|207:130|210:104,1,52.2499986047745,10|0,0:2|0:0,0:0:0:0:
188,69,129087,5,0,1:2:0:0:
188,69,129297,2,0,P|141:42|93:66,1,104.499997209549,2|0,0:2|3:2,0:0:0:0:
57,93,129926,1,0,1:2:0:0:
17,189,130346,2,0,P|23:216|30:251,1,52.2499986047745,8|2,0:2|3:2,0:0:0:0:
51,365,132024,6,0,P|65:359|88:349,1,33,2|2,0:2|0:2,0:0:0:0:
109,308,132444,6,0,P|232:327|374:343,1,264,4|0,1:1|0:0,0:0:0:0:
445,295,134122,1,2,0:2:0:0:
413,121,134961,1,2,0:2:0:0:
237,105,135800,5,2,0:2:0:0:
159,99,136115,2,0,B|130:106|106:138|115:194|153:163|159:227|135:260|111:264,1,198,2|0,0:2|0:0,0:0:0:0:
22,268,137479,1,2,0:2:0:0:
174,356,138318,1,2,0:2:0:0:
347,325,139157,5,2,0:2:0:0:
425,348,139472,2,0,P|479:271|427:194,1,198,2|0,0:2|0:0,0:0:0:0:
347,160,140835,1,2,0:2:0:0:
231,293,141674,1,2,0:2:0:0:
76,208,142514,5,2,0:2:0:0:
64,127,142828,2,0,P|111:47|200:70,1,198,2|0,0:2|0:0,0:0:0:0:
262,132,144192,1,2,0:2:0:0:
414,43,145031,1,2,0:2:0:0:
493,199,145870,6,0,L|478:298,1,88,0|0,1:2|0:0,0:0:0:0:
416,347,146709,1,8,0:2:0:0:
284,353,147339,2,0,P|242:341|198:331,1,88,8|0,0:2|1:2,0:0:0:0:
115,320,148178,1,0,1:2:0:0:
115,320,148388,2,0,P|76:331|47:340,2,66,8|0|8,0:2|1:2|0:2,0:0:0:0:
133,280,149227,6,0,P|120:232|115:190,1,88,0|0,1:2|0:0,0:0:0:0:
38,151,150066,1,8,0:2:0:0:
135,62,150695,2,0,P|180:68|236:75,1,88,8|0,0:2|1:2,0:0:0:0:
302,121,151535,1,0,1:2:0:0:
302,121,151744,2,0,P|310:76|312:44,2,66,8|8|8,0:2|0:2|0:2,0:0:0:0:
272,153,152584,6,0,P|280:196|287:251,1,88,8|8,1:2|1:2,0:0:0:0:
372,254,153423,2,0,P|363:297|357:352,1,88,8|8,1:2|1:2,0:0:0:0:
277,376,154262,1,8,1:2:0:0:
219,309,154681,1,8,1:2:0:0:
138,344,155101,1,8,1:2:0:0:
66,292,155521,1,8,1:2:0:0:
107,209,155940,6,0,P|88:165|106:120,1,98.9999969787599,8|8,1:2|1:2,0:0:0:0:
134,80,156570,1,10,0:2:0:0:
134,80,156779,2,0,P|161:89|200:91,1,49.4999984893799,10|10,0:2|0:2,0:0:0:0:
217,126,157199,2,0,P|244:116|283:115,1,49.4999984893799,10|10,0:2|0:2,0:0:0:0:
307,90,157618,2,0,P|344:102|394:103,2,74.2499977340699,0|0|0,1:2|1:2|1:2,0:0:0:0:
19,290,166017,6,0,B|62:274|97:310|76:317|95:355|143:343,1,148.49999546814,4|0,1:2|1:2,0:0:0:0:
187,321,166856,1,8,0:2:0:0:
263,138,167695,2,0,P|250:107|266:63,2,74.2499977340699,0|0|0,1:2|1:2|1:2,0:0:0:0:
299,171,168534,1,8,0:2:0:0:
474,261,169373,6,0,P|397:269|379:349,1,148.49999546814,0|0,1:2|1:2,0:0:0:0:
375,378,170212,1,8,0:2:0:0:
190,307,171051,2,0,P|157:317|105:329,2,74.2499977340699,0|0|0,1:2|1:2|1:2,0:0:0:0:
235,326,171891,1,8,0:2:0:0:
363,175,172730,6,0,B|359:130|395:111|395:111|414:71|389:42,1,148.49999546814,4|0,1:2|1:2,0:0:0:0:
354,8,173569,1,8,0:2:0:0:
178,98,174408,2,0,P|141:97|113:74,2,74.2499977340699,0|0|0,1:2|1:2|1:2,0:0:0:0:
222,119,175247,1,8,0:2:0:0:
81,258,176086,6,0,P|152:268|169:344,1,148.49999546814,0|0,1:2|1:2,0:0:0:0:
159,382,176926,1,8,0:2:0:0:
340,304,177765,2,0,P|374:312|416:320,2,74.2499977340699,2|0|0,1:2|1:2|1:2,0:0:0:0:
305,268,178604,1,8,0:2:0:0:
236,82,179443,6,0,P|160:99|70:111,1,148.49999546814,4|0,1:2|1:2,0:0:0:0:
40,104,180282,1,8,0:2:0:0:
8,252,180912,1,0,1:2:0:0:
8,252,181121,2,0,P|20:301|32:355,1,98.9999969787599,2|0,0:2|1:2,0:0:0:0:
79,374,181751,1,0,1:2:0:0:
79,374,181961,1,8,0:2:0:0:
168,332,182380,2,0,P|194:338|231:343,1,49.4999984893799,8|0,0:2|1:2,0:0:0:0:
256,315,182793,5,0,1:2:0:0:
317,237,183212,1,2,1:2:0:0:
270,149,183632,1,0,1:2:0:0:
180,190,184051,1,0,1:2:0:0:
93,255,184471,6,0,P|168:280|263:325,1,176,2|0,0:2|0:2,0:0:0:0:
359,285,185730,6,0,P|367:248|380:223,1,55,2|2,0:2|0:2,0:0:0:0:
409,183,186149,6,0,P|353:201|304:169,1,121.000003692627,6|8,1:2|0:2,0:0:0:0:
195,118,186988,2,0,P|208:74|220:21,2,90.7500027694703,2|2|2,1:2|3:2|3:2,0:0:0:0:
146,153,187827,2,0,P|122:142|86:133,1,60.5000018463135,2|2,1:2|3:2,0:0:0:0:
32,156,188247,2,0,P|-1:203|20:257,1,121.000003692627,10|0,0:2|1:2,0:0:0:0:
126,336,189086,1,10,0:2:0:0:
126,336,189296,1,2,3:2:0:0:
126,336,189506,6,0,P|177:317|256:305,1,121.000003692627,2|8,1:2|0:2,0:0:0:0:
349,249,190345,2,0,P|374:282|429:285,2,90.7500027694703,2|2|2,1:2|3:2|3:2,0:0:0:0:
304,208,191184,2,0,P|345:167|338:109,1,121.000003692627,2|8,1:2|0:2,0:0:0:0:
302,60,191813,2,0,P|243:75|173:80,1,121.000003692627,2|0,3:2|3:2,0:0:0:0:
128,54,192443,1,10,0:2:0:0:
34,130,192862,6,0,B|15:188|72:188|55:243,1,121.000003692627,2|8,1:2|0:2,0:0:0:0:
24,297,193492,1,2,3:2:0:0:
24,297,193702,2,0,P|75:292|122:345,1,121.000003692627,2|8,1:2|0:2,0:0:0:0:
175,364,194331,2,0,P|206:351|250:348,1,60.5000018463135,2|0,3:2|1:2,0:0:0:0:
270,300,194751,1,2,3:2:0:0:
383,353,195170,5,2,3:2:0:0:
383,353,195380,2,0,P|417:306|395:253,1,121.000003692627,2|8,1:2|0:2,0:0:0:0:
368,199,196009,2,0,P|340:208|302:215,1,60.5000018463135,2|0,3:2|1:2,0:0:0:0:
263,175,196429,1,2,3:2:0:0:
180,263,196848,2,0,P|188:289|196:325,2,60.5000018463135,2|2|2,3:2|1:2|3:2,0:0:0:0:
141,231,197478,1,10,0:2:0:0:
141,231,197688,1,2,3:2:0:0:
141,231,197897,6,0,P|91:261|40:235,1,121.000003692627,6|8,1:2|0:2,0:0:0:0:
8,183,198527,1,2,3:2:0:0:
53,70,198946,1,10,0:1:0:0:
110,88,199156,1,10,0:1:0:0:
167,68,199366,1,10,0:1:0:0:
210,25,199576,6,0,P|260:53|264:112,1,121.000003692627,6|8,1:2|0:2,0:0:0:0:
270,232,200415,2,0,P|225:234|191:204,2,90.7500027694703,2|2|2,1:2|3:2|3:2,0:0:0:0:
327,213,201254,2,0,P|355:220|388:228,1,60.5000018463135,2|2,1:2|3:2,0:0:0:0:
437,260,201674,2,0,P|487:217|465:154,1,121.000003692627,10|0,0:2|1:2,0:0:0:0:
436,65,202513,1,10,0:2:0:0:
436,65,202723,1,2,3:2:0:0:
436,65,202932,6,0,P|378:78|308:85,1,121.000003692627,2|10,1:2|0:2,0:0:0:0:
216,15,203772,1,2,1:2:0:0:
121,87,204191,1,10,0:2:0:0:
121,87,204401,1,2,3:2:0:0:
121,87,204611,2,0,P|90:136|113:189,1,121.000003692627,2|10,1:2|0:2,0:0:0:0:
168,226,205240,1,2,3:2:0:0:
168,226,205450,1,2,1:2:0:0:
66,288,205869,2,0,P|71:316|78:358,1,60.5000018463135,10|2,0:2|3:2,0:0:0:0:
129,376,206289,5,4,1:2:0:0:
234,316,206709,2,0,P|259:321|303:327,1,60.5000018463135,8|2,1:2|3:2,0:0:0:0:
343,291,207128,2,0,P|378:337|448:322,2,121.000003692627,8|8|8,1:2|1:2|1:2,0:0:0:0:
340,234,208177,1,0,3:2:0:0:
340,234,208387,1,8,1:2:0:0:
432,156,208806,1,10,1:2:0:0:
358,60,209226,2,0,P|331:66|292:69,1,60.5000018463135,10|0,1:2|0:0,0:0:0:0:
238,59,209646,6,0,P|194:101|220:168,1,121.000003692627,10|8,1:2|1:2,0:0:0:0:
255,198,210275,1,2,3:2:0:0:
255,198,210485,2,0,P|247:228|239:263,1,60.5000018463135,10|0,1:2|3:2,0:0:0:0:
181,270,210904,2,0,P|188:300|197:335,1,60.5000018463135,10|0,1:2|3:2,0:0:0:0:
246,361,211324,5,4,1:2:0:0:
225,338,214681,6,0,P|194:330|166:321,1,55,6|2,1:2|3:2,0:0:0:0:
138,279,215100,2,0,P|111:270|85:264,1,55,10|2,0:2|3:2,0:0:0:0:
29,268,215520,2,0,P|18:309|6:347,2,82.5,2|2|2,1:2|0:2|3:2,0:0:0:0:
26,161,216569,1,2,3:2:0:0:
26,161,216779,1,10,0:2:0:0:
110,91,217198,2,0,P|143:101|182:119,1,55,2|2,1:2|3:2,0:0:0:0:
213,150,217618,1,10,0:2:0:0:
213,150,217827,1,2,3:2:0:0:
213,150,218037,6,0,P|262:137|326:132,1,110,2|10,1:2|0:2,0:0:0:0:
431,128,218876,2,0,P|430:87|406:54,2,82.5,2|2|2,1:2|3:2|3:2,0:0:0:0:
412,174,219716,1,2,1:2:0:0:
472,252,220135,1,2,1:2:0:0:
407,327,220555,1,0,1:2:0:0:
330,283,220974,1,2,1:2:0:0:
330,283,221184,1,2,0:2:0:0:
330,283,221394,5,2,0:2:0:0:
