osu file format v14

[General]
AudioFilename: audio.mp3
AudioLeadIn: 0
PreviewTime: 205503
Countdown: 0
SampleSet: Soft
StackLeniency: 0.7
Mode: 0
LetterboxInBreaks: 0
WidescreenStoryboard: 1

[Editor]
Bookmarks: 18556,41711,97382,122852,161509,187281,200268,206610,219496
DistanceSpacing: 1.2
BeatDivisor: 4
GridSize: 8
TimelineZoom: 1.700003

[Metadata]
Title:Dramaturgy
TitleUnicode:ドラマツルギー
Artist:Eve
ArtistUnicode:Eve
Creator:toadnica
Version:Hard
Source:
Tags:
BeatmapID:2225138
BeatmapSetID:966153

[Difficulty]
HPDrainRate:3
CircleSize:4
OverallDifficulty:6.5
ApproachRate:8.2
SliderMultiplier:1
SliderTickRate:1

[Events]
//Background and Video events
0,0,"maxresdefault.jpg",0,0
Video,-1170,"output.avi"
//Break Periods
2,90891,94803
//Storyboard Layer 0 (Background)
//Storyboard Layer 1 (Fail)
//Storyboard Layer 2 (Pass)
//Storyboard Layer 3 (Foreground)
//Storyboard Layer 4 (Overlay)
//Storyboard Sound Samples

[TimingPoints]
490,402.684563758389,4,2,1,80,1,0
11563,-80,4,2,1,80,0,0
11865,-80,4,2,1,5,0,0
11966,-80,4,2,1,80,0,0
12973,-80,4,2,2,80,0,0
13375,-80,4,2,2,100,0,0
15993,-80,4,2,1,100,0,0
16194,-80,4,2,2,100,0,0
19214,-80,4,2,1,100,0,0
19315,-80,4,2,2,100,0,0
22436,-80,4,2,1,100,0,0
22536,-80,4,2,2,100,0,0
24248,-80,4,2,1,80,0,0
24651,-50,4,2,1,80,0,0
24953,-50,4,2,2,80,0,0
25255,-50,4,2,1,80,0,0
25859,-50,4,2,2,50,0,0
26060,-100,4,2,2,50,0,0
26261,-80,4,2,1,80,0,0
38745,-160,4,2,2,80,0,0
38946,-160,4,2,1,80,0,0
39147,-80,4,2,1,80,0,0
51228,-66.6666666666667,4,2,1,80,0,0
51630,-41.6666666666667,4,2,2,46,0,0
52033,-100,4,2,1,80,0,0
55053,-100,4,2,1,80,0,0
56060,-90.9090909090909,4,2,2,80,0,0
56161,-90.9090909090909,4,2,1,80,0,0
56865,-86.9565217391304,4,2,1,80,0,0
57671,-83.3333333333333,4,2,2,80,0,0
57772,-83.3333333333333,4,2,1,80,0,0
58073,-83.3333333333333,4,2,2,80,0,0
58174,-83.3333333333333,4,2,1,80,0,0
60087,-83.3333333333333,4,2,2,80,0,0
60288,-83.3333333333333,4,2,1,80,0,0
60489,-83.3333333333333,4,2,2,80,0,0
60691,-83.3333333333333,4,2,1,80,0,0
60892,-133.333333333333,4,2,2,25,0,0
61094,-250,4,2,2,50,0,0
61295,-250,4,2,2,75,0,0
61496,-250,4,2,2,100,0,0
61698,-66.6666666666667,4,2,2,100,0,1
62100,-66.6666666666667,4,2,1,100,0,1
62201,-66.6666666666667,4,2,2,100,0,1
66731,-83.3333333333333,4,2,2,100,0,1
67335,-66.6666666666667,4,2,2,100,0,1
67939,-71.4285714285714,4,2,2,100,0,1
68141,-66.6666666666667,4,2,2,100,0,1
70355,-66.6666666666667,4,2,2,100,0,1
70557,-66.6666666666667,4,2,2,100,0,1
70859,-54.054054054054,4,2,2,5,0,1
70959,-54.054054054054,4,2,2,100,0,1
71060,-54.054054054054,4,2,2,5,0,1
71161,-54.054054054054,4,2,1,100,0,1
71261,-54.054054054054,4,2,1,5,0,1
71362,-54.054054054054,4,2,2,100,0,1
71966,-54.054054054054,4,2,1,100,0,1
72570,-54.054054054054,4,2,2,100,0,1
72771,-54.054054054054,4,2,1,100,0,1
73778,-54.054054054054,4,2,2,100,0,1
74382,-66.6666666666667,4,2,2,100,0,0
74583,-66.6666666666667,4,2,2,100,0,1
74986,-66.6666666666667,4,2,1,100,0,1
75187,-66.6666666666667,4,2,2,100,0,1
79617,-66.6666666666667,4,2,2,100,0,1
80020,-66.6666666666667,4,2,2,100,0,1
80221,-50,4,2,2,100,0,1
80624,-66.6666666666667,4,2,2,100,0,1
81026,-66.6666666666667,4,2,1,100,0,1
81429,-66.6666666666667,4,2,2,100,0,1
81630,-62.5,4,2,2,100,0,1
83241,-66.6666666666667,4,2,2,100,0,1
84047,-66.6666666666667,4,2,1,100,0,1
84248,-50,4,2,2,100,0,1
84852,-50,4,2,1,100,0,1
85557,-41.6666666666667,4,2,2,5,0,1
85657,-50,4,2,1,100,0,1
86261,-66.6666666666667,4,2,1,100,0,1
86865,-66.6666666666667,4,2,2,100,0,1
87067,-66.6666666666667,4,2,2,75,0,1
87268,-41.6666666666667,4,2,2,50,0,1
87469,-1000,4,2,1,75,0,1
89080,-714.285714285714,4,2,2,75,0,0
90288,-714.285714285714,4,2,2,50,0,0
90691,-714.285714285714,4,2,1,75,0,0
95523,-100,4,2,1,75,0,0
95825,-100,4,2,2,75,0,0
95926,-100,4,2,1,75,0,0
96731,-100,4,2,2,75,0,0
97134,-133.333333333333,4,2,1,75,0,0
104986,-80,4,2,1,75,0,0
108610,-133.333333333333,4,2,1,75,0,0
109617,-50,4,2,1,75,0,0
110020,-50,4,2,2,75,0,0
110422,-80,4,2,2,75,0,0
111228,-66.6666666666667,4,2,2,75,0,0
112032,-80,4,2,2,75,0,0
112838,-66.6666666666667,4,2,2,75,0,0
113643,-80,4,2,2,75,0,0
114449,-66.6666666666667,4,2,2,75,0,0
115557,-66.6666666666667,4,2,2,75,0,0
115758,-80,4,2,2,75,0,0
122503,-41.6666666666667,4,2,2,75,0,0
122704,-41.6666666666667,4,2,1,75,0,0
122906,-100,4,2,1,75,0,0
124315,-100,4,2,2,75,0,0
124818,-100,4,2,1,75,0,0
125926,-100,4,2,1,75,0,0
126127,-100,4,2,1,80,0,0
126530,-66.6666666666667,4,2,1,80,0,0
126932,-66.6666666666667,4,2,2,80,0,0
127033,-66.6666666666667,4,2,1,80,0,0
128543,-66.6666666666667,4,2,2,80,0,0
128644,-66.6666666666667,4,2,1,80,0,0
128945,-66.6666666666667,4,2,2,80,0,0
129046,-66.6666666666667,4,2,1,80,0,0
130959,-66.6666666666667,4,2,2,80,0,0
131160,-66.6666666666667,4,2,1,80,0,0
131361,-66.6666666666667,4,2,2,80,0,0
131563,-66.6666666666667,4,2,1,80,0,0
131764,-66.6666666666667,4,2,2,25,0,0
131765,-250,4,2,2,25,0,0
131966,-250,4,2,2,50,0,0
132067,-250,4,2,2,5,0,0
132167,-250,4,2,30,75,0,0
132369,-250,4,2,30,75,0,0
132469,-250,4,2,1,5,0,0
132570,-66.6666666666667,4,2,2,100,0,1
132973,-66.6666666666667,4,2,1,100,0,1
133174,-66.6666666666667,4,2,2,100,0,1
137603,-83.3333333333333,4,2,2,100,0,1
138207,-54.054054054054,4,2,2,100,0,1
138811,-71.4285714285714,4,2,1,100,0,1
138812,-71.4285714285714,4,2,1,100,0,1
138912,-71.4285714285714,4,2,2,5,0,1
139013,-66.6666666666667,4,2,2,100,0,1
141227,-66.6666666666667,4,2,2,100,0,1
141429,-66.6666666666667,4,2,2,100,0,1
142033,-66.6666666666667,4,2,1,100,0,1
142134,-66.6666666666667,4,2,1,5,0,1
142234,-50,4,2,2,100,0,1
142335,-50,4,2,1,100,0,1
144852,-66.6666666666667,4,2,1,100,0,1
145255,-66.6666666666667,4,2,1,100,0,0
145455,-66.6666666666667,4,2,2,100,0,1
145858,-66.6666666666667,4,2,1,100,0,1
145859,-66.6666666666667,4,2,1,100,0,1
146060,-66.6666666666667,4,2,2,100,0,1
150489,-66.6666666666667,4,2,2,100,0,1
150892,-66.6666666666667,4,2,2,100,0,1
151093,-50,4,2,2,100,0,1
151496,-50,4,2,2,100,0,1
151698,-50,4,2,1,100,0,1
152302,-50,4,2,2,100,0,1
152502,-66.6666666666667,4,2,2,100,0,1
154113,-66.6666666666667,4,2,2,100,0,1
154919,-66.6666666666667,4,2,1,100,0,1
155120,-50,4,2,2,100,0,1
155724,-50,4,2,1,100,0,1
157134,-50,4,2,2,100,0,1
157536,-41.6666666666667,4,2,2,75,0,1
157738,-41.6666666666667,4,2,2,50,0,1
157939,-41.6666666666667,4,2,2,25,0,1
158341,-833.333333333333,4,2,1,75,0,0
158342,-833.333333333333,4,2,1,75,0,0
159953,-714.285714285714,4,2,2,75,0,0
161563,-133.333333333333,4,2,1,75,0,0
172838,-133.333333333333,4,2,2,75,0,0
174047,-54.054054054054,4,2,2,75,0,0
174449,-133.333333333333,4,2,1,75,0,0
185523,-133.333333333333,4,2,2,75,0,0
185724,-250,4,2,2,75,0,0
186932,-80,4,2,2,75,0,0
187335,-80,4,2,1,95,0,0
198610,-133.333333333333,4,2,2,75,0,0
199013,-133.333333333333,4,2,1,75,0,0
199818,-133.333333333333,4,2,2,75,0,0
200221,-100,4,2,1,80,0,0
201026,-100,4,2,2,80,0,0
201127,-100,4,2,1,80,0,0
201228,-90.9090909090909,4,2,1,80,0,0
202033,-86.9565217391304,4,2,1,80,0,0
202637,-86.9565217391304,4,2,2,80,0,0
202738,-86.9565217391304,4,2,1,80,0,0
202839,-83.3333333333333,4,2,1,80,0,0
203039,-83.3333333333333,4,2,2,80,0,0
203140,-83.3333333333333,4,2,1,80,0,0
205053,-83.3333333333333,4,2,2,80,0,0
205254,-83.3333333333333,4,2,1,80,0,0
205455,-83.3333333333333,4,2,2,80,0,0
205657,-83.3333333333333,4,2,1,80,0,0
205859,-250,4,2,2,75,0,0
206664,-500,4,2,1,80,0,0
207469,-500,4,2,2,50,0,0
207570,-500,4,2,1,75,0,0
209080,-437.500000002734,4,2,1,50,0,0
209181,-437.500000002734,4,2,1,75,0,0
209432,-437.500000002734,4,2,1,75,0,0
209483,-41.6666666666667,4,2,1,75,0,0
209885,-66.6666666666667,4,2,2,100,0,1
210288,-66.6666666666667,4,2,1,100,0,1
210489,-66.6666666666667,4,2,2,100,0,1
211698,-66.6666666666667,4,2,2,100,0,1
212302,-66.6666666666667,4,2,2,100,0,1
213106,-66.6666666666667,4,2,2,100,0,1
215322,-66.6666666666667,4,2,2,100,0,1
215523,-66.6666666666667,4,2,2,100,0,1
216127,-66.6666666666667,4,2,1,100,0,1
216228,-66.6666666666667,4,2,1,5,0,1
216328,-50,4,2,2,100,0,1
216932,-50,4,2,1,100,0,1
217536,-50,4,2,2,100,0,1
219349,-66.6666666666667,4,2,2,100,0,0
219550,-66.6666666666667,4,2,2,100,0,1
219953,-66.6666666666667,4,2,1,100,0,1
220154,-66.6666666666667,4,2,2,100,0,1
222771,-66.6666666666667,4,2,1,100,0,1
222973,-66.6666666666667,4,2,2,100,0,1
224584,-83.3333333333333,4,2,2,100,0,1
224987,-54.054054054054,4,2,2,100,0,1
225187,-66.6666666666667,4,2,2,100,0,1
225590,-66.6666666666667,4,2,2,100,0,1
225792,-66.6666666666667,4,2,1,100,0,1
225993,-66.6666666666667,4,2,1,100,0,1
226396,-66.6666666666667,4,2,2,100,0,1
227604,-62.5,4,2,2,100,0,1
229214,-62.5,4,2,1,100,0,1
229215,-41.6666666666667,4,2,1,100,0,1
229617,-41.6666666666667,4,2,2,100,0,1
230825,-55.8659217877095,4,2,2,100,0,1
232436,-833.333333333333,4,2,2,100,0,0
234047,-222.222222222221,4,2,2,62,0,0
234939,450.3,4,2,2,30,1,0
235039,-285.714285714284,4,2,2,30,0,0
235390,500,4,2,2,7,1,0
235390,-333.333333333333,4,2,2,7,0,0

[Colours]
Combo1 : 91,95,223
Combo2 : 117,157,217
Combo3 : 157,234,205
Combo4 : 99,140,234

[HitObjects]
59,337,11563,6,0,B|104:334|104:334|122:322|122:322|191:318,1,125,4|8,3:2|0:0,0:0:0:0:
253,340,12167,1,8,0:0:0:0:
323,315,12369,1,8,0:0:0:0:
386,353,12570,1,8,0:0:0:0:
439,302,12771,6,4,L|451:263,2,31.25,4|4|12,0:3|0:3|0:0,0:3:0:0:
418,153,13375,6,0,L|301:145,1,93.75,4|0,3:2|3:0,0:0:0:0:
290,163,13778,2,0,L|217:170,1,62.5,8|2,0:0|0:0,0:3:0:0:
161,133,14181,1,0,0:0:0:0:
92,174,14382,1,2,3:2:0:0:
15,148,14583,2,0,P|3:190|3:242,1,93.75,8|8,0:0|0:0,0:0:0:0:
14,275,14986,6,0,B|59:275|55:303|106:302,2,93.75,0|0|2,3:0|3:0|0:0,0:0:0:0:
116,305,15792,6,0,L|182:296,1,62.5,0|2,3:0|3:2,0:0:0:0:
249,315,16194,2,0,L|348:305,1,93.75,8|8,0:0|0:0,0:0:0:0:
379,301,16597,6,0,P|379:265|363:228,1,62.5,0|2,3:0|0:0,0:0:0:0:
313,190,17000,2,0,P|303:160|304:129,1,62.5,8|2,0:0|0:0,0:0:0:0:
325,96,17302,1,8,0:0:0:0:
347,58,17402,2,0,L|273:51,1,62.5,0|2,0:0|3:2,0:0:0:0:
229,108,17805,1,8,0:0:0:0:
102,63,18208,6,0,B|90:112|90:112|101:156,2,93.75,0|0|2,3:0|3:0|0:0,0:0:0:0:
123,176,19013,6,0,L|140:246,1,62.5,0|2,3:0|3:2,0:0:0:0:
201,269,19315,1,0,0:0:0:0:
246,254,19416,2,0,L|222:355,1,93.75,8|0,0:0|0:0,0:0:0:0:
216,377,19818,6,0,P|260:365|289:364,1,62.5,0|2,3:0|0:0,0:0:0:0:
379,312,20221,2,0,P|348:308|318:298,1,62.5,8|2,0:0|0:0,0:0:0:0:
373,211,20624,6,0,P|399:194|422:173,1,62.5,0|2,0:0|3:2,0:0:0:0:
464,105,21026,1,8,0:0:0:0:
301,122,21429,6,0,L|199:105,2,93.75,0|0|2,3:0|3:0|0:0,0:0:0:0:
313,136,22134,1,0,0:0:0:0:
324,148,22234,1,0,3:0:0:0:
300,220,22436,1,2,0:0:0:0:
324,290,22637,1,8,0:0:0:0:
188,291,23040,5,0,3:0:0:0:
174,309,23141,2,0,L|165:225,1,62.5,0|0,0:0|3:0,0:0:0:0:
130,181,23543,1,0,0:0:0:0:
153,109,23745,1,8,0:0:0:0:
153,109,23845,2,0,L|145:21,1,62.5,0|2,0:0|3:2,0:0:0:0:
207,0,24248,1,12,0:2:0:0:
302,76,24449,5,0,3:0:0:0:
302,76,24550,1,8,0:0:0:0:
302,76,24651,6,0,P|338:65|462:48,1,150,4|4,3:2|3:2,0:0:0:0:
512,235,25255,2,0,P|464:218|405:212,1,100,4|8,3:2|0:0,0:0:0:0:
284,204,25657,5,2,0:0:0:0:
285,219,25758,1,0,3:0:0:0:
292,232,25859,1,12,0:0:0:0:
399,212,26060,6,0,P|395:192|389:171,1,25
312,103,26261,6,0,L|238:97,1,62.5,4|0,3:2|0:0,0:0:0:0:
241,103,26563,1,0,3:0:0:0:
234,107,26664,2,0,L|160:101,1,62.5,8|0,0:0|3:0,0:0:0:0:
83,55,27067,6,0,P|73:88|74:127,1,62.5,0|0,3:0|3:0,0:0:0:0:
38,185,27469,2,0,P|54:215|82:242,1,62.5,8|0,0:0|0:0,0:0:0:0:
122,305,27872,6,0,P|156:290|200:287,1,62.5,0|0,3:0|0:0,0:0:0:0:
192,286,28174,1,0,3:0:0:0:
202,286,28275,2,0,P|232:291|260:304,1,62.5,8|0,0:0|3:0,0:0:0:0:
340,345,28677,6,0,L|346:275,1,62.5,0|0,0:0|3:0,0:0:0:0:
286,226,29080,2,0,L|280:163,1,62.5,8|0,0:0|0:0,0:0:0:0:
311,77,29483,6,0,B|288:71|288:71|233:80,1,62.5,0|0,3:0|0:0,0:0:0:0:
240,87,29785,1,0,3:0:0:0:
232,95,29885,2,0,B|193:101|193:101|170:95,1,62.5,8|0,0:0|0:0,0:0:0:0:
156,181,30288,6,0,P|147:215|149:254,1,62.5,0|0,0:0|3:0,0:0:0:0:
271,275,30691,2,0,P|250:251|235:224,1,62.5,8|0,0:0|0:0,0:0:0:0:
330,193,31094,6,0,P|369:176|442:186,1,93.75,0|0,3:0|3:0,0:0:0:0:
445,193,31496,2,0,L|453:125,1,62.5,8|0,0:0|0:0,0:0:0:0:
431,59,31899,1,0,3:0:0:0:
356,79,32100,1,0,3:0:0:0:
283,45,32302,1,8,0:0:0:0:
283,45,32503,5,2,0:0:0:0:
205,97,32704,6,0,L|196:196,1,93.75,0|0,3:0|3:0,0:0:0:0:
188,223,33107,2,0,L|152:283,1,62.5,8|0,0:0|0:0,0:0:0:0:
307,276,33510,2,0,L|273:214,1,62.5,0|0,0:0|3:0,0:0:0:0:
199,356,33912,2,0,L|268:357,1,62.5,8|0,0:0|0:0,0:0:0:0:
388,272,34315,6,0,P|377:237|353:212,1,62.5,0|0,3:0|3:0,0:0:0:0:
221,188,34718,2,0,P|256:195|289:187,1,62.5,8|0,0:0|3:0,0:0:0:0:
376,90,35120,2,0,P|351:117|341:149,1,62.5,0|0,3:0|3:0,0:0:0:0:
442,167,35523,1,8,0:0:0:0:
359,70,35724,6,0,B|330:61|298:77|305:89|269:101|224:84,1,125,0|0,3:0|0:0,0:0:0:0:
239,268,36530,2,0,B|269:255|305:267|298:279|330:295|359:286,1,125,0|0,3:0|3:0,0:0:0:0:
358,286,37134,1,8,0:0:0:0:
451,340,37335,6,0,P|458:292|410:205,1,125
418,212,37838,1,2,3:2:0:0:
407,199,37939,2,0,P|380:143|385:81,1,125,8|0,0:0|3:0,0:0:0:0:
436,25,38543,5,0,3:0:0:0:
362,7,38745,1,4,0:0:0:0:
273,55,38946,1,2,0:0:0:0:
273,55,39047,1,8,0:0:0:0:
273,55,39147,6,0,L|193:47,1,62.5,4|0,3:2|0:0,0:0:0:0:
198,53,39449,1,0,3:0:0:0:
187,56,39550,2,0,L|107:48,1,62.5,8|0,0:2|0:0,0:0:0:0:
85,152,39953,6,0,P|120:137|160:136,1,62.5,0|0,3:0|3:0,0:0:0:0:
199,192,40355,2,0,P|234:206|263:233,1,62.5,8|0,0:0|3:0,0:0:0:0:
222,296,40758,6,0,P|237:331|238:371,1,62.5,0|0,3:0|0:0,0:0:0:0:
308,287,41060,1,0,3:0:0:0:
308,287,41161,2,0,P|326:262|351:243,1,62.5,8|0,0:0|0:0,0:0:0:0:
253,221,41563,6,0,P|248:190|235:161,1,62.5,0|0,3:0|3:0,0:0:0:0:
177,113,41966,1,8,0:0:0:0:
107,139,42167,1,0,0:0:0:0:
30,88,42369,6,0,L|16:203,1,93.75,0|0,3:0|3:0,0:0:0:0:
36,207,42771,2,0,L|42:275,1,62.5,8|0,0:0|0:0,0:0:0:0:
105,313,43073,1,8,0:0:0:0:
114,304,43174,2,0,L|119:241,1,62.5,0|0,3:0|3:0,0:0:0:0:
166,175,43577,2,0,L|160:112,1,62.5,8|0,0:0|0:0,0:0:0:0:
157,97,43879,1,0,0:0:0:0:
157,85,43979,6,0,P|188:76|232:80,1,62.5,0|0,3:0|0:0,0:0:0:0:
317,118,44382,2,0,P|286:131|254:161,1,62.5,8|0,0:0|0:0,0:0:0:0:
257,178,44684,1,8,0:0:0:0:
257,178,44785,1,0,0:0:0:0:
288,248,44986,1,0,3:0:0:0:
268,328,45187,1,8,0:0:0:0:
268,328,45389,5,2,0:0:0:0:
303,239,45590,6,0,B|341:230|370:245|367:255|395:266|430:260,1,125,0|8,3:0|0:0,0:0:0:0:
423,260,46194,1,0,0:0:0:0:
480,183,46396,2,0,P|446:153|451:69,1,125,0|8,3:0|0:0,0:0:0:0:
261,112,47201,6,0,P|207:94|127:89,1,125,0|8,3:0|0:0,0:0:0:0:
139,88,47805,1,0,3:0:0:0:
112,196,48006,2,0,P|148:185|181:181,2,62.5,0|0|8,0:0|3:0|0:0,0:0:0:0:
168,294,48610,6,0,P|209:268|294:246,1,125
293,247,49114,1,0,3:0:0:0:
303,248,49214,2,0,L|309:177,1,62.5,8|0,0:0|0:0,0:0:0:0:
291,157,49516,2,0,L|284:55,1,93.75,8|0,0:0|3:0,0:0:0:0:
230,7,50020,1,8,0:0:0:0:
169,51,50221,6,0,P|136:43|31:49,1,125,0|8,0:0|0:0,0:0:0:0:
46,181,50825,5,8,0:0:0:0:
48,170,50926,2,0,P|73:147|101:132,1,62.5,0|8,3:0|0:0,0:0:0:0:
259,193,51429,5,0,3:0:0:0:
246,298,51630,1,12,0:0:0:0:
246,298,52033,6,0,L|212:291,2,25,10|8|8,3:2|0:0|0:0,0:0:0:0:
319,260,52335,1,2,3:2:0:0:
191,156,52838,6,0,L|225:149,2,25,10|8|8,3:2|0:0|0:0,0:0:0:0:
118,118,53140,1,2,3:2:0:0:
56,302,53644,6,0,P|71:293|97:282,2,25,10|8|8,3:2|0:0|0:0,0:0:0:0:
105,363,53946,1,2,3:2:0:0:
347,136,54449,6,0,P|332:145|306:156,2,25,10|8|8,3:2|0:0|0:0,0:0:0:0:
298,75,54751,1,2,3:2:0:0:
144,190,55053,1,8,3:2:0:0:
144,190,55154,1,8,0:0:0:0:
144,190,55255,6,8,L|206:185,1,50,12|8,3:2|0:0,0:0:0:0:
265,222,55657,2,8,L|332:230,1,50,8|8,3:2|0:0,0:0:0:0:
385,186,55959,1,8,3:2:0:0:
385,186,56060,6,8,P|380:152|385:124,1,55.0000016784668,12|8,3:2|3:2,0:0:0:0:
444,262,56463,2,8,P|449:296|444:324,1,55.0000016784668,8|8,3:2|3:2,0:0:0:0:
369,373,56865,6,0,L|306:368,1,57.5000010967255,12|8,3:2|3:2,0:0:0:0:
229,318,57268,2,0,L|166:323,1,57.5000010967255,8|8,3:2|3:2,0:0:0:0:
157,321,57570,1,8,0:0:0:0:
149,312,57671,6,0,B|136:291|136:291|140:243,1,59.9999981689454,12|8,3:2|3:2,0:0:0:0:
192,173,58073,2,0,B|205:152|205:152|201:104,1,59.9999981689454,12|8,3:2|3:2,0:0:0:0:
135,57,58476,6,0,L|98:60,7,29.9999990844727,12|8|8|8|12|8|8|8,3:2|0:0|0:0|0:0|3:2|0:0|0:0|0:0,0:0:0:0:
52,160,59281,6,8,L|49:123,3,29.9999990844727,12|8|8|8,3:2|0:0|0:0|0:0,0:0:0:0:
129,227,59684,2,8,L|126:197,3,29.9999990844727,12|8|8|8,3:2|0:0|0:0|0:0,0:0:0:0:
198,283,60087,6,0,L|185:323,1,29.9999990844727,12|8,3:2|0:0,0:0:0:0:
267,236,60288,2,0,L|286:273,1,29.9999990844727,8|8,3:2|0:0,0:0:0:0:
291,156,60489,6,0,L|331:169,1,29.9999990844727,12|8,3:2|0:0,0:0:0:0:
247,87,60691,2,0,L|284:67,1,29.9999990844727,8|8,3:2|0:0,0:0:0:0:
163,89,60892,6,0,P|163:72|171:39,3,37.5000014305115,6|2|2|2,0:0|0:0|0:0|0:0,0:0:0:0:
10,138,61698,6,0,P|45:127|103:127,1,75.0000028610231,4|2,3:2|0:0,0:0:0:0:
164,193,62100,2,0,L|179:283,1,75.0000028610231,12|2,0:0|0:0,0:0:0:0:
258,273,62402,1,8,0:0:0:0:
266,265,62503,6,0,B|313:255|331:299|391:282,2,112.500004291535,0|0|2,3:0|0:0|0:0,0:0:0:0:
259,250,63208,2,0,P|250:233|243:216,1,37.5000014305115,8|0,0:0|3:0,0:0:0:0:
213,135,63510,5,2,0:0:0:0:
245,38,63711,1,8,0:0:0:0:
189,120,63912,1,2,0:0:0:0:
113,57,64114,6,0,B|55:55|52:86|-3:88,2,112.500004291535,0|0|2,3:0|3:0|0:0,0:0:0:0:
196,144,64919,6,0,L|185:228,1,75.0000028610231,0|2,3:0|0:0,0:0:0:0:
286,110,65322,2,0,L|331:169,1,75.0000028610231,8|2,0:0|0:0,0:0:0:0:
385,234,65624,1,8,0:0:0:0:
397,248,65724,6,0,P|346:246|283:285,2,112.500004291535,0|0|2,3:0|0:0|0:0,0:0:0:0:
452,312,66429,1,8,0:0:0:0:
452,312,66530,1,0,3:0:0:0:
475,205,66731,6,0,L|468:157,3,29.9999990844727,2|0|8|0,0:0|0:0|0:0|0:0,0:0:0:0:
456,155,67134,2,0,L|459:120,1,29.9999990844727,2|8,0:0|0:0,0:0:0:0:
473,98,67335,6,0,L|463:12,1,75.0000028610231,0|2,3:0|0:0,0:0:0:0:
380,67,67738,2,0,L|258:77,1,112.500004291535,8|0,0:0|0:0,0:0:0:0:
241,95,68141,6,0,B|160:108|187:142|100:153,1,150.000005722046,4|8,3:2|0:0,0:0:0:0:
21,123,68745,2,0,P|16:144|14:162,2,37.5000014305115,2|8|0,0:0|0:0|3:0,0:0:0:0:
57,230,69147,2,0,P|78:266|85:306,1,75.0000028610231,2|8,0:0|0:0,0:0:0:0:
159,233,69550,6,0,P|172:193|191:160,1,75.0000028610231,2|0,0:0|3:0,0:0:0:0:
272,179,69953,2,0,P|309:159|346:150,1,75.0000028610231,2|8,0:0|0:0,0:0:0:0:
408,263,70355,6,0,P|372:248|337:243,1,75.0000028610231,2|0,0:0|3:0,0:0:0:0:
349,149,70758,2,0,P|334:112|312:84,1,75.0000028610231,8|8,0:0|0:0,0:0:0:0:
236,30,71161,1,2,0:0:0:0:
104,112,71362,6,0,P|169:97|266:29,1,184.999999294281,4|0,3:2|3:0,0:0:0:0:
365,21,71966,6,0,B|366:58|353:89|353:89|359:109|359:109|344:148|344:215,1,184.999999294281,10|10,0:0|0:2,0:0:0:0:
344,201,72570,1,0,3:0:0:0:
252,266,72771,6,0,P|207:230|69:251,1,184.999999294281,12|8,0:0|0:1,0:0:0:0:
43,308,73375,1,8,0:0:0:0:
83,231,73577,2,0,L|73:184,2,46.2499998235703,2|8|8,0:0|0:0|3:2,0:0:0:0:
111,113,73979,6,0,L|120:60,3,46.2499998235703,8|8|8|8,3:2|0:0|3:2|0:0,0:0:0:0:
154,41,74382,2,0,L|202:6,1,37.5000014305115,8|8,3:2|0:0,0:0:0:0:
265,37,74583,6,0,P|308:49|346:75,1,75.0000028610231,4|2,3:2|0:0,0:0:0:0:
409,128,74986,2,0,P|373:138|341:158,1,75.0000028610231,12|2,0:2|0:0,0:0:0:0:
424,265,75389,5,0,3:0:0:0:
412,274,75489,2,0,B|335:267,1,75.0000028610231
307,284,75792,2,0,B|230:277,1,75.0000028610231,8|2,0:1|0:0,0:0:0:0:
146,234,76194,1,0,3:0:0:0:
63,260,76396,6,0,P|58:241|59:219,1,37.5000014305115,2|0,0:0|0:0,0:0:0:0:
103,162,76597,2,0,P|112:145|129:130,3,37.5000014305115,8|0|2|8,0:0|0:0|0:0|0:0,0:0:0:0:
204,145,77000,1,0,3:0:0:0:
217,155,77100,2,0,B|280:156|276:187|338:187,1,112.500004291535,0|8,0:0|0:0,0:0:0:0:
414,141,77604,1,2,0:0:0:0:
475,252,77805,6,0,P|436:232|394:229,1,75.0000028610231,0|2,3:0|0:0,0:0:0:0:
333,266,78208,2,0,P|318:307|321:349,1,75.0000028610231,8|2,0:0|0:0,0:0:0:0:
241,297,78510,1,8,0:0:0:0:
232,308,78610,6,0,L|104:292,2,112.500004291535,0|0|10,3:0|0:0|0:0,0:0:0:0:
241,297,79315,1,8,0:0:0:0:
252,287,79416,1,0,3:0:0:0:
229,208,79617,6,0,L|221:167,3,37.5000014305115,2|0|8|0,0:0|0:0|0:0|0:0,0:0:0:0:
239,138,80020,1,2,0:0:0:0:
174,70,80221,5,0,3:0:0:0:
106,126,80422,1,2,0:0:0:0:
148,42,80624,2,0,L|244:34,1,75.0000028610231,8|2,0:0|0:2,0:0:0:0:
394,72,81026,6,0,P|351:98|272:179,1,150.000005722046,4|12,3:2|0:0,0:0:0:0:
325,235,81630,2,0,P|325:263|330:286,2,40,10|8|0,0:0|0:0|3:0,0:0:0:0:
241,236,82033,1,2,0:0:0:0:
163,221,82234,2,0,P|202:227|241:236,1,80,8|2,0:0|0:0,0:0:0:0:
107,289,82637,5,0,3:0:0:0:
163,209,82838,2,0,P|160:168|153:126,1,80,2|8,0:0|0:0,0:0:0:0:
93,67,83241,2,0,P|140:43|235:106,1,150.000005722046,2|2,0:0|3:2,0:0:0:0:
341,124,83845,2,0,P|303:146|281:175,1,75.0000028610231,8|2,0:0|0:0,0:0:0:0:
397,260,84248,6,0,B|379:120|379:120|392:60,1,200,4|0,3:2|3:0,0:0:0:0:
391,62,84852,5,10,0:0:0:0:
207,141,85255,1,10,0:0:0:0:
242,63,85456,1,0,3:2:0:0:
204,157,85657,6,0,B|238:218|242:289|242:289|244:252|260:218,1,200,12|8,0:2|0:1,0:0:0:0:
397,260,86261,6,0,P|357:257|318:290,1,75.0000028610231,8|0,0:0|0:0,0:0:0:0:
325,285,86563,1,8,0:0:0:0:
323,297,86664,6,0,L|307:216,1,75.0000028610231,0|4,3:0|0:3,0:0:0:0:
265,161,87067,2,0,L|281:80,1,75.0000028610231,4|4,0:3|0:3,0:0:0:0:
297,14,87469,5,4,3:2:0:0:
215,370,89080,5,4,3:2:0:0:
297,14,90288,5,4,3:2:0:0:
256,193,90691,5,4,3:2:0:0:
112,213,95523,6,0,P|136:203|167:196,1,50,4|0,3:2|0:0,0:0:0:0:
164,187,95825,2,0,P|189:183|221:184,1,50,4|0,3:2|3:0,0:0:0:0:
220,173,96127,2,0,P|245:176|276:185,1,50,4|0,3:2|0:0,0:0:0:0:
343,230,96530,5,0,3:0:0:0:
358,227,96630,1,0,0:0:0:0:
376,222,96731,2,0,L|371:163,1,50,4|0,3:2|0:0,0:0:0:0:
329,56,97033,5,0,3:0:0:0:
321,46,97134,2,0,L|313:129,1,75.0000028610231,4|0,3:2|3:0,0:0:0:0:
198,120,97939,2,0,L|191:46,1,75.0000028610231,0|0,3:0|3:0,0:0:0:0:
313,263,98745,2,0,L|321:338,1,75.0000028610231,0|0,3:0|3:0,0:0:0:0:
191,338,99550,2,0,L|198:263,1,75.0000028610231,0|0,3:0|3:0,0:0:0:0:
47,191,100154,1,0,0:0:0:0:
47,191,100255,1,0,0:0:0:0:
47,191,100355,6,0,P|77:180|121:174,3,75.0000028610231,0|0|0|0,3:0|3:0|3:0|3:0,3:0:0:0:
294,58,101966,2,0,P|256:53|221:41,3,75.0000028610231,0|0|0|0,3:0|3:0|3:0|3:0,0:0:0:0:
129,2,103375,1,0,0:0:0:0:
154,81,103577,6,0,L|146:127,1,37.5000014305115,0|0,3:0|0:0,0:0:0:0:
211,166,103979,2,0,L|217:202,1,37.5000014305115,0|0,3:0|0:0,0:0:0:0:
291,236,104382,2,0,L|284:272,2,37.5000014305115,0|0|0,3:0|0:0|3:0,0:0:0:0:
369,185,104986,6,0,L|499:178,1,125,0|0,0:0|0:0,3:0:0:0:
414,80,105590,1,0,3:0:0:0:
420,91,105792,2,0,L|283:96,1,125
228,63,106396,1,0,3:0:0:0:
177,122,106597,1,0,0:0:0:0:
116,74,106798,6,0,P|153:48|240:76,1,125,0|0,3:0|3:0,0:0:0:0:
260,138,107402,2,0,P|260:178|251:206,1,62.5,0|0,0:0|0:0,3:0:0:0:
195,298,107805,2,0,P|187:267|265:211,1,125
322,251,108409,5,0,0:0:0:0:
370,189,108610,2,0,L|366:228,1,37.5000014305115
381,178,108912,1,0,0:0:0:0:
388,169,109013,6,0,L|384:130,1,37.5000014305115,0|0,0:0|3:0,0:0:0:0:
348,65,109416,1,0,0:0:0:0:
276,116,109617,5,8,0:0:0:0:
181,76,109818,5,0,0:0:0:0:
181,76,110020,2,0,P|168:99|167:138,3,50,4|0|0|0,3:2|0:0|0:0|0:0,0:0:0:0:
175,127,110422,2,0,P|228:128|252:197,1,125,8|0,0:0|3:0,0:0:0:0:
257,198,110926,2,0,L|373:187,1,93.75,0|8,0:0|0:0,0:0:0:0:
425,209,111429,1,0,0:0:0:0:
375,265,111630,6,0,L|329:269,3,37.5000014305115,0|0|0|0,0:0|0:0|0:0|0:3,0:0:0:0:
390,293,112033,2,0,L|259:302,1,125,8|0,0:0|3:3,0:3:0:0:
255,303,112536,2,0,P|257:255|221:212,1,93.75,0|8,0:3|0:0,0:0:0:0:
157,207,113040,1,0,0:3:0:0:
166,121,113241,6,0,L|166:79,3,37.5000014305115,0|0|0|0,3:3|0:3|0:0|0:3,0:3:0:0:
166,71,113644,2,0,B|218:66|218:66|281:121,1,125,8|0,0:0|3:0,0:3:0:0:
281,126,114147,2,0,P|319:120|370:150,1,93.75,0|8,0:0|0:0,0:0:0:0:
354,223,114651,1,0,0:3:0:0:
375,302,114852,6,0,P|337:303|325:300,3,37.5000014305115,0|0|0|0,3:0|0:0|0:0|0:0,0:0:0:0:
411,282,115255,2,0,P|429:280|448:283,3,37.5000014305115,8|0|0|0,0:0|0:0|0:0|0:0,0:0:0:0:
458,288,115657,2,0,P|467:244|455:185,1,75.0000028610231,0|0,3:0|0:0,0:0:0:0:
407,134,116060,2,0,P|372:127|327:136,1,62.5,8|0,0:0|0:0,0:0:0:0:
278,184,116463,5,0,0:0:0:0:
226,116,116664,2,0,L|218:251,1,125
147,300,117268,2,0,L|139:175,1,125,0|8,0:0|0:0,0:0:0:0:
85,119,117872,2,0,L|81:87,1,31.25,0|8,0:0|0:0,0:0:0:0:
81,78,118073,6,0,P|131:62|214:89,1,125,0|8,3:0|0:0,0:0:0:0:
277,63,118677,2,0,P|310:83|343:88,1,62.5,0|0,0:0|3:0,0:0:0:0:
405,146,119080,2,0,P|374:153|348:170,1,62.5,0|8,0:0|0:0,0:0:0:0:
414,236,119483,6,0,P|376:219|282:252,1,125
297,237,120087,1,8,0:0:0:0:
217,270,120288,2,0,P|219:235|207:194,1,62.5,0|0,0:0|3:0,0:0:0:0:
186,136,120690,2,0,P|171:103|142:72,1,62.5,0|8,0:0|0:0,0:0:0:0:
81,28,121094,6,0,L|77:63,1,31.25,4|4,0:3|0:3,0:0:0:0:
77,70,121295,1,4,0:3:0:0:
32,201,121496,5,0,3:0:0:0:
40,188,121597,2,0,P|81:194|112:209,1,62.5,8|0,3:2|3:0,0:0:0:0:
131,220,121899,2,0,P|159:250|173:281,1,62.5,8|4,3:2|0:3,0:0:0:0:
176,299,122201,6,0,L|169:341,1,31.25,4|4,0:3|0:3,0:0:0:0:
256,191,122503,5,12,0:0:0:0:
403,323,122906,6,0,P|406:311|415:296,2,25,14|8|8,3:2|0:0|0:0,0:0:0:0:
384,286,123208,2,0,P|402:263|413:224,1,50,2|8,3:2|0:0,0:0:0:0:
416,217,123510,1,0,3:0:0:0:
328,166,123711,2,0,P|325:154|316:139,2,25,10|8|8,3:2|0:0|0:0,0:0:0:0:
347,129,124013,2,0,P|329:106|318:67,1,50,2|8,3:2|0:0,0:0:0:0:
315,60,124315,1,2,3:2:0:0:
187,132,124516,6,0,L|155:122,2,25,8|10|8,3:2|0:0|0:0,0:0:0:0:
189,111,124818,2,0,L|126:86,1,50,2|8,3:2|0:0,0:0:0:0:
114,80,125120,1,0,3:0:0:0:
2,122,125322,6,0,L|34:132,2,25,10|8|8,3:2|0:0|0:0,0:0:0:0:
0,143,125624,2,0,L|63:168,1,50,2|0,3:2|0:0,0:0:0:0:
75,174,125926,1,8,0:0:0:0:
197,290,126127,6,8,L|255:278,1,50,12|8,3:2|0:0,0:0:0:0:
257,272,126429,1,8,0:0:0:0:
267,267,126530,2,8,P|338:248|396:313,1,150.000005722046,8|12,3:2|3:2,0:0:0:0:
446,228,127134,1,8,0:0:0:0:
408,152,127335,1,8,3:2:0:0:
468,82,127536,2,8,L|427:72,1,37.5000014305115
421,61,127738,6,0,L|337:38,1,75.0000028610231,12|8,3:2|0:2,0:0:0:0:
302,126,128141,2,0,L|218:149,1,75.0000028610231,8|8,3:2|0:2,0:0:0:0:
215,152,128443,1,8,0:0:0:0:
206,164,128543,2,8,P|200:206|203:251,1,75.0000028610231,12|8,3:2|0:0,0:0:0:0:
119,291,128845,1,8,0:0:0:0:
119,291,128946,2,8,P|119:253|114:216,1,75.0000028610231,12|8,3:2|0:0,0:0:0:0:
42,133,129349,6,0,L|-12:138,3,37.5000014305115,12|8|8|8,3:2|0:0|0:0|0:0,0:0:0:0:
112,76,129751,2,8,L|166:81,3,37.5000014305115,12|8|8|8,3:2|0:0|0:0|0:0,0:0:0:0:
62,150,130154,2,0,L|8:155,3,37.5000014305115,12|8|8|8,3:2|0:0|0:0|0:0,0:0:0:0:
132,93,130556,2,8,L|186:98,3,37.5000014305115,12|8|8|8,3:2|0:0|0:0|0:0,0:0:0:0:
79,163,130959,6,0,L|25:168,1,37.5000014305115,12|8,3:2|0:0,0:0:0:0:
149,106,131161,2,0,L|203:111,1,37.5000014305115,8|8,0:0|0:0,0:0:0:0:
256,172,131362,2,8,L|293:168,1,37.5000014305115,12|8,3:2|0:0,0:0:0:0:
363,111,131564,2,0,L|400:114,1,37.5000014305115
475,170,131765,5,0,3:0:0:0:
501,371,132167,5,4,0:0:0:0:
412,278,132570,2,0,B|387:261|361:250|361:250|334:254|297:268,1,112.500004291535,4|0,3:2|3:0,0:0:0:0:
278,275,132973,2,0,P|268:227|248:184,1,75.0000028610231,12|2,0:0|0:0,0:0:0:0:
258,202,133275,1,0,0:0:0:0:
258,202,133375,1,0,3:0:0:0:
296,116,133577,5,8,0:1:0:0:
253,34,133778,1,8,0:1:0:0:
196,121,133979,2,0,L|159:109,1,37.5000014305115,2|8,0:0|0:0,0:0:0:0:
185,131,134181,6,0,L|87:101,1,75.0000028610231,0|2,3:0|0:0,0:0:0:0:
80,208,134483,1,0,0:0:0:0:
80,208,134583,2,0,L|178:238,1,75.0000028610231,8|2,0:0|0:0,0:0:0:0:
236,205,134885,5,8,0:0:0:0:
268,230,134986,2,0,L|311:243,2,37.5000014305115,0|0|2,3:0|0:0|0:0,0:0:0:0:
379,289,135389,2,0,P|389:252|381:206,1,75.0000028610231,8|2,0:0|0:0,0:0:0:0:
401,115,135792,6,0,B|433:120|436:141|479:147,1,75.0000028610231,0|2,3:0|0:0,0:0:0:0:
419,12,136194,2,0,B|386:16|383:37|351:42,1,75.0000028610231,8|2,0:0|0:0,0:0:0:0:
299,119,136496,1,8,0:0:0:0:
287,139,136597,2,0,L|224:128,1,37.5000014305115,0|0,3:0|0:0,0:0:0:0:
181,93,136798,1,2,0:0:0:0:
117,168,137000,2,0,P|134:208|137:246,1,75.0000028610231,8|2,0:0|0:0,0:0:0:0:
146,254,137302,2,0,P|145:235|143:216,1,37.5000014305115,8|0,0:0|3:0,0:0:0:0:
41,123,137604,6,0,L|27:161,3,29.9999990844727,2|0|8|0,0:0|0:0|0:0|0:0,0:0:0:0:
120,151,138006,2,0,L|106:189,1,29.9999990844727,2|8,0:0|0:0,0:0:0:0:
49,232,138208,2,0,L|-4:362,2,138.749999470711,0|0|2,3:0|0:0|0:0,0:0:0:0:
107,325,139013,6,0,L|267:303,1,150.000005722046,4|8,3:2|0:0,0:0:0:0:
352,255,139617,2,0,P|332:245|306:236,2,37.5000014305115,2|8|0,0:0|0:0|3:0,0:0:0:0:
455,307,140020,2,0,P|447:269|427:221,1,75.0000028610231,2|8,0:0|0:0,0:0:0:0:
332,165,140422,6,0,L|315:253,1,75.0000028610231,2|0,0:0|3:0,0:0:0:0:
428,132,140825,2,0,L|413:58,1,75.0000028610231,2|8,0:0|0:0,0:0:0:0:
354,203,141228,6,0,L|442:220,1,75.0000028610231,2|0,0:0|3:0,0:0:0:0:
299,69,141631,2,0,L|225:83,1,75.0000028610231,8|8,0:0|0:0,0:0:0:0:
171,173,142033,1,2,0:0:0:0:
15,106,142234,6,0,B|44:84|82:84|82:84|110:132|56:224,1,200,4|0,3:2|3:0,0:0:0:0:
6,340,142838,2,0,P|85:296|192:342,1,200,10|10,0:0|0:0,0:0:0:0:
182,330,143443,1,0,3:0:0:0:
316,348,143644,6,0,B|286:286|286:286|295:145,1,200,12|8,0:2|0:0,0:0:0:0:
296,155,144248,1,8,0:0:0:0:
214,185,144449,1,2,0:0:0:0:
131,139,144651,1,8,3:2:0:0:
131,139,144852,6,8,L|123:88,1,37.5000014305115,8|8,3:2|0:0,0:0:0:0:
214,185,145053,2,8,L|206:234,1,37.5000014305115,8|8,3:2|0:0,0:0:0:0:
295,154,145255,2,0,L|285:90,1,37.5000014305115,8|8,3:2|0:0,0:0:0:0:
392,149,145456,6,0,B|397:220|347:206|357:311,1,150.000005722046,4|12,3:2|0:0,0:0:0:0:
197,324,146261,1,0,3:0:0:0:
197,324,146362,2,0,L|189:201,1,112.500004291535,0|8,0:0|0:1,0:0:0:0:
127,142,146865,2,0,P|161:122|216:115,1,75.0000028610231,2|0,0:0|3:0,0:0:0:0:
273,166,147268,5,2,0:0:0:0:
359,127,147469,1,8,0:0:0:0:
434,180,147671,1,2,0:0:0:0:
437,192,147771,1,8,0:0:0:0:
442,207,147872,2,0,L|430:323,2,112.500004291535,0|0|2,3:0|0:0|0:0,0:0:0:0:
339,242,148677,6,0,P|300:232|254:237,1,75.0000028610231,0|2,3:0|0:0,0:0:0:0:
254,335,149080,2,0,P|290:344|327:342,1,75.0000028610231,8|2,0:0|0:0,0:0:0:0:
405,307,149382,1,8,0:0:0:0:
422,322,149483,2,0,P|436:266|423:187,2,112.500004291535,0|0|10,3:0|0:0|0:0,0:0:0:0:
339,242,150288,5,0,3:0:0:0:
339,242,150489,2,0,P|300:232|254:237,1,75.0000028610231,2|8,0:0|0:0,0:0:0:0:
138,323,150993,1,8,0:0:0:0:
126,328,151094,6,0,B|107:281|107:281|126:229,1,100,0|2,3:0|3:2,0:0:0:0:
221,178,151496,2,0,B|237:224|237:224|218:271,1,100,8|2,0:0|0:0,0:0:0:0:
125,122,151899,5,4,3:2:0:0:
265,54,152302,1,12,0:0:0:0:
310,135,152503,1,0,0:0:0:0:
310,135,152704,2,0,P|348:120|394:114,1,75.0000028610231,0|2,3:0|0:0,0:0:0:0:
324,232,153107,2,0,P|287:218|248:212,1,75.0000028610231,8|2,0:0|0:0,0:0:0:0:
166,261,153510,1,0,3:0:0:0:
131,177,153711,1,2,0:0:0:0:
100,99,153912,1,8,0:0:0:0:
27,172,154114,6,0,L|4:265,1,75.0000028610231,2|0,0:0|3:0,0:0:0:0:
90,311,154516,2,0,L|120:402,1,75.0000028610231,2|8,3:2|0:0,0:0:0:0:
166,261,154919,1,2,0:0:0:0:
273,335,155120,6,0,B|271:208|313:253|317:126,1,200,4|0,3:2|3:0,0:0:0:0:
265,65,155724,1,10,0:0:0:0:
306,137,155926,1,0,3:0:0:0:
255,47,156127,1,10,0:0:0:0:
315,154,156329,1,0,3:0:0:0:
207,141,156530,6,0,L|1:123,1,200,12|8,0:0|0:0,0:0:0:0:
86,243,157134,2,0,L|194:228,1,100,8|8,0:0|0:0,0:0:0:0:
209,254,157436,1,8,0:0:0:0:
235,279,157536,1,0,3:0:0:0:
203,344,157737,5,4,0:3:0:0:
132,332,157939,1,4,0:3:0:0:
120,261,158140,1,4,0:3:0:0:
185,229,158342,5,4,3:2:0:0:
300,343,159953,1,4,3:2:0:0:
121,93,161161,5,8,0:2:0:0:
121,93,161563,6,0,L|178:88,2,56.2500021457673,6|0|0,3:2|0:0|3:0,0:0:0:0:
188,182,162369,2,0,L|131:187,2,56.2500021457673,10|0|0,0:0|0:0|3:0,0:0:0:0:
137,279,163174,2,0,L|194:274,2,56.2500021457673,2|0|0,3:2|0:0|0:0,0:0:0:0:
261,224,163979,1,10,0:0:0:0:
215,340,164382,1,2,0:0:0:0:
337,363,164785,6,0,P|344:327|355:302,2,56.2500021457673,2|0|0,3:2|0:0|3:0,0:0:0:0:
275,278,165590,2,0,P|268:242|257:217,2,56.2500021457673,10|0|0,0:0|0:0|3:0,0:0:0:0:
346,206,166396,2,0,P|353:170|364:145,2,56.2500021457673,2|0|0,3:2|0:0|0:0,0:0:0:0:
440,206,167201,5,10,0:0:0:0:
440,206,167402,1,0,3:0:0:0:
436,120,167604,5,10,0:0:0:0:
436,120,167805,1,0,3:0:0:0:
437,34,168006,6,0,L|371:22,2,56.2500021457673,2|0|0,3:2|0:0|0:0,0:0:0:0:
296,111,168812,2,0,L|351:100,2,56.2500021457673,10|0|0,0:0|0:0|3:0,0:0:0:0:
213,102,169617,2,0,P|216:132|228:164,2,56.2500021457673,2|0|0,3:2|0:0|0:0,0:0:0:0:
105,148,170422,1,10,0:0:0:0:
73,265,170825,1,2,0:0:0:0:
152,226,171026,1,0,0:0:0:0:
152,226,171127,1,0,0:0:0:0:
152,226,171228,6,0,P|177:214|212:227,2,56.2500021457673,2|0|0,3:2|0:0|3:0,0:0:0:0:
319,255,172033,2,0,P|292:248|267:260,2,56.2500021457673,10|0|0,0:2|0:0|3:0,0:0:0:0:
303,338,172838,5,4,0:3:0:0:
116,67,174449,6,0,L|182:63,1,56.2500021457673,6|0,3:2|0:0,0:2:0:0:
172,63,175053,1,0,3:0:0:0:
149,152,175255,2,0,L|198:195,1,56.2500021457673,10|0,0:0|0:0,0:0:0:0:
191,189,175859,1,0,3:0:0:0:
104,236,176060,2,0,L|120:300,1,56.2500021457673,2|0,3:2|0:0,0:0:0:0:
118,290,176664,1,0,0:0:0:0:
22,278,176865,1,10,0:0:0:0:
1,147,177268,1,2,0:0:0:0:
115,194,177671,6,0,P|146:194|183:202,1,56.2500021457673,2|0,3:2|0:0,0:0:0:0:
170,198,178275,1,0,3:0:0:0:
225,120,178476,2,0,P|246:141|267:173,1,56.2500021457673,10|0,0:0|0:0,0:0:0:0:
261,162,179080,1,0,3:0:0:0:
323,253,179281,2,0,P|339:230|359:210,2,56.2500021457673,2|0|0,0:0|0:0|0:0,0:0:0:0:
404,287,180087,5,10,0:0:0:0:
404,287,180288,1,0,3:0:0:0:
447,219,180489,5,10,0:0:0:0:
447,219,180691,1,0,3:0:0:0:
413,128,180892,6,0,L|401:55,2,56.2500021457673,2|0|0,3:2|0:0|3:0,0:0:0:0:
296,181,181698,2,0,L|306:114,1,56.2500021457673,10|0,0:0|0:0,0:0:0:0:
305,126,182302,1,0,3:0:0:0:
218,129,182503,2,0,P|187:121|151:119,2,56.2500021457673,2|0|0,0:0|0:0|0:0,0:0:0:0:
176,217,183308,1,10,0:0:0:0:
226,302,183711,1,2,0:0:0:0:
111,312,184114,6,0,L|40:301,2,56.2500021457673,2|0|0,3:2|0:0|3:0,0:0:0:0:
176,217,184919,2,0,L|247:206,2,56.2500021457673,8|0|2,0:0|0:0|3:2,0:0:0:0:
176,217,185724,1,4,0:3:0:0:
176,217,187335,5,4,3:2:0:0:
159,136,187536,1,2,0:0:0:0:
180,232,187738,2,0,P|211:223|256:228,1,62.5,8|2,0:0|0:0,0:0:0:0:
256,304,188040,1,8,0:0:0:0:
256,304,188141,2,0,P|226:312|195:312,1,62.5,0|2,3:0|0:0,0:0:0:0:
118,289,188543,2,0,L|45:297,1,62.5,8|2,0:0|0:0,0:0:0:0:
77,205,188946,6,0,B|76:163|94:160|90:111,2,93.75,0|0|2,3:0|0:0|0:0,0:0:0:0:
78,223,189651,1,8,0:0:0:0:
81,240,189751,2,0,P|109:227|156:220,1,62.5,0|2,3:0|0:0,0:0:0:0:
226,250,190154,1,8,0:0:0:0:
354,190,190557,6,0,L|459:204,1,93.75,0|0,3:0|0:0,0:0:0:0:
470,207,190959,2,0,L|480:134,1,62.5,8|2,0:2|0:0,0:0:0:0:
424,85,191261,1,8,0:0:0:0:
424,85,191362,2,0,L|414:12,1,62.5,0|2,3:2|0:0,0:0:0:0:
332,63,191765,2,0,L|257:72,1,62.5,8|2,0:0|0:0,0:0:0:0:
159,67,192167,6,0,P|195:98|223:160,1,93.75,0|0,3:0|0:0,0:0:0:0:
229,147,192570,2,0,P|234:178|223:222,1,62.5,8|2,0:0|0:0,0:0:0:0:
193,287,192872,1,8,0:0:0:0:
193,287,192973,2,0,L|255:310,2,62.5,0|2|8,3:0|3:2|0:0,0:0:0:0:
144,209,193577,1,2,0:0:0:0:
229,147,193778,6,0,P|236:117|250:78,2,62.5,2|2|10,3:2|0:0|0:0,0:0:0:0:
323,120,194382,2,0,P|336:110|350:103,2,31.25,2|8|0,0:0|0:0|3:0,0:0:0:0:
411,158,194785,1,2,0:0:0:0:
339,210,194986,2,0,L|350:276,1,62.5,8|2,0:0|0:0,0:0:0:0:
303,353,195389,2,0,P|267:322|202:317,1,93.75,0|0,3:0|0:0,0:0:0:0:
205,315,195792,2,0,L|192:234,1,62.5,8|2,0:0|0:0,0:0:0:0:
134,198,196094,1,8,0:0:0:0:
134,198,196194,2,0,L|121:117,1,62.5,0|2,3:0|0:0,0:0:0:0:
67,70,196597,2,0,P|99:54|144:51,1,62.5,8|2,0:0|0:0,0:0:0:0:
211,94,197000,6,0,B|275:93|261:136|341:135,1,125,0|8,3:0|0:0,0:0:0:0:
326,134,197604,1,2,0:0:0:0:
428,99,197805,2,0,P|418:133|415:173,1,62.5,0|2,3:0|0:0,0:0:0:0:
415,239,198208,2,0,P|418:269|428:299,1,62.5,8|2,0:0|0:0,0:0:0:0:
451,384,198610,6,0,P|419:375|387:375,1,56.2500021457673,4|0,3:2|3:0,0:0:0:0:
364,378,199013,2,0,P|356:341|336:305,1,75.0000028610231,10|2,0:0|3:2,0:0:0:0:
258,332,199617,1,0,3:0:0:0:
185,293,199818,5,12,0:0:0:0:
368,190,200222,6,0,L|306:185,1,50,4|8,3:2|0:0,0:0:0:0:
247,222,200624,2,0,L|180:230,1,50,8|8,3:2|0:0,0:0:0:0:
127,186,200926,1,8,0:0:0:0:
127,186,201027,6,0,P|132:152|127:124,1,50,12|8,3:2|0:2,0:0:0:0:
68,262,201429,2,0,P|63:296|68:324,1,55.0000016784668,8|8,3:2|0:2,0:0:0:0:
143,373,201832,6,0,L|206:368,1,55.0000016784668,12|8,3:2|0:0,0:0:0:0:
283,318,202235,2,0,L|346:323,1,57.5000010967255,8|8,3:2|0:0,0:0:0:0:
355,321,202537,1,8,0:0:0:0:
363,312,202638,6,0,B|376:291|376:291|372:243,1,57.5000010967255,12|8,3:2|0:0,0:0:0:0:
320,173,203040,2,0,B|307:152|307:152|311:104,1,59.9999981689454,12|8,3:2|0:2,0:0:0:0:
377,57,203443,6,0,L|414:60,7,29.9999990844727,12|8|8|8|12|8|8|8,3:2|0:0|0:0|0:0|3:2|0:0|0:0|0:0,0:0:0:0:
460,160,204248,6,0,L|463:123,3,29.9999990844727,12|8|8|8,3:2|0:0|0:0|0:0,0:0:0:0:
383,227,204651,2,0,L|386:197,3,29.9999990844727,12|8|8|8,3:2|0:0|0:2|0:0,0:0:0:0:
314,283,205054,6,0,L|327:323,1,29.9999990844727,12|8,3:2|0:0,0:0:0:0:
245,236,205255,2,0,L|226:273,1,29.9999990844727,8|8,3:2|0:2,3:2:0:0:
221,156,205456,6,0,L|181:169,1,29.9999990844727,12|8,3:2|0:2,3:2:0:0:
265,87,205658,2,0,L|228:67,1,29.9999990844727,8|8,3:2|0:2,3:2:0:0:
339,59,205859,1,10,0:0:0:0:
256,343,206664,6,0,L|251:303,1,40,4|4,3:2|3:2,0:0:0:0:
251,303,208275,6,0,L|256:343,1,40,4|0,3:2|0:0,0:0:0:0:
255,342,209483,1,4,3:0:0:0:
255,342,209885,6,0,P|212:330|174:304,1,75.0000028610231,4|2,3:2|0:0,0:0:0:0:
111,251,210288,2,0,P|147:241|179:221,1,75.0000028610231,12|2,0:0|0:0,0:0:0:0:
96,114,210691,5,0,3:0:0:0:
108,105,210791,2,0,B|185:112,1,75.0000028610231
213,95,211094,2,0,B|290:102,1,75.0000028610231,8|2,0:0|0:0,0:0:0:0:
374,145,211496,1,0,3:0:0:0:
457,119,211698,6,0,P|462:138|461:160,1,37.5000014305115,2|0,0:0|0:0,0:0:0:0:
417,217,211899,2,0,P|408:234|391:249,3,37.5000014305115,8|0|2|8,0:0|0:0|0:0|0:0,0:0:0:0:
316,234,212302,1,0,3:0:0:0:
303,224,212402,2,0,B|242:229|247:186|182:192,1,112.500004291535,0|8,0:0|0:1,0:0:0:0:
106,238,212906,1,2,0:0:0:0:
45,127,213107,6,0,P|84:147|126:150,1,75.0000028610231,4|0,3:2|0:0,0:0:0:0:
187,113,213510,2,0,P|202:72|199:30,1,75.0000028610231,8|2,0:0|0:0,0:0:0:0:
279,82,213812,1,8,0:0:0:0:
288,71,213912,6,0,L|381:83,2,75.0000028610231,0|2|8,3:0|0:0|0:0,0:0:0:0:
207,133,214516,2,0,L|121:142,1,75.0000028610231,2|0,0:0|3:0,0:0:0:0:
277,192,214919,2,0,L|351:199,1,75.0000028610231,2|8,0:0|0:0,0:0:0:0:
286,111,215322,2,0,L|277:25,1,75.0000028610231,2|0,0:0|3:0,0:0:0:0:
200,212,215725,2,0,L|192:286,1,75.0000028610231,10|8,0:0|0:0,0:0:0:0:
192,286,216127,1,2,0:0:0:0:
121,177,216328,6,0,L|346:196,1,200,4|8,3:2|0:0,0:0:0:0:
469,236,216932,2,0,L|244:255,1,200,4|8,3:2|0:0,0:0:0:0:
313,352,217536,1,0,3:0:0:0:
217,321,217738,6,0,B|185:276|185:276|202:121,1,200,12|8,0:0|0:0,0:0:0:0:
261,64,218342,2,0,P|213:46|152:54,1,100,8|8,0:0|0:0,0:0:0:0:
150,143,218644,1,8,0:0:0:0:
150,143,218745,2,0,P|196:160|245:157,1,100,8|8,0:0|0:0,0:0:0:0:
257,166,219047,1,8,0:0:0:0:
266,175,219147,6,0,L|272:234,1,50,8|8,0:0|0:0,0:0:0:0:
181,279,219349,2,0,L|187:218,1,37.5000014305115,8|8,0:0|0:0,0:0:0:0:
110,204,219550,6,0,L|203:215,1,75.0000028610231,4|0,3:2|0:0,0:0:0:0:
264,149,219953,2,0,P|266:107|279:59,1,75.0000028610231,12|2,0:0|0:0,0:0:0:0:
358,69,220254,1,8,0:0:0:0:
366,77,220355,6,0,B|408:85|424:46|478:61,1,112.500004291535,0|0,3:0|0:0,0:0:0:0:
487,66,220758,1,8,0:1:0:0:
453,176,220959,2,0,L|444:261,1,75.0000028610231,14|0,0:2|0:0,0:0:0:0:
467,333,221362,1,2,0:0:0:0:
383,296,221563,1,8,0:0:0:0:
293,330,221765,1,2,0:0:0:0:
224,265,221966,6,0,L|173:257,3,37.5000014305115,0|8|8|8,3:0|0:0|0:0|0:0,0:0:0:0:
237,254,222369,1,4,3:0:0:0:
246,237,222469,1,4,0:3:0:0:
251,219,222570,1,4,0:3:0:0:
252,201,222671,1,4,0:3:0:0:
250,185,222771,6,0,P|253:143|275:93,1,75.0000028610231,4|2,3:2|0:0,0:0:0:0:
161,43,223174,2,0,P|172:78|174:115,1,75.0000028610231,8|2,0:0|0:0,0:0:0:0:
60,189,223577,1,0,3:0:0:0:
58,203,223677,2,0,L|158:191,1,75.0000028610231,8|0,0:0|3:0,0:0:0:0:
157,212,223979,2,0,L|257:200,1,75.0000028610231,8|2,0:0|0:0,0:0:0:0:
312,265,224382,6,0,P|317:295|319:339,1,75.0000028610231,0|2,3:0|0:0,0:0:0:0:
318,339,224684,1,0,0:0:0:0:
318,339,224785,2,0,L|361:338,3,29.9999990844727,8|0|2|8,0:0|0:0|3:2|0:0,0:0:0:0:
239,355,225187,6,0,P|192:342|138:341,1,75.0000028610231,0|2,3:0|0:0,0:0:0:0:
114,243,225590,2,0,P|151:238|187:227,1,75.0000028610231,8|2,0:0|0:0,0:0:0:0:
274,135,225993,6,0,L|285:253,1,112.500004291535,12|0,0:0|3:0,0:0:0:0:
284,247,226396,2,0,L|360:242,1,75.0000028610231,8|2,0:0|3:2,0:0:0:0:
446,141,226798,2,0,L|370:146,1,75.0000028610231,8|2,0:0|3:2,0:0:0:0:
242,115,227201,2,0,L|166:120,1,75.0000028610231,8|2,0:0|3:2,0:0:0:0:
81,185,227604,6,0,P|106:235|85:308,1,120,12|0,0:0|3:0,0:0:0:0:
94,296,228006,2,0,P|131:276|184:279,1,80,8|2,0:0|3:2,0:0:0:0:
184,169,228409,2,0,P|224:179|259:219,1,80,8|2,0:0|3:2,0:0:0:0:
334,143,228812,2,0,P|354:179|351:231,1,80,8|2,0:0|3:2,0:0:0:0:
259,307,229214,6,0,B|313:312|313:312|352:352|352:352|418:359,1,160,4|8,3:2|0:0,0:0:0:0:
401,357,229818,1,8,0:0:0:0:
386,275,230020,5,8,0:0:0:0:
439,211,230221,1,8,0:0:0:0:
360,158,230422,1,8,0:0:0:0:
453,98,230624,1,8,0:0:0:0:
346,168,230825,6,0,B|296:158|296:158|252:174,1,89.5000012290955,8|8,0:0|0:0,0:0:0:0:
211,326,231228,2,0,B|221:276|221:276|205:232,1,89.5000012290955,8|8,0:0|0:0,0:0:0:0:
57,189,231630,6,0,B|107:199|107:199|151:183,1,89.5000012290955,8|8,0:0|0:0,0:0:0:0:
192,29,232033,2,0,B|182:79|182:79|198:123,1,89.5000012290955,8|8,0:0|0:0,0:0:0:0:
195,115,232436,5,4,3:2:0:0:
255,200,234047,6,0,L|249:250,1,44.999998626709,4|0,0:0|0:0,0:0:0:0:
305,315,234939,1,4,0:0:0:0:
305,315,235390,6,0,L|316:313,2,7.49999977111817,4|0|0,0:0|0:0|0:0,0:0:0:0:
