osu file format v14

[General]
AudioFilename: audio.mp3
AudioLeadIn: 0
PreviewTime: 205472
Countdown: 0
SampleSet: Normal
StackLeniency: 0.7
Mode: 1
LetterboxInBreaks: 0
WidescreenStoryboard: 1

[Editor]
Bookmarks: 13391,26277,52049,61714,90707,97150,122922,132586,161579,187351,209901
DistanceSpacing: 3
BeatDivisor: 4
GridSize: 32
TimelineZoom: 2.599999

[Metadata]
Title:Dramaturgy
TitleUnicode:ドラマツルギー
Artist:Eve
ArtistUnicode:Eve
Creator:Ulqui
Version:Futsuu
Source:
Tags:rock japanese jrock j-rock bunka 文化 Skull Kid Genjuro Follow Saretara Owari Ending ed フォローされたら終わり
BeatmapID:2692159
BeatmapSetID:1243675

[Difficulty]
HPDrainRate:6
CircleSize:2
OverallDifficulty:4
ApproachRate:10
SliderMultiplier:1.4
SliderTickRate:1

[Events]
//Background and Video events
0,0,"4ad47291-7cdb-41e4-a447-1506a3fefbfc.png",0,90
//Break Periods
//Storyboard Layer 0 (Background)
//Storyboard Layer 1 (Fail)
//Storyboard Layer 2 (Pass)
//Storyboard Layer 3 (Foreground)
//Storyboard Layer 4 (Overlay)
//Storyboard Sound Samples

[TimingPoints]
506,402.684563758389,4,1,0,80,1,0
506,-100,4,1,0,80,0,0
13391,-100,4,1,0,80,0,0
26277,-100,4,1,0,80,0,0
52049,-100,4,1,0,80,0,0
61714,-100,4,1,0,80,0,1
87485,-100,4,1,0,80,0,0
89096,-100,4,1,0,80,0,0
90304,-100,4,1,0,80,0,0
90707,-100,4,1,0,80,0,0
97150,-100,4,1,0,80,0,0
122922,-100,4,1,0,80,0,0
132183,-100,4,1,0,80,0,0
132586,-100,4,1,0,80,0,1
158358,-100,4,1,0,80,0,0
159969,-100,4,1,0,80,0,0
161177,-100,4,1,0,80,0,0
161579,-100,4,1,0,80,0,0
187351,-100,4,1,0,80,0,0
206680,-100,4,1,0,80,0,0
209901,-100,4,1,0,80,0,1
232452,-100,4,1,0,80,0,0
234063,-100,4,1,0,80,0,0

[HitObjects]
86,90,11579,5,4,0:0:0:0:
141,105,12989,1,8,0:0:0:0:
141,105,13391,1,4,0:0:0:0:
198,67,13794,1,8,0:0:0:0:
118,99,14197,1,8,0:0:0:0:
118,100,14398,1,0,0:0:0:0:
118,99,14599,1,8,0:0:0:0:
146,53,15002,1,0,0:0:0:0:
146,53,15405,1,8,0:0:0:0:
146,53,16210,1,8,0:0:0:0:
146,53,16613,1,0,0:0:0:0:
146,53,17016,1,8,0:0:0:0:
146,53,17418,1,8,0:0:0:0:
146,53,17620,1,0,0:0:0:0:
146,53,17821,1,8,0:0:0:0:
194,107,18224,1,0,0:0:0:0:
194,107,18626,1,8,0:0:0:0:
194,107,19230,1,8,0:0:0:0:
194,107,19432,1,8,0:0:0:0:
151,161,19834,1,0,0:0:0:0:
151,161,20237,1,8,0:0:0:0:
151,161,20640,1,8,0:0:0:0:
151,161,20841,1,0,0:0:0:0:
151,161,21042,1,8,0:0:0:0:
151,161,21445,1,0,0:0:0:0:
151,161,21848,1,8,0:0:0:0:
151,161,22653,1,8,0:0:0:0:
151,161,23056,1,0,0:0:0:0:
151,161,23459,1,8,0:0:0:0:
151,161,23861,1,8,0:0:0:0:
151,161,24063,1,0,0:0:0:0:
151,161,24264,1,8,0:0:0:0:
196,112,24667,1,0,0:0:0:0:
196,112,24868,1,8,0:0:0:0:
196,112,25271,1,4,0:0:0:0:
196,92,25875,1,8,0:0:0:0:
190,72,26277,1,4,0:0:0:0:
177,66,26881,5,0,0:0:0:0:
136,188,27083,1,8,0:0:0:0:
177,66,27485,1,8,0:0:0:0:
136,188,27888,1,0,0:0:0:0:
172,64,28492,1,8,0:0:0:0:
136,188,28693,1,0,0:0:0:0:
136,188,29096,1,8,0:0:0:0:
136,188,29499,1,0,0:0:0:0:
136,188,30304,1,0,0:0:0:0:
218,78,30505,1,0,0:0:0:0:
136,188,30707,1,8,0:0:0:0:
136,188,31110,1,0,0:0:0:0:
212,42,31512,1,8,0:0:0:0:
190,33,31915,1,0,0:0:0:0:
186,67,32217,1,8,0:0:0:0:
186,67,32519,1,8,0:0:0:0:
151,98,33123,1,0,0:0:0:0:
172,124,33526,1,8,0:0:0:0:
172,124,33727,1,0,0:0:0:0:
172,124,33928,1,8,0:0:0:0:
172,124,34331,1,0,0:0:0:0:
197,46,34532,1,0,0:0:0:0:
172,124,34734,1,8,0:0:0:0:
172,124,35136,1,0,0:0:0:0:
172,124,35338,1,0,0:0:0:0:
172,124,35539,1,8,0:0:0:0:
172,124,35740,1,0,0:0:0:0:
176,146,36143,1,0,0:0:0:0:
174,147,36546,1,8,0:0:0:0:
176,146,36948,1,8,0:0:0:0:
174,147,37351,1,0,0:0:0:0:
218,78,38761,1,8,0:0:0:0:
171,160,39163,1,4,0:0:0:0:
183,94,39767,1,0,0:0:0:0:
183,94,39969,1,8,0:0:0:0:
183,94,40371,1,8,0:0:0:0:
158,90,40774,1,0,0:0:0:0:
158,90,41378,1,8,0:0:0:0:
158,90,41579,1,0,0:0:0:0:
158,90,41982,1,8,0:0:0:0:
158,90,42385,1,0,0:0:0:0:
149,96,43190,1,0,0:0:0:0:
211,105,43391,1,8,0:0:0:0:
149,97,43593,1,8,0:0:0:0:
151,132,43995,1,0,0:0:0:0:
160,90,44398,1,8,0:0:0:0:
160,90,44801,1,0,0:0:0:0:
160,90,45103,1,0,0:0:0:0:
201,56,45405,1,8,0:0:0:0:
211,100,46009,1,8,0:0:0:0:
211,100,46412,1,0,0:0:0:0:
211,100,46814,1,8,0:0:0:0:
206,111,47217,1,0,0:0:0:0:
211,100,47418,1,0,0:0:0:0:
206,111,47620,1,8,0:0:0:0:
183,89,48022,1,0,0:0:0:0:
182,91,48224,1,8,0:0:0:0:
216,66,48626,1,0,0:0:0:0:
187,76,49029,1,8,0:0:0:0:
187,76,49432,1,8,0:0:0:0:
187,76,49633,1,8,0:0:0:0:
187,76,50036,1,8,0:0:0:0:
187,76,50237,1,8,0:0:0:0:
187,76,50640,1,8,0:0:0:0:
187,76,50841,1,0,0:0:0:0:
187,76,51042,1,8,0:0:0:0:
187,76,51244,1,8,0:0:0:0:
160,100,52049,1,4,0:0:0:0:
185,133,52854,1,12,0:0:0:0:
185,133,53660,1,4,0:0:0:0:
185,133,54465,1,12,0:0:0:0:
185,133,55271,1,4,0:0:0:0:
166,117,55673,1,8,0:0:0:0:
177,120,56076,1,0,0:0:0:0:
177,120,56479,1,8,0:0:0:0:
206,109,56680,1,8,0:0:0:0:
177,120,56881,1,0,0:0:0:0:
206,107,57284,1,8,0:0:0:0:
169,114,57687,1,0,0:0:0:0:
187,76,57888,1,0,0:0:0:0:
169,114,58089,1,8,0:0:0:0:
256,192,58492,12,0,60707,0:0:0:0:
200,52,60908,5,0,0:0:0:0:
171,142,61714,5,12,0:0:0:0:
171,172,62116,1,0,0:0:0:0:
171,172,62519,1,8,0:0:0:0:
171,172,62821,1,8,0:0:0:0:
171,172,63123,1,8,0:0:0:0:
218,147,63727,1,0,0:0:0:0:
218,147,64130,1,8,0:0:0:0:
218,147,64432,1,8,0:0:0:0:
218,147,64734,1,8,0:0:0:0:
218,147,64935,1,0,0:0:0:0:
218,147,65338,1,0,0:0:0:0:
218,147,65740,1,8,0:0:0:0:
218,147,66042,1,8,0:0:0:0:
218,147,66344,1,0,0:0:0:0:
218,147,66747,1,0,0:0:0:0:
218,147,66948,1,8,0:0:0:0:
218,147,67351,1,0,0:0:0:0:
218,147,67653,1,8,0:0:0:0:
218,147,67955,1,8,0:0:0:0:
218,147,68157,1,4,0:0:0:0:
189,109,68962,1,8,0:0:0:0:
118,119,69163,1,8,0:0:0:0:
118,119,69566,1,8,0:0:0:0:
118,119,69969,1,0,0:0:0:0:
118,119,70371,1,8,0:0:0:0:
118,119,70774,1,8,0:0:0:0:
118,119,71177,1,8,0:0:0:0:
118,119,71378,1,4,0:0:0:0:
118,119,71982,1,8,0:0:0:0:
128,139,72385,1,8,0:0:0:0:
128,139,72787,1,4,0:0:0:0:
167,141,73391,1,8,0:0:0:0:
167,141,73794,1,0,0:0:0:0:
154,107,73995,1,0,0:0:0:0:
154,107,74197,1,0,0:0:0:0:
154,107,74599,1,12,0:0:0:0:
154,127,75002,1,0,0:0:0:0:
154,127,75405,1,8,0:0:0:0:
154,127,75707,1,8,0:0:0:0:
154,127,76009,1,8,0:0:0:0:
154,127,76613,1,0,0:0:0:0:
154,127,77016,1,8,0:0:0:0:
154,127,77318,1,8,0:0:0:0:
154,127,77620,1,8,0:0:0:0:
156,150,77821,1,0,0:0:0:0:
156,150,78224,1,0,0:0:0:0:
169,111,78626,1,8,0:0:0:0:
169,111,78928,1,8,0:0:0:0:
169,111,79230,1,0,0:0:0:0:
135,157,79834,1,0,0:0:0:0:
135,157,80237,1,8,0:0:0:0:
204,130,80438,1,8,0:0:0:0:
204,130,80640,1,8,0:0:0:0:
204,130,81042,1,4,0:0:0:0:
204,130,81848,1,8,0:0:0:0:
165,114,82049,1,0,0:0:0:0:
204,130,82250,1,8,0:0:0:0:
204,130,82653,1,0,0:0:0:0:
165,114,82854,1,0,0:0:0:0:
165,114,83257,1,8,0:0:0:0:
165,114,83660,1,8,0:0:0:0:
165,114,84063,1,8,0:0:0:0:
165,114,84264,1,4,0:0:0:0:
113,157,84868,1,8,0:0:0:0:
113,157,85271,1,8,0:0:0:0:
113,157,85673,1,4,0:0:0:0:
138,82,86277,1,8,0:0:0:0:
138,82,86479,1,8,0:0:0:0:
138,82,86680,1,8,0:0:0:0:
141,72,87083,1,8,0:0:0:0:
141,72,87485,1,4,0:0:0:0:
142,105,89096,1,12,0:0:0:0:
152,220,90304,1,8,0:0:0:0:
152,220,90707,1,4,0:0:0:0:
171,179,91110,1,8,0:0:0:0:
131,169,91512,1,8,0:0:0:0:
131,169,91714,1,0,0:0:0:0:
131,169,91915,1,8,0:0:0:0:
131,169,92318,1,0,0:0:0:0:
131,169,92720,1,8,0:0:0:0:
131,169,93526,1,8,0:0:0:0:
131,169,93928,1,0,0:0:0:0:
131,169,94331,1,8,0:0:0:0:
131,169,94734,1,8,0:0:0:0:
131,169,94935,1,0,0:0:0:0:
131,169,95136,1,8,0:0:0:0:
131,169,95539,1,4,0:0:0:0:
176,77,96143,1,4,0:0:0:0:
136,111,96546,1,8,0:0:0:0:
136,111,96747,1,8,0:0:0:0:
136,111,97150,1,4,0:0:0:0:
177,94,97754,1,0,0:0:0:0:
164,130,97955,1,8,0:0:0:0:
165,128,98358,1,8,0:0:0:0:
177,74,98761,1,0,0:0:0:0:
186,119,99365,1,8,0:0:0:0:
165,128,99566,1,8,0:0:0:0:
165,128,99969,1,8,0:0:0:0:
165,128,100371,1,0,0:0:0:0:
165,128,100975,1,0,0:0:0:0:
165,128,101177,1,8,0:0:0:0:
165,128,101579,1,8,0:0:0:0:
182,77,101982,1,0,0:0:0:0:
196,63,102586,1,0,0:0:0:0:
165,128,102787,1,0,0:0:0:0:
192,135,103190,1,8,0:0:0:0:
192,135,103593,1,0,0:0:0:0:
171,120,104398,1,0,0:0:0:0:
171,119,104801,1,8,0:0:0:0:
196,54,105002,1,0,0:0:0:0:
160,77,105405,1,0,0:0:0:0:
160,77,105808,1,8,0:0:0:0:
160,77,106210,1,0,0:0:0:0:
160,77,106412,1,8,0:0:0:0:
160,77,106613,1,8,0:0:0:0:
160,77,107016,1,8,0:0:0:0:
160,77,107418,1,8,0:0:0:0:
160,77,107821,1,0,0:0:0:0:
160,77,108224,1,8,0:0:0:0:
145,99,109633,1,8,0:0:0:0:
145,99,110036,1,4,0:0:0:0:
169,82,110438,1,8,0:0:0:0:
169,82,110841,1,0,0:0:0:0:
169,82,111042,1,0,0:0:0:0:
169,82,111244,1,8,0:0:0:0:
169,82,111646,1,0,0:0:0:0:
169,82,112049,1,8,0:0:0:0:
169,82,112452,1,0,0:0:0:0:
169,82,112653,1,8,0:0:0:0:
169,82,112854,1,8,0:0:0:0:
169,82,113257,1,0,0:0:0:0:
169,82,113660,1,8,0:0:0:0:
169,82,114063,1,8,0:0:0:0:
169,82,114264,1,8,0:0:0:0:
169,82,114465,1,8,0:0:0:0:
169,82,114868,1,0,0:0:0:0:
169,82,115271,1,8,0:0:0:0:
169,82,115673,1,8,0:0:0:0:
169,82,115875,1,0,0:0:0:0:
169,82,116076,1,8,0:0:0:0:
181,66,116881,1,8,0:0:0:0:
165,114,117284,1,0,0:0:0:0:
165,114,117687,1,8,0:0:0:0:
165,114,118089,1,0,0:0:0:0:
165,114,118291,1,0,0:0:0:0:
165,114,118492,1,8,0:0:0:0:
165,114,118895,1,0,0:0:0:0:
179,84,119096,1,8,0:0:0:0:
179,85,119499,1,0,0:0:0:0:
174,91,119901,1,8,0:0:0:0:
173,92,120304,1,8,0:0:0:0:
174,91,120707,1,8,0:0:0:0:
173,92,121110,1,8,0:0:0:0:
174,91,121512,1,8,0:0:0:0:
174,91,121714,1,0,0:0:0:0:
173,92,121915,1,8,0:0:0:0:
173,92,122116,1,8,0:0:0:0:
166,107,122922,1,4,0:0:0:0:
157,105,123727,1,12,0:0:0:0:
157,105,124532,1,4,0:0:0:0:
157,105,125338,1,12,0:0:0:0:
157,105,126143,1,4,0:0:0:0:
171,119,126546,1,8,0:0:0:0:
171,119,126948,1,0,0:0:0:0:
171,119,127351,1,8,0:0:0:0:
169,127,127552,1,8,0:0:0:0:
169,127,127754,1,0,0:0:0:0:
169,127,128157,1,8,0:0:0:0:
169,127,128559,1,0,0:0:0:0:
178,107,128761,1,0,0:0:0:0:
178,110,128962,1,8,0:0:0:0:
256,192,129365,12,0,131579,0:0:0:0:
168,59,131781,5,8,0:0:0:0:
168,59,132183,5,4,0:0:0:0:
183,178,132586,5,12,0:0:0:0:
111,193,132989,1,0,0:0:0:0:
111,193,133391,1,8,0:0:0:0:
111,193,133693,1,8,0:0:0:0:
111,193,133995,1,8,0:0:0:0:
111,193,134599,1,0,0:0:0:0:
111,193,135002,1,8,0:0:0:0:
111,193,135304,1,8,0:0:0:0:
111,193,135606,1,8,0:0:0:0:
111,193,135808,1,0,0:0:0:0:
111,193,136210,1,8,0:0:0:0:
167,135,136613,1,0,0:0:0:0:
167,135,136915,1,8,0:0:0:0:
167,135,137217,1,0,0:0:0:0:
160,104,137620,1,0,0:0:0:0:
160,104,137821,1,0,0:0:0:0:
167,74,138224,1,0,0:0:0:0:
167,74,138526,1,8,0:0:0:0:
167,74,138828,1,8,0:0:0:0:
167,74,139029,1,4,0:0:0:0:
121,135,139834,1,8,0:0:0:0:
121,135,140036,1,8,0:0:0:0:
121,135,140438,1,8,0:0:0:0:
121,135,140841,1,0,0:0:0:0:
121,135,141244,1,8,0:0:0:0:
121,135,141646,1,8,0:0:0:0:
121,135,142049,1,8,0:0:0:0:
121,135,142250,1,4,0:0:0:0:
151,90,142854,1,8,0:0:0:0:
151,90,143257,1,8,0:0:0:0:
144,108,143660,1,4,0:0:0:0:
191,44,144264,1,8,0:0:0:0:
144,108,144667,1,0,0:0:0:0:
131,109,144868,1,0,0:0:0:0:
177,95,145069,1,0,0:0:0:0:
177,95,145472,1,12,0:0:0:0:
131,252,145875,1,4,0:0:0:0:
124,150,146277,1,8,0:0:0:0:
124,150,146579,1,8,0:0:0:0:
124,150,146881,1,8,0:0:0:0:
212,117,147485,1,0,0:0:0:0:
212,117,147888,1,8,0:0:0:0:
212,117,148190,1,8,0:0:0:0:
212,117,148492,1,8,0:0:0:0:
212,117,148693,1,0,0:0:0:0:
143,143,149096,1,0,0:0:0:0:
143,143,149499,1,0,0:0:0:0:
143,143,149801,1,8,0:0:0:0:
143,143,150103,1,0,0:0:0:0:
137,133,150505,1,0,0:0:0:0:
137,133,150707,1,0,0:0:0:0:
137,133,151110,1,8,0:0:0:0:
137,133,151311,1,8,0:0:0:0:
137,133,151512,1,8,0:0:0:0:
195,63,151714,1,8,0:0:0:0:
137,133,151915,1,4,0:0:0:0:
147,179,152720,1,8,0:0:0:0:
166,76,152922,1,0,0:0:0:0:
153,174,153123,1,8,0:0:0:0:
153,174,153526,1,8,0:0:0:0:
153,174,153727,1,0,0:0:0:0:
153,174,153928,1,0,0:0:0:0:
153,174,154130,1,8,0:0:0:0:
144,158,154532,1,8,0:0:0:0:
143,160,154935,1,8,0:0:0:0:
143,160,155136,1,4,0:0:0:0:
143,160,155740,1,8,0:0:0:0:
171,161,156143,1,8,0:0:0:0:
171,161,156546,1,4,0:0:0:0:
139,110,157150,1,8,0:0:0:0:
139,110,157552,1,8,0:0:0:0:
139,110,157754,1,8,0:0:0:0:
139,110,157955,1,8,0:0:0:0:
176,117,158358,1,4,0:0:0:0:
200,200,159969,1,12,0:0:0:0:
153,62,161177,1,8,0:0:0:0:
153,62,161579,1,4,0:0:0:0:
216,107,162183,1,0,0:0:0:0:
146,85,162385,1,8,0:0:0:0:
186,107,163190,1,0,0:0:0:0:
186,107,163794,1,0,0:0:0:0:
186,107,163995,1,8,0:0:0:0:
181,112,164801,1,0,0:0:0:0:
181,112,165405,1,8,0:0:0:0:
181,112,165606,1,8,0:0:0:0:
181,112,166412,1,0,0:0:0:0:
181,112,167016,1,8,0:0:0:0:
181,112,167217,1,8,0:0:0:0:
181,112,168022,1,0,0:0:0:0:
181,112,168626,1,8,0:0:0:0:
181,112,168828,1,0,0:0:0:0:
181,112,169633,1,0,0:0:0:0:
181,112,170237,1,8,0:0:0:0:
181,112,170438,1,0,0:0:0:0:
194,106,171244,1,0,0:0:0:0:
194,106,171848,1,0,0:0:0:0:
194,106,172049,1,0,0:0:0:0:
194,106,172854,1,0,0:0:0:0:
199,114,174465,1,4,0:0:0:0:
186,122,175069,1,8,0:0:0:0:
175,137,175271,1,0,0:0:0:0:
181,133,176076,1,0,0:0:0:0:
181,133,176680,1,8,0:0:0:0:
181,133,176881,1,0,0:0:0:0:
149,90,177083,1,0,0:0:0:0:
149,90,177284,1,8,0:0:0:0:
183,72,177687,1,0,0:0:0:0:
183,72,178291,1,8,0:0:0:0:
183,72,178492,1,8,0:0:0:0:
178,107,179297,1,0,0:0:0:0:
178,107,179901,1,8,0:0:0:0:
178,107,180103,1,8,0:0:0:0:
201,82,180304,1,0,0:0:0:0:
197,85,180505,1,8,0:0:0:0:
208,118,180908,1,0,0:0:0:0:
141,121,181512,1,0,0:0:0:0:
141,121,181714,1,8,0:0:0:0:
141,121,182519,1,0,0:0:0:0:
141,121,183123,1,0,0:0:0:0:
141,121,183324,1,8,0:0:0:0:
141,121,183526,1,8,0:0:0:0:
141,121,183727,1,8,0:0:0:0:
158,130,184130,1,0,0:0:0:0:
181,163,184734,1,0,0:0:0:0:
181,163,184935,1,0,0:0:0:0:
166,168,185740,1,0,0:0:0:0:
181,168,187351,1,4,0:0:0:0:
176,138,187754,1,8,0:0:0:0:
200,148,188157,1,0,0:0:0:0:
176,138,188358,1,0,0:0:0:0:
176,138,188559,1,8,0:0:0:0:
176,138,188962,1,0,0:0:0:0:
176,138,189365,1,8,0:0:0:0:
176,138,190170,1,8,0:0:0:0:
176,138,190573,1,0,0:0:0:0:
176,138,190975,1,8,0:0:0:0:
201,99,191177,1,0,0:0:0:0:
201,99,191378,1,0,0:0:0:0:
176,138,191579,1,8,0:0:0:0:
176,138,191781,1,8,0:0:0:0:
191,84,192183,1,0,0:0:0:0:
191,84,192586,1,8,0:0:0:0:
191,84,193391,1,8,0:0:0:0:
191,84,193794,1,0,0:0:0:0:
191,84,194197,1,8,0:0:0:0:
191,84,194398,1,0,0:0:0:0:
191,84,194801,1,8,0:0:0:0:
187,92,195002,1,0,0:0:0:0:
187,92,195203,1,0,0:0:0:0:
187,92,195405,1,8,0:0:0:0:
187,92,195808,1,8,0:0:0:0:
187,92,196009,1,0,0:0:0:0:
156,88,196613,1,8,0:0:0:0:
156,88,197016,1,0,0:0:0:0:
175,72,197418,1,8,0:0:0:0:
177,80,197620,1,0,0:0:0:0:
177,80,197821,1,0,0:0:0:0:
177,80,198224,1,8,0:0:0:0:
200,57,198626,1,4,0:0:0:0:
168,91,199834,1,8,0:0:0:0:
168,91,200237,1,4,0:0:0:0:
155,113,200640,1,8,0:0:0:0:
155,113,201042,1,0,0:0:0:0:
158,119,201445,1,8,0:0:0:0:
158,119,201646,1,8,0:0:0:0:
158,119,201848,1,0,0:0:0:0:
158,119,202250,1,8,0:0:0:0:
158,119,202653,1,0,0:0:0:0:
158,119,202854,1,0,0:0:0:0:
158,119,203056,1,8,0:0:0:0:
256,192,203459,12,0,205673,0:0:0:0:
169,95,205875,5,0,0:0:0:0:
195,134,206680,5,12,0:0:0:0:
177,153,208291,1,4,0:0:0:0:
163,144,209499,1,8,0:0:0:0:
163,144,209901,1,4,0:0:0:0:
186,186,210304,1,8,0:0:0:0:
190,212,210707,1,8,0:0:0:0:
190,212,211009,1,8,0:0:0:0:
190,213,211311,1,0,0:0:0:0:
169,182,211714,1,0,0:0:0:0:
169,182,211915,1,0,0:0:0:0:
169,182,212318,1,0,0:0:0:0:
169,182,212620,1,8,0:0:0:0:
169,182,212922,1,8,0:0:0:0:
169,182,213123,1,0,0:0:0:0:
179,170,213928,1,8,0:0:0:0:
179,170,214130,1,8,0:0:0:0:
172,166,214532,1,8,0:0:0:0:
172,166,214935,1,0,0:0:0:0:
172,166,215338,1,8,0:0:0:0:
172,166,215740,1,8,0:0:0:0:
172,166,216143,1,8,0:0:0:0:
172,166,216344,1,4,0:0:0:0:
163,158,216948,1,12,0:0:0:0:
163,158,217351,1,8,0:0:0:0:
163,158,217754,1,4,0:0:0:0:
163,110,218761,1,8,0:0:0:0:
163,110,219163,1,0,0:0:0:0:
163,110,219566,1,12,0:0:0:0:
183,102,219969,1,0,0:0:0:0:
181,120,220371,1,8,0:0:0:0:
181,120,220673,1,8,0:0:0:0:
181,121,220975,1,8,0:0:0:0:
139,129,221579,1,0,0:0:0:0:
171,119,221982,1,8,0:0:0:0:
171,119,222284,1,8,0:0:0:0:
171,119,222586,1,8,0:0:0:0:
169,101,222787,1,4,0:0:0:0:
168,102,223190,1,0,0:0:0:0:
167,103,223593,1,8,0:0:0:0:
168,102,223895,1,8,0:0:0:0:
168,102,224197,1,0,0:0:0:0:
178,112,224599,1,0,0:0:0:0:
178,112,224801,1,0,0:0:0:0:
178,112,225203,1,8,0:0:0:0:
185,52,225405,1,8,0:0:0:0:
171,105,225606,1,8,0:0:0:0:
171,105,225808,1,8,0:0:0:0:
168,102,226009,1,4,0:0:0:0:
181,107,226814,1,8,0:0:0:0:
165,43,227016,1,8,0:0:0:0:
181,107,227217,1,0,0:0:0:0:
181,107,227620,1,12,0:0:0:0:
199,62,228022,1,0,0:0:0:0:
181,107,228224,1,8,0:0:0:0:
181,107,228626,1,8,0:0:0:0:
181,107,229029,1,8,0:0:0:0:
194,71,229230,1,4,0:0:0:0:
173,92,229633,1,0,0:0:0:0:
173,92,229834,1,0,0:0:0:0:
171,94,230036,1,0,0:0:0:0:
173,92,230237,1,0,0:0:0:0:
207,36,230438,1,0,0:0:0:0:
173,92,230841,1,8,0:0:0:0:
189,103,231042,1,8,0:0:0:0:
189,103,231244,1,8,0:0:0:0:
221,65,231445,1,8,0:0:0:0:
189,103,231646,1,8,0:0:0:0:
249,89,231848,1,8,0:0:0:0:
214,67,232049,1,8,0:0:0:0:
189,103,232452,1,4,0:0:0:0:
256,192,234063,12,0,235824,0:0:0:0:
