osu file format v14

[General]
AudioFilename: audio.mp3
AudioLeadIn: 0
PreviewTime: 205472
Countdown: 0
SampleSet: Normal
StackLeniency: 0.7
Mode: 1
LetterboxInBreaks: 0
WidescreenStoryboard: 0

[Editor]
Bookmarks: 13391,26277,52049,61714,90707,97150,122922,132586,161579,187351,209901
DistanceSpacing: 3
BeatDivisor: 4
GridSize: 32
TimelineZoom: 2.599999

[Metadata]
Title:Dramaturgy
TitleUnicode:ドラマツルギー
Artist:Eve
ArtistUnicode:Eve
Creator:Ulqui
Version:Facade
Source:
Tags:rock japanese jrock j-rock bunka 文化 Skull Kid Genjuro Follow Saretara Owari Ending ed フォローされたら終わり
BeatmapID:2585459
BeatmapSetID:1243675

[Difficulty]
HPDrainRate:6.5
CircleSize:2
OverallDifficulty:6.5
ApproachRate:10
SliderMultiplier:1.4
SliderTickRate:1

[Events]
//Background and Video events
0,0,"4ad47291-7cdb-41e4-a447-1506a3fefbfc.png",0,90
//Break Periods
//Storyboard Layer 0 (Background)
//Storyboard Layer 1 (Fail)
//Storyboard Layer 2 (Pass)
//Storyboard Layer 3 (Foreground)
//Storyboard Layer 4 (Overlay)
//Storyboard Sound Samples

[TimingPoints]
506,402.684563758389,4,1,0,100,1,0
11579,-83.3333333333333,4,1,0,80,0,0
11781,-86.9565217391304,4,1,0,80,0,0
11982,-90.9090909090909,4,1,0,80,0,0
12183,-92.5925925925926,4,1,0,80,0,0
12385,-94.3396226415094,4,1,0,80,0,0
12586,-96.1538461538461,4,1,0,80,0,0
12787,-98.0392156862745,4,1,0,80,0,0
12888,-99.009900990099,4,1,0,80,0,0
12989,-100,4,1,0,80,0,0
13391,-90.9090909090909,4,1,0,80,0,0
26277,-100,4,1,0,80,0,0
52049,-83.3333333333333,4,1,0,80,0,0
52351,-86.9565217391304,4,1,0,80,0,0
52653,-90.9090909090909,4,1,0,80,0,0
52854,-83.3333333333333,4,1,0,80,0,0
53157,-86.9565217391304,4,1,0,80,0,0
53459,-90.9090909090909,4,1,0,80,0,0
53660,-83.3333333333333,4,1,0,80,0,0
53962,-86.9565217391304,4,1,0,80,0,0
54264,-90.9090909090909,4,1,0,80,0,0
54465,-83.3333333333333,4,1,0,80,0,0
54767,-86.9565217391304,4,1,0,80,0,0
55069,-90.9090909090909,4,1,0,80,0,0
55271,-100,4,1,0,80,0,0
61714,-86.9565217391304,4,1,0,80,0,1
87485,-86.9565217391304,4,1,0,80,0,0
89096,-100,4,1,0,80,0,0
90707,-90.9090909090909,4,1,0,80,0,0
97150,-100,4,1,0,80,0,0
122922,-83.3333333333333,4,1,0,80,0,0
123224,-86.9565217391304,4,1,0,80,0,0
123425,-88.8888888888889,4,1,0,80,0,0
123526,-90.9090909090909,4,1,0,80,0,0
123727,-83.3333333333333,4,1,0,80,0,0
124029,-86.9565217391304,4,1,0,80,0,0
124331,-90.9090909090909,4,1,0,80,0,0
124532,-83.3333333333333,4,1,0,80,0,0
124834,-86.9565217391304,4,1,0,80,0,0
125036,-88.8888888888889,4,1,0,80,0,0
125136,-90.9090909090909,4,1,0,80,0,0
125338,-83.3333333333333,4,1,0,80,0,0
125640,-86.9565217391304,4,1,0,80,0,0
125942,-90.9090909090909,4,1,0,80,0,0
126143,-100,4,1,0,80,0,0
132183,-66.6666666666667,4,1,0,80,0,0
132586,-86.9565217391304,4,1,0,80,0,1
158358,-86.9565217391304,4,1,0,80,0,0
159969,-100,4,1,0,80,0,0
161177,-111.111111111111,4,1,0,80,0,0
161579,-125,4,1,0,80,0,0
187351,-86.9565217391304,4,1,0,80,0,0
200237,-100,4,1,0,80,0,0
206680,-100,4,1,0,80,0,0
208291,-111.111111111111,4,1,0,80,0,0
209499,-125,4,1,0,80,0,0
209901,-86.9565217391304,4,1,0,80,0,1
232452,-86.9565217391304,4,1,0,80,0,0
234063,-100,4,1,0,80,0,0

[HitObjects]
77,213,11579,5,4,0:0:0:0:
124,239,11982,1,0,0:0:0:0:
124,239,12183,1,0,0:0:0:0:
124,239,12385,1,0,0:0:0:0:
124,239,12586,1,0,0:0:0:0:
113,235,12787,1,0,0:0:0:0:
202,48,12888,1,0,0:0:0:0:
113,235,12989,1,8,0:0:0:0:
125,142,13391,1,8,0:0:0:0:
125,142,13492,1,0,0:0:0:0:
183,76,13693,1,8,0:0:0:0:
183,76,13794,1,8,0:0:0:0:
183,76,13895,1,0,0:0:0:0:
183,76,14096,1,0,0:0:0:0:
183,76,14197,1,8,0:0:0:0:
183,76,14297,1,0,0:0:0:0:
183,76,14398,1,0,0:0:0:0:
183,76,14599,1,8,0:0:0:0:
150,102,14901,1,0,0:0:0:0:
150,102,15002,1,0,0:0:0:0:
142,120,15203,1,8,0:0:0:0:
142,120,15304,1,0,0:0:0:0:
142,120,15505,1,8,0:0:0:0:
142,120,15606,1,0,0:0:0:0:
142,119,15707,1,0,0:0:0:0:
142,120,15808,1,8,0:0:0:0:
185,70,15908,1,8,0:0:0:0:
162,51,16009,1,0,0:0:0:0:
162,51,16210,1,8,0:0:0:0:
187,79,16613,1,8,0:0:0:0:
191,66,16714,1,0,0:0:0:0:
185,70,16915,1,8,0:0:0:0:
173,77,17016,1,8,0:0:0:0:
173,77,17116,1,0,0:0:0:0:
186,96,17318,1,0,0:0:0:0:
179,97,17418,1,8,0:0:0:0:
178,82,17519,1,0,0:0:0:0:
185,97,17620,1,0,0:0:0:0:
151,63,17821,1,8,0:0:0:0:
173,77,18123,1,0,0:0:0:0:
183,74,18224,1,0,0:0:0:0:
173,89,18425,1,8,0:0:0:0:
173,89,18526,1,0,0:0:0:0:
182,60,18727,1,8,0:0:0:0:
176,62,18828,1,0,0:0:0:0:
176,62,18928,1,0,0:0:0:0:
176,62,19029,1,8,0:0:0:0:
171,50,19230,1,8,0:0:0:0:
176,44,19331,1,8,0:0:0:0:
171,50,19432,1,8,0:0:0:0:
125,142,19834,1,8,0:0:0:0:
125,142,19935,1,0,0:0:0:0:
183,76,20136,1,8,0:0:0:0:
183,76,20237,1,8,0:0:0:0:
183,76,20338,1,0,0:0:0:0:
183,76,20539,1,0,0:0:0:0:
183,76,20640,1,8,0:0:0:0:
183,76,20740,1,0,0:0:0:0:
183,76,20841,1,0,0:0:0:0:
183,76,21042,1,8,0:0:0:0:
150,102,21344,1,0,0:0:0:0:
150,102,21445,1,0,0:0:0:0:
142,120,21646,1,8,0:0:0:0:
142,120,21747,1,0,0:0:0:0:
142,120,21948,1,8,0:0:0:0:
142,120,22049,1,0,0:0:0:0:
142,119,22150,1,0,0:0:0:0:
142,120,22250,1,8,0:0:0:0:
185,70,22351,1,8,0:0:0:0:
162,51,22452,1,0,0:0:0:0:
162,51,22653,1,8,0:0:0:0:
187,79,23056,1,8,0:0:0:0:
191,66,23157,1,0,0:0:0:0:
185,70,23358,1,8,0:0:0:0:
173,77,23459,1,8,0:0:0:0:
173,77,23559,1,0,0:0:0:0:
186,96,23761,1,0,0:0:0:0:
179,97,23861,1,8,0:0:0:0:
178,82,23962,1,0,0:0:0:0:
185,97,24063,1,0,0:0:0:0:
151,63,24264,1,8,0:0:0:0:
196,53,24566,1,8,0:0:0:0:
180,45,24667,5,0,0:0:0:0:
180,45,24868,1,8,0:0:0:0:
180,45,24969,1,0,0:0:0:0:
179,54,25170,1,8,0:0:0:0:
179,56,25271,1,0,0:0:0:0:
176,53,25472,1,8,0:0:0:0:
176,54,25573,1,8,0:0:0:0:
176,54,25673,1,0,0:0:0:0:
176,54,25774,1,0,0:0:0:0:
176,54,25875,1,8,0:0:0:0:
202,50,26277,1,12,0:0:0:0:
200,72,26479,1,0,0:0:0:0:
200,80,26579,1,8,0:0:0:0:
253,237,26680,1,8,0:0:0:0:
228,186,26881,1,0,0:0:0:0:
222,190,26982,1,8,0:0:0:0:
222,190,27083,1,8,0:0:0:0:
182,72,27183,1,0,0:0:0:0:
176,65,27385,1,8,0:0:0:0:
176,89,27485,1,8,0:0:0:0:
177,92,27687,1,0,0:0:0:0:
177,92,27787,1,0,0:0:0:0:
177,92,27888,1,8,0:0:0:0:
179,41,28089,1,0,0:0:0:0:
202,34,28190,1,8,0:0:0:0:
178,42,28291,1,8,0:0:0:0:
176,74,28492,1,0,0:0:0:0:
176,76,28693,1,8,0:0:0:0:
176,77,28794,1,8,0:0:0:0:
196,54,28995,1,0,0:0:0:0:
193,57,29096,1,8,0:0:0:0:
203,52,29297,1,8,0:0:0:0:
200,54,29398,1,0,0:0:0:0:
200,54,29499,1,0,0:0:0:0:
91,173,29700,1,0,0:0:0:0:
91,173,29801,1,8,0:0:0:0:
153,69,29901,1,8,0:0:0:0:
176,101,30103,1,0,0:0:0:0:
176,101,30203,1,8,0:0:0:0:
176,101,30304,1,8,0:0:0:0:
176,101,30405,1,0,0:0:0:0:
164,28,30606,1,0,0:0:0:0:
164,28,30707,1,8,0:0:0:0:
188,47,30908,1,8,0:0:0:0:
184,51,31110,1,0,0:0:0:0:
178,56,31311,1,0,0:0:0:0:
177,56,31412,1,0,0:0:0:0:
176,57,31512,1,8,0:0:0:0:
170,38,31613,1,8,0:0:0:0:
170,42,31714,1,0,0:0:0:0:
170,42,31814,1,8,0:0:0:0:
170,42,31915,1,0,0:0:0:0:
170,42,32016,1,8,0:0:0:0:
175,38,32217,1,0,0:0:0:0:
175,39,32318,1,8,0:0:0:0:
157,22,32519,1,8,0:0:0:0:
156,25,32720,1,0,0:0:0:0:
139,61,32922,1,0,0:0:0:0:
156,68,33022,1,0,0:0:0:0:
139,61,33123,1,8,0:0:0:0:
204,174,33324,1,0,0:0:0:0:
204,174,33425,1,8,0:0:0:0:
204,174,33526,1,8,0:0:0:0:
204,174,33727,1,0,0:0:0:0:
186,77,33928,1,8,0:0:0:0:
186,77,34331,1,0,0:0:0:0:
181,91,34532,1,0,0:0:0:0:
181,91,34633,1,0,0:0:0:0:
181,91,34734,1,8,0:0:0:0:
169,58,34935,1,0,0:0:0:0:
167,60,35036,1,8,0:0:0:0:
167,60,35136,1,0,0:0:0:0:
166,64,35338,1,0,0:0:0:0:
166,66,35539,1,8,0:0:0:0:
165,73,35942,1,0,0:0:0:0:
184,89,36143,1,0,0:0:0:0:
166,75,36244,1,0,0:0:0:0:
166,75,36344,1,8,0:0:0:0:
180,85,36546,1,0,0:0:0:0:
178,87,36646,1,8,0:0:0:0:
192,92,36848,1,0,0:0:0:0:
192,92,36948,1,0,0:0:0:0:
192,92,37150,1,8,0:0:0:0:
183,91,37552,1,0,0:0:0:0:
183,80,37754,1,8,0:0:0:0:
183,80,37854,1,0,0:0:0:0:
183,80,37955,1,8,0:0:0:0:
190,57,38157,1,0,0:0:0:0:
189,58,38257,1,8,0:0:0:0:
188,60,38358,1,0,0:0:0:0:
184,72,38559,1,0,0:0:0:0:
183,80,38761,1,12,0:0:0:0:
185,63,39163,1,4,0:0:0:0:
188,87,39365,1,0,0:0:0:0:
188,87,39465,1,8,0:0:0:0:
188,88,39566,1,8,0:0:0:0:
169,57,39767,1,0,0:0:0:0:
169,57,39868,1,8,0:0:0:0:
168,57,39969,1,8,0:0:0:0:
167,57,40069,1,0,0:0:0:0:
168,63,40271,1,0,0:0:0:0:
165,67,40371,1,8,0:0:0:0:
173,90,40573,1,0,0:0:0:0:
171,91,40774,1,8,0:0:0:0:
178,63,40975,1,0,0:0:0:0:
178,63,41076,1,8,0:0:0:0:
178,63,41177,1,8,0:0:0:0:
179,41,41378,1,0,0:0:0:0:
177,43,41479,1,0,0:0:0:0:
176,44,41579,1,8,0:0:0:0:
179,45,41680,1,0,0:0:0:0:
159,50,41881,1,0,0:0:0:0:
159,51,41982,1,8,0:0:0:0:
197,68,42083,1,8,0:0:0:0:
197,70,42183,1,0,0:0:0:0:
197,68,42284,1,0,0:0:0:0:
197,70,42385,1,8,0:0:0:0:
165,60,42586,1,0,0:0:0:0:
165,60,42687,1,8,0:0:0:0:
164,61,42787,1,8,0:0:0:0:
167,73,42989,1,0,0:0:0:0:
167,73,43089,1,8,0:0:0:0:
167,73,43190,1,0,0:0:0:0:
167,35,43291,1,8,0:0:0:0:
175,39,43492,1,8,0:0:0:0:
185,74,43693,1,8,0:0:0:0:
176,58,43895,5,0,0:0:0:0:
176,58,43995,1,8,0:0:0:0:
175,77,44197,1,8,0:0:0:0:
181,54,44297,1,0,0:0:0:0:
175,77,44398,1,0,0:0:0:0:
179,57,44499,1,8,0:0:0:0:
185,60,44700,1,8,0:0:0:0:
181,65,44801,1,0,0:0:0:0:
181,67,44901,1,0,0:0:0:0:
181,49,45103,1,8,0:0:0:0:
185,66,45203,1,8,0:0:0:0:
175,77,45405,1,8,0:0:0:0:
168,74,45808,1,0,0:0:0:0:
56,330,45908,1,0,0:0:0:0:
168,74,46009,1,8,0:0:0:0:
173,76,46210,1,0,0:0:0:0:
175,77,46311,1,8,0:0:0:0:
175,77,46412,1,8,0:0:0:0:
168,98,46613,1,0,0:0:0:0:
168,98,46814,1,8,0:0:0:0:
168,98,47217,1,0,0:0:0:0:
156,118,47418,1,0,0:0:0:0:
156,118,47519,1,0,0:0:0:0:
156,118,47620,1,8,0:0:0:0:
156,118,47821,1,0,0:0:0:0:
155,118,47922,1,8,0:0:0:0:
155,118,48022,1,0,0:0:0:0:
155,118,48224,1,0,0:0:0:0:
156,118,48425,1,8,0:0:0:0:
156,118,48828,1,0,0:0:0:0:
156,101,49029,1,8,0:0:0:0:
155,118,49130,1,0,0:0:0:0:
155,118,49230,1,8,0:0:0:0:
156,118,49432,1,0,0:0:0:0:
156,118,49532,1,8,0:0:0:0:
151,102,49633,1,0,0:0:0:0:
150,103,49834,1,0,0:0:0:0:
150,103,50036,1,8,0:0:0:0:
160,107,50438,1,0,0:0:0:0:
152,117,50640,1,8,0:0:0:0:
152,121,50841,1,8,0:0:0:0:
152,121,50942,1,0,0:0:0:0:
152,121,51143,1,8,0:0:0:0:
152,121,51445,1,0,0:0:0:0:
152,117,51646,1,8,0:0:0:0:
51,272,52049,5,8,0:0:0:0:
51,272,52150,1,8,0:0:0:0:
51,272,52351,1,0,0:0:0:0:
58,277,52653,1,8,0:0:0:0:
58,278,52854,1,8,0:0:0:0:
58,278,52955,1,8,0:0:0:0:
58,279,53157,1,0,0:0:0:0:
58,277,53459,1,0,0:0:0:0:
58,277,53660,1,8,0:0:0:0:
58,278,53761,1,8,0:0:0:0:
136,94,53962,1,0,0:0:0:0:
136,94,54264,1,8,0:0:0:0:
146,59,54465,1,8,0:0:0:0:
146,59,54566,1,8,0:0:0:0:
146,59,54767,1,0,0:0:0:0:
160,57,55069,1,8,0:0:0:0:
183,67,55170,1,8,0:0:0:0:
96,176,55271,5,4,0:0:0:0:
129,117,55472,1,8,0:0:0:0:
129,117,55573,1,0,0:0:0:0:
129,117,55673,1,0,0:0:0:0:
133,137,55875,1,8,0:0:0:0:
133,137,55975,1,8,0:0:0:0:
132,137,56076,1,0,0:0:0:0:
136,146,56277,1,8,0:0:0:0:
131,94,56378,1,8,0:0:0:0:
132,137,56479,1,0,0:0:0:0:
136,146,56680,1,8,0:0:0:0:
133,137,56881,1,0,0:0:0:0:
131,94,57083,1,8,0:0:0:0:
131,94,57183,1,0,0:0:0:0:
132,137,57284,1,0,0:0:0:0:
131,94,57485,1,8,0:0:0:0:
131,94,57586,1,8,0:0:0:0:
133,137,57687,1,0,0:0:0:0:
131,112,57888,1,8,0:0:0:0:
131,113,57989,1,8,0:0:0:0:
131,112,58089,1,0,0:0:0:0:
131,113,58291,1,8,0:0:0:0:
131,113,58492,1,0,0:0:0:0:
175,94,58693,1,8,0:0:0:0:
166,102,58794,1,0,0:0:0:0:
175,94,58895,1,0,0:0:0:0:
166,103,58995,1,0,0:0:0:0:
166,103,59096,1,8,0:0:0:0:
166,103,59197,1,8,0:0:0:0:
186,67,59297,1,0,0:0:0:0:
178,51,59398,1,0,0:0:0:0:
178,51,59499,1,8,0:0:0:0:
178,51,59599,1,0,0:0:0:0:
191,62,59700,1,0,0:0:0:0:
200,62,59801,1,0,0:0:0:0:
198,65,59901,1,8,0:0:0:0:
198,65,60002,1,8,0:0:0:0:
143,42,60103,1,0,0:0:0:0:
155,57,60203,1,0,0:0:0:0:
153,56,60304,1,8,0:0:0:0:
153,56,60405,1,0,0:0:0:0:
155,57,60505,1,0,0:0:0:0:
156,57,60606,1,0,0:0:0:0:
156,57,60707,1,8,0:0:0:0:
161,32,60808,1,8,0:0:0:0:
161,32,60908,1,0,0:0:0:0:
132,62,61714,1,12,0:0:0:0:
259,198,62016,1,0,0:0:0:0:
135,96,62116,1,8,0:0:0:0:
131,102,62318,1,0,0:0:0:0:
131,102,62418,1,0,0:0:0:0:
131,103,62519,1,8,0:0:0:0:
131,55,62620,1,0,0:0:0:0:
171,52,62821,1,8,0:0:0:0:
155,70,62922,1,8,0:0:0:0:
189,89,63123,1,8,0:0:0:0:
131,55,63224,1,8,0:0:0:0:
131,55,63324,1,0,0:0:0:0:
179,83,63526,1,0,0:0:0:0:
179,83,63727,1,8,0:0:0:0:
156,85,63928,1,0,0:0:0:0:
152,85,64029,1,8,0:0:0:0:
151,85,64130,1,8,0:0:0:0:
151,85,64230,1,0,0:0:0:0:
155,55,64432,1,0,0:0:0:0:
155,55,64532,1,8,0:0:0:0:
158,59,64734,1,8,0:0:0:0:
158,59,64935,1,0,0:0:0:0:
210,102,65237,1,0,0:0:0:0:
163,80,65338,1,8,0:0:0:0:
160,93,65539,1,0,0:0:0:0:
160,95,65640,1,8,0:0:0:0:
160,95,65740,1,8,0:0:0:0:
159,96,65841,1,8,0:0:0:0:
185,45,66042,1,0,0:0:0:0:
185,45,66143,1,8,0:0:0:0:
196,79,66344,1,8,0:0:0:0:
186,52,66445,1,0,0:0:0:0:
184,57,66546,1,0,0:0:0:0:
178,68,66747,1,8,0:0:0:0:
178,68,66848,1,8,0:0:0:0:
161,47,66948,1,8,0:0:0:0:
161,57,67049,1,0,0:0:0:0:
162,62,67250,1,0,0:0:0:0:
162,62,67351,1,0,0:0:0:0:
162,62,67452,1,8,0:0:0:0:
169,76,67653,1,0,0:0:0:0:
168,77,67754,1,8,0:0:0:0:
183,90,67955,1,8,0:0:0:0:
183,90,68157,1,4,0:0:0:0:
216,155,68459,1,0,0:0:0:0:
171,109,68559,1,8,0:0:0:0:
186,168,68761,1,0,0:0:0:0:
186,168,68861,1,8,0:0:0:0:
186,168,68962,1,8,0:0:0:0:
170,57,69163,1,0,0:0:0:0:
170,57,69365,1,8,0:0:0:0:
171,77,69566,1,8,0:0:0:0:
174,88,69667,1,0,0:0:0:0:
171,77,69767,1,0,0:0:0:0:
201,77,69868,1,8,0:0:0:0:
169,98,69969,1,8,0:0:0:0:
200,52,70170,1,0,0:0:0:0:
195,59,70371,1,8,0:0:0:0:
190,65,70472,1,8,0:0:0:0:
190,65,70573,1,0,0:0:0:0:
187,72,70774,1,8,0:0:0:0:
222,67,70975,1,8,0:0:0:0:
176,81,71177,1,8,0:0:0:0:
187,59,71378,1,4,0:0:0:0:
180,91,71781,1,0,0:0:0:0:
180,91,71982,1,8,0:0:0:0:
179,89,72385,1,8,0:0:0:0:
180,91,72787,1,4,0:0:0:0:
176,96,73190,1,8,0:0:0:0:
176,96,73391,1,0,0:0:0:0:
180,91,73593,1,8,0:0:0:0:
180,91,73693,1,8,0:0:0:0:
180,91,73794,1,0,0:0:0:0:
188,102,73895,1,0,0:0:0:0:
188,102,73995,1,8,0:0:0:0:
196,42,74197,1,8,0:0:0:0:
190,53,74398,1,0,0:0:0:0:
190,54,74599,1,12,0:0:0:0:
178,217,74901,1,0,0:0:0:0:
178,217,75002,1,8,0:0:0:0:
158,99,75203,1,0,0:0:0:0:
158,99,75304,1,0,0:0:0:0:
158,99,75405,1,8,0:0:0:0:
158,99,75505,1,0,0:0:0:0:
146,56,75707,1,8,0:0:0:0:
146,56,75808,1,8,0:0:0:0:
176,62,76009,1,8,0:0:0:0:
174,68,76110,1,8,0:0:0:0:
173,66,76210,1,0,0:0:0:0:
167,87,76412,1,0,0:0:0:0:
166,87,76613,1,8,0:0:0:0:
178,165,76814,1,0,0:0:0:0:
178,165,76915,1,8,0:0:0:0:
178,165,77016,1,8,0:0:0:0:
178,165,77116,1,0,0:0:0:0:
160,175,77318,1,0,0:0:0:0:
160,176,77418,1,8,0:0:0:0:
166,170,77620,1,8,0:0:0:0:
162,170,77821,1,0,0:0:0:0:
118,263,78123,1,0,0:0:0:0:
118,263,78224,1,8,0:0:0:0:
166,85,78425,1,0,0:0:0:0:
166,85,78526,1,8,0:0:0:0:
166,85,78626,1,8,0:0:0:0:
166,85,78727,1,8,0:0:0:0:
174,56,78928,1,0,0:0:0:0:
173,57,79029,1,8,0:0:0:0:
169,47,79230,1,8,0:0:0:0:
158,22,79331,1,0,0:0:0:0:
169,47,79432,1,0,0:0:0:0:
159,40,79633,1,8,0:0:0:0:
159,42,79734,1,8,0:0:0:0:
159,40,79834,1,0,0:0:0:0:
159,43,79935,1,0,0:0:0:0:
158,45,80036,1,0,0:0:0:0:
158,45,80237,1,8,0:0:0:0:
143,73,80338,1,8,0:0:0:0:
143,74,80438,1,0,0:0:0:0:
188,87,80640,1,8,0:0:0:0:
188,87,80841,1,8,0:0:0:0:
188,87,81042,1,4,0:0:0:0:
166,93,81344,1,0,0:0:0:0:
166,94,81445,1,8,0:0:0:0:
134,141,81646,1,0,0:0:0:0:
134,141,81747,1,8,0:0:0:0:
134,141,81848,1,8,0:0:0:0:
161,124,82049,1,0,0:0:0:0:
161,126,82250,1,8,0:0:0:0:
161,126,82452,1,8,0:0:0:0:
161,126,82552,1,0,0:0:0:0:
161,126,82653,1,0,0:0:0:0:
174,74,82854,1,0,0:0:0:0:
174,74,83056,1,8,0:0:0:0:
163,82,83257,1,0,0:0:0:0:
163,82,83358,1,0,0:0:0:0:
163,82,83559,1,8,0:0:0:0:
163,82,83660,1,0,0:0:0:0:
163,85,83861,1,8,0:0:0:0:
174,74,84063,1,8,0:0:0:0:
176,72,84264,1,4,0:0:0:0:
152,73,84667,1,8,0:0:0:0:
151,74,84868,1,0,0:0:0:0:
151,77,85069,1,0,0:0:0:0:
151,77,85271,1,8,0:0:0:0:
152,73,85673,1,4,0:0:0:0:
176,111,86076,1,8,0:0:0:0:
176,111,86277,1,0,0:0:0:0:
181,90,86479,1,8,0:0:0:0:
178,93,86579,1,8,0:0:0:0:
178,93,86680,1,0,0:0:0:0:
159,67,86881,1,8,0:0:0:0:
158,67,87083,1,8,0:0:0:0:
160,78,87284,1,8,0:0:0:0:
160,79,87485,1,4,0:0:0:0:
185,80,89096,1,12,0:0:0:0:
158,107,90304,1,0,0:0:0:0:
125,142,90707,1,8,0:0:0:0:
125,142,90808,1,0,0:0:0:0:
183,76,91009,1,8,0:0:0:0:
183,76,91110,1,8,0:0:0:0:
183,76,91210,1,0,0:0:0:0:
183,76,91412,1,0,0:0:0:0:
183,76,91512,1,8,0:0:0:0:
183,76,91613,1,0,0:0:0:0:
183,76,91714,1,0,0:0:0:0:
183,76,91915,1,8,0:0:0:0:
150,102,92217,1,0,0:0:0:0:
150,102,92318,1,0,0:0:0:0:
142,120,92519,1,8,0:0:0:0:
142,120,92620,1,0,0:0:0:0:
142,120,92821,1,8,0:0:0:0:
142,120,92922,1,0,0:0:0:0:
142,119,93022,1,0,0:0:0:0:
142,120,93123,1,8,0:0:0:0:
185,70,93224,1,8,0:0:0:0:
162,51,93324,1,0,0:0:0:0:
162,51,93526,1,8,0:0:0:0:
187,79,93928,1,8,0:0:0:0:
191,66,94029,1,0,0:0:0:0:
185,70,94230,1,8,0:0:0:0:
173,77,94331,1,8,0:0:0:0:
173,77,94432,1,0,0:0:0:0:
186,96,94633,1,0,0:0:0:0:
179,97,94734,1,8,0:0:0:0:
178,82,94834,1,0,0:0:0:0:
185,97,94935,1,0,0:0:0:0:
151,63,95136,1,8,0:0:0:0:
197,131,95438,1,8,0:0:0:0:
180,45,95539,5,0,0:0:0:0:
180,45,95740,1,8,0:0:0:0:
180,45,95841,1,0,0:0:0:0:
179,54,96042,1,8,0:0:0:0:
179,56,96143,1,0,0:0:0:0:
197,131,96244,1,0,0:0:0:0:
197,131,96344,1,0,0:0:0:0:
176,54,96546,1,8,0:0:0:0:
176,54,96646,1,8,0:0:0:0:
176,54,96747,1,8,0:0:0:0:
171,121,97150,1,0,0:0:0:0:
181,83,97351,1,8,0:0:0:0:
184,70,97452,1,8,0:0:0:0:
166,72,97552,1,0,0:0:0:0:
181,83,97754,1,8,0:0:0:0:
196,99,97955,1,0,0:0:0:0:
196,99,98056,1,8,0:0:0:0:
193,52,98257,1,0,0:0:0:0:
196,99,98358,1,0,0:0:0:0:
189,67,98559,1,8,0:0:0:0:
188,73,98660,1,8,0:0:0:0:
196,99,98761,1,0,0:0:0:0:
181,79,98962,1,8,0:0:0:0:
176,90,99063,1,0,0:0:0:0:
181,81,99163,1,0,0:0:0:0:
179,103,99365,1,8,0:0:0:0:
179,103,99566,1,0,0:0:0:0:
172,103,99667,1,0,0:0:0:0:
171,108,99868,1,8,0:0:0:0:
171,108,99969,1,0,0:0:0:0:
172,113,100069,1,0,0:0:0:0:
171,114,100170,1,8,0:0:0:0:
172,113,100271,1,8,0:0:0:0:
171,115,100371,1,0,0:0:0:0:
168,115,100573,1,8,0:0:0:0:
167,116,100774,1,0,0:0:0:0:
174,82,100875,1,0,0:0:0:0:
174,82,100975,1,8,0:0:0:0:
166,44,101177,1,0,0:0:0:0:
166,59,101277,1,8,0:0:0:0:
165,63,101479,1,8,0:0:0:0:
165,63,101579,1,0,0:0:0:0:
162,81,101781,1,8,0:0:0:0:
159,86,101881,1,0,0:0:0:0:
162,81,101982,1,0,0:0:0:0:
152,101,102083,1,8,0:0:0:0:
152,101,102183,1,8,0:0:0:0:
152,102,102284,1,8,0:0:0:0:
152,102,102385,1,0,0:0:0:0:
174,85,102586,1,8,0:0:0:0:
171,87,102687,1,0,0:0:0:0:
171,87,102787,1,0,0:0:0:0:
160,71,102888,1,8,0:0:0:0:
153,73,103089,1,8,0:0:0:0:
153,73,103190,1,0,0:0:0:0:
149,93,103391,1,8,0:0:0:0:
143,117,103794,1,8,0:0:0:0:
143,117,103995,1,0,0:0:0:0:
201,114,104197,1,8,0:0:0:0:
201,114,104297,1,0,0:0:0:0:
201,114,104398,1,0,0:0:0:0:
172,74,104599,1,8,0:0:0:0:
172,74,104801,1,0,0:0:0:0:
172,74,105002,1,8,0:0:0:0:
169,80,105405,1,8,0:0:0:0:
169,80,105606,1,0,0:0:0:0:
163,83,105808,1,8,0:0:0:0:
163,83,105908,1,8,0:0:0:0:
161,88,106009,1,0,0:0:0:0:
156,94,106210,1,8,0:0:0:0:
156,94,106412,1,0,0:0:0:0:
156,94,106613,1,8,0:0:0:0:
155,97,106814,1,0,0:0:0:0:
170,60,106915,1,8,0:0:0:0:
170,60,107116,1,8,0:0:0:0:
156,94,107217,1,0,0:0:0:0:
152,77,107418,1,8,0:0:0:0:
151,87,107519,1,8,0:0:0:0:
152,77,107620,1,0,0:0:0:0:
179,105,107821,1,8,0:0:0:0:
179,105,108022,1,0,0:0:0:0:
174,109,108224,1,8,0:0:0:0:
174,109,108425,1,0,0:0:0:0:
174,110,108828,1,0,0:0:0:0:
174,109,109230,1,0,0:0:0:0:
174,110,109633,1,8,0:0:0:0:
204,125,110036,1,8,0:0:0:0:
156,77,110136,1,0,0:0:0:0:
156,77,110237,1,0,0:0:0:0:
156,77,110338,1,8,0:0:0:0:
156,77,110438,1,8,0:0:0:0:
162,61,110640,1,8,0:0:0:0:
162,61,110740,1,0,0:0:0:0:
162,61,110841,1,0,0:0:0:0:
181,29,110942,1,8,0:0:0:0:
166,42,111143,1,0,0:0:0:0:
166,45,111244,1,8,0:0:0:0:
166,42,111344,1,0,0:0:0:0:
165,42,111445,1,8,0:0:0:0:
165,42,111546,1,8,0:0:0:0:
162,48,111646,1,0,0:0:0:0:
163,50,111747,1,0,0:0:0:0:
162,61,111848,1,8,0:0:0:0:
159,58,112049,1,8,0:0:0:0:
176,67,112250,1,0,0:0:0:0:
176,67,112351,1,8,0:0:0:0:
176,67,112452,1,0,0:0:0:0:
178,27,112552,1,0,0:0:0:0:
170,48,112754,1,8,0:0:0:0:
170,48,112854,1,8,0:0:0:0:
159,58,113056,1,8,0:0:0:0:
164,66,113257,1,0,0:0:0:0:
166,52,113358,1,8,0:0:0:0:
166,52,113459,1,8,0:0:0:0:
166,55,113559,1,0,0:0:0:0:
172,63,113660,1,8,0:0:0:0:
172,67,113861,1,8,0:0:0:0:
172,67,113962,1,0,0:0:0:0:
172,67,114063,1,0,0:0:0:0:
178,33,114163,1,8,0:0:0:0:
176,37,114365,1,8,0:0:0:0:
169,72,114566,1,0,0:0:0:0:
169,72,114767,1,8,0:0:0:0:
165,74,114868,1,0,0:0:0:0:
186,86,115069,1,8,0:0:0:0:
185,87,115271,1,8,0:0:0:0:
189,89,115371,1,0,0:0:0:0:
189,89,115472,1,0,0:0:0:0:
189,89,115573,1,8,0:0:0:0:
169,72,115673,1,8,0:0:0:0:
176,71,115774,1,0,0:0:0:0:
171,73,115975,1,8,0:0:0:0:
171,73,116076,1,8,0:0:0:0:
177,52,116277,1,8,0:0:0:0:
174,81,116680,1,0,0:0:0:0:
174,81,116881,1,8,0:0:0:0:
154,107,117083,1,0,0:0:0:0:
154,107,117183,1,8,0:0:0:0:
152,108,117284,1,0,0:0:0:0:
166,102,117485,1,0,0:0:0:0:
162,105,117687,1,8,0:0:0:0:
163,105,117989,1,8,0:0:0:0:
163,105,118089,1,0,0:0:0:0:
164,106,118291,1,0,0:0:0:0:
166,102,118492,1,8,0:0:0:0:
170,107,118693,1,8,0:0:0:0:
168,111,118794,1,0,0:0:0:0:
168,111,118895,1,0,0:0:0:0:
179,86,119096,1,8,0:0:0:0:
170,88,119499,1,8,0:0:0:0:
170,88,119599,1,8,0:0:0:0:
170,88,119700,1,0,0:0:0:0:
146,76,119901,1,0,0:0:0:0:
146,77,120103,1,8,0:0:0:0:
137,75,120304,1,0,0:0:0:0:
137,72,120405,1,0,0:0:0:0:
137,75,120505,1,0,0:0:0:0:
139,83,120707,1,0,0:0:0:0:
139,83,120908,1,8,0:0:0:0:
176,72,121110,1,0,0:0:0:0:
176,72,121210,1,8,0:0:0:0:
176,72,121311,1,0,0:0:0:0:
176,72,121512,1,0,0:0:0:0:
176,72,121613,1,8,0:0:0:0:
171,76,121814,1,0,0:0:0:0:
171,76,121915,1,8,0:0:0:0:
176,72,122116,1,0,0:0:0:0:
176,72,122217,1,0,0:0:0:0:
176,72,122318,1,0,0:0:0:0:
176,72,122519,1,8,0:0:0:0:
171,76,122922,1,8,0:0:0:0:
173,78,123022,1,8,0:0:0:0:
201,73,123224,1,0,0:0:0:0:
149,57,123425,1,8,0:0:0:0:
146,57,123526,1,0,0:0:0:0:
146,57,123727,1,8,0:0:0:0:
146,57,123828,1,8,0:0:0:0:
146,57,124029,1,0,0:0:0:0:
163,53,124331,1,0,0:0:0:0:
163,53,124532,1,8,0:0:0:0:
171,58,124633,1,8,0:0:0:0:
170,59,124834,1,0,0:0:0:0:
173,57,125036,1,8,0:0:0:0:
170,59,125136,1,0,0:0:0:0:
147,73,125338,1,8,0:0:0:0:
147,73,125438,1,8,0:0:0:0:
141,77,125640,1,0,0:0:0:0:
141,76,126143,1,4,0:0:0:0:
176,109,126344,1,8,0:0:0:0:
173,71,126445,1,0,0:0:0:0:
176,109,126546,1,0,0:0:0:0:
176,109,126747,1,8,0:0:0:0:
173,71,126848,1,8,0:0:0:0:
176,109,126948,1,0,0:0:0:0:
176,109,127150,1,8,0:0:0:0:
173,71,127250,1,8,0:0:0:0:
176,109,127351,1,0,0:0:0:0:
176,109,127552,1,8,0:0:0:0:
176,109,127754,1,0,0:0:0:0:
176,109,127955,1,8,0:0:0:0:
173,71,128056,1,0,0:0:0:0:
176,109,128157,1,0,0:0:0:0:
176,109,128358,1,8,0:0:0:0:
173,71,128459,1,8,0:0:0:0:
176,109,128559,1,0,0:0:0:0:
176,109,128761,1,8,0:0:0:0:
173,71,128861,1,8,0:0:0:0:
176,109,128962,1,0,0:0:0:0:
176,109,129163,1,8,0:0:0:0:
176,109,129365,1,0,0:0:0:0:
176,109,129566,1,8,0:0:0:0:
173,71,129667,1,0,0:0:0:0:
176,109,129767,1,0,0:0:0:0:
173,71,129868,1,0,0:0:0:0:
176,109,129969,1,8,0:0:0:0:
173,71,130069,1,8,0:0:0:0:
176,109,130170,1,0,0:0:0:0:
173,71,130271,1,0,0:0:0:0:
176,109,130371,1,8,0:0:0:0:
173,71,130472,1,0,0:0:0:0:
176,109,130573,1,0,0:0:0:0:
173,71,130673,1,0,0:0:0:0:
176,109,130774,1,8,0:0:0:0:
211,82,130875,1,8,0:0:0:0:
176,109,130975,1,0,0:0:0:0:
211,82,131076,1,0,0:0:0:0:
176,109,131177,1,8,0:0:0:0:
187,47,131277,1,0,0:0:0:0:
176,109,131378,1,0,0:0:0:0:
187,47,131479,1,0,0:0:0:0:
176,109,131579,1,8,0:0:0:0:
216,69,131680,1,8,0:0:0:0:
176,109,131781,1,0,0:0:0:0:
176,75,132183,1,4,0:0:0:0:
162,83,132586,1,12,0:0:0:0:
200,112,132888,1,0,0:0:0:0:
139,107,132989,1,8,0:0:0:0:
162,117,133190,1,0,0:0:0:0:
162,117,133291,1,8,0:0:0:0:
162,117,133391,1,8,0:0:0:0:
173,97,133492,1,0,0:0:0:0:
171,101,133693,1,8,0:0:0:0:
171,101,133794,1,8,0:0:0:0:
195,82,133995,1,8,0:0:0:0:
186,102,134096,1,8,0:0:0:0:
186,102,134197,1,0,0:0:0:0:
181,112,134398,1,0,0:0:0:0:
181,114,134499,1,0,0:0:0:0:
181,114,134599,1,8,0:0:0:0:
183,76,134700,1,8,0:0:0:0:
183,77,134801,1,8,0:0:0:0:
180,53,134901,1,0,0:0:0:0:
178,55,135002,1,8,0:0:0:0:
176,55,135103,1,8,0:0:0:0:
173,72,135304,1,0,0:0:0:0:
171,73,135405,1,8,0:0:0:0:
170,82,135606,1,0,0:0:0:0:
183,77,135808,1,8,0:0:0:0:
176,55,136110,1,0,0:0:0:0:
160,102,136210,1,8,0:0:0:0:
166,91,136412,1,0,0:0:0:0:
165,92,136512,1,8,0:0:0:0:
165,92,136613,1,8,0:0:0:0:
167,62,136714,1,0,0:0:0:0:
165,66,136915,1,0,0:0:0:0:
165,66,137016,1,8,0:0:0:0:
184,48,137217,1,8,0:0:0:0:
183,48,137318,1,8,0:0:0:0:
183,48,137418,1,0,0:0:0:0:
181,57,137620,1,8,0:0:0:0:
181,59,137720,1,0,0:0:0:0:
181,57,137821,1,8,0:0:0:0:
186,74,137922,1,8,0:0:0:0:
171,69,138022,1,8,0:0:0:0:
181,83,138123,1,0,0:0:0:0:
181,83,138224,1,0,0:0:0:0:
182,81,138324,1,8,0:0:0:0:
170,97,138526,1,0,0:0:0:0:
167,100,138626,1,8,0:0:0:0:
165,108,138828,1,8,0:0:0:0:
165,108,139029,1,4,0:0:0:0:
180,41,139331,1,0,0:0:0:0:
171,82,139432,1,8,0:0:0:0:
176,124,139633,1,0,0:0:0:0:
170,127,139734,1,8,0:0:0:0:
169,127,139834,1,8,0:0:0:0:
191,105,140036,1,8,0:0:0:0:
183,114,140237,1,0,0:0:0:0:
181,112,140438,1,8,0:0:0:0:
167,112,140539,1,0,0:0:0:0:
181,114,140640,1,0,0:0:0:0:
181,117,140740,1,8,0:0:0:0:
181,80,140841,1,8,0:0:0:0:
176,100,141042,1,8,0:0:0:0:
176,105,141244,1,8,0:0:0:0:
171,127,141344,1,0,0:0:0:0:
171,127,141445,1,0,0:0:0:0:
172,130,141646,1,8,0:0:0:0:
164,75,141848,1,8,0:0:0:0:
162,77,142049,1,8,0:0:0:0:
164,75,142250,1,4,0:0:0:0:
164,75,142653,1,8,0:0:0:0:
164,75,142854,1,0,0:0:0:0:
162,77,143056,1,0,0:0:0:0:
164,75,143257,1,8,0:0:0:0:
164,75,143459,1,8,0:0:0:0:
164,75,143660,1,4,0:0:0:0:
172,101,144063,1,8,0:0:0:0:
172,101,144264,1,0,0:0:0:0:
172,101,144465,1,8,0:0:0:0:
171,104,144566,1,8,0:0:0:0:
171,105,144667,1,0,0:0:0:0:
170,108,144767,1,0,0:0:0:0:
170,108,144868,1,8,0:0:0:0:
166,107,145069,1,0,0:0:0:0:
166,107,145271,1,0,0:0:0:0:
196,82,145472,1,12,0:0:0:0:
159,101,145774,1,0,0:0:0:0:
159,101,145875,1,8,0:0:0:0:
149,77,146076,1,0,0:0:0:0:
170,50,146177,1,0,0:0:0:0:
170,50,146277,1,8,0:0:0:0:
149,77,146378,1,0,0:0:0:0:
165,127,146579,1,8,0:0:0:0:
165,127,146680,1,8,0:0:0:0:
186,131,146881,1,8,0:0:0:0:
170,92,147083,1,0,0:0:0:0:
169,92,147284,1,8,0:0:0:0:
162,66,147485,1,8,0:0:0:0:
170,92,147687,1,0,0:0:0:0:
170,92,147787,1,0,0:0:0:0:
170,92,147888,1,8,0:0:0:0:
150,71,147989,1,8,0:0:0:0:
151,75,148190,1,0,0:0:0:0:
151,75,148291,1,8,0:0:0:0:
170,90,148492,1,8,0:0:0:0:
170,92,148693,1,0,0:0:0:0:
170,110,148995,1,0,0:0:0:0:
171,106,149096,1,8,0:0:0:0:
167,112,149297,1,0,0:0:0:0:
184,55,149398,1,8,0:0:0:0:
167,112,149499,1,8,0:0:0:0:
182,61,149599,1,8,0:0:0:0:
181,33,149801,1,0,0:0:0:0:
179,35,149901,1,8,0:0:0:0:
173,50,150103,1,8,0:0:0:0:
176,58,150203,1,0,0:0:0:0:
173,50,150304,1,0,0:0:0:0:
169,73,150505,1,8,0:0:0:0:
169,76,150707,1,8,0:0:0:0:
161,95,150908,1,0,0:0:0:0:
204,60,151009,1,8,0:0:0:0:
161,97,151110,1,8,0:0:0:0:
158,72,151210,1,0,0:0:0:0:
207,46,151311,1,0,0:0:0:0:
186,26,151512,1,8,0:0:0:0:
163,52,151714,5,8,0:0:0:0:
163,53,151915,1,4,0:0:0:0:
132,86,152217,1,0,0:0:0:0:
132,80,152318,1,8,0:0:0:0:
131,93,152519,1,0,0:0:0:0:
163,67,152620,1,8,0:0:0:0:
130,95,152720,1,8,0:0:0:0:
145,59,152821,1,0,0:0:0:0:
145,60,152922,1,8,0:0:0:0:
173,60,153123,1,8,0:0:0:0:
172,61,153324,1,0,0:0:0:0:
172,61,153425,1,8,0:0:0:0:
172,61,153526,1,0,0:0:0:0:
165,92,153727,1,0,0:0:0:0:
165,92,153928,1,8,0:0:0:0:
157,124,154130,1,0,0:0:0:0:
157,124,154230,1,8,0:0:0:0:
156,124,154432,1,0,0:0:0:0:
156,124,154532,1,0,0:0:0:0:
156,124,154734,1,8,0:0:0:0:
153,142,154935,1,8,0:0:0:0:
153,143,155136,1,4,0:0:0:0:
156,124,155539,1,8,0:0:0:0:
156,124,155740,1,0,0:0:0:0:
152,128,155942,1,0,0:0:0:0:
152,129,156143,1,8,0:0:0:0:
156,124,156344,1,8,0:0:0:0:
152,130,156546,1,4,0:0:0:0:
152,128,156948,1,8,0:0:0:0:
152,129,157150,1,0,0:0:0:0:
149,129,157351,1,8,0:0:0:0:
152,130,157452,1,8,0:0:0:0:
152,128,157552,1,0,0:0:0:0:
159,93,157754,1,8,0:0:0:0:
159,94,157955,1,8,0:0:0:0:
159,94,158157,1,8,0:0:0:0:
159,94,158358,1,4,0:0:0:0:
161,97,159969,1,12,0:0:0:0:
159,109,161177,1,8,0:0:0:0:
159,109,161579,1,0,0:0:0:0:
195,202,161881,1,8,0:0:0:0:
202,50,162083,1,0,0:0:0:0:
203,208,162183,1,0,0:0:0:0:
203,208,162385,1,8,0:0:0:0:
195,202,162687,1,0,0:0:0:0:
194,196,162989,1,8,0:0:0:0:
194,196,163190,1,0,0:0:0:0:
141,108,163391,1,8,0:0:0:0:
141,108,163492,1,8,0:0:0:0:
194,196,163794,1,0,0:0:0:0:
194,196,163995,1,8,0:0:0:0:
202,87,164599,1,8,0:0:0:0:
202,87,164801,1,8,0:0:0:0:
178,74,165103,1,0,0:0:0:0:
207,61,165304,1,8,0:0:0:0:
176,77,165405,1,8,0:0:0:0:
176,77,165606,1,8,0:0:0:0:
172,63,165808,1,0,0:0:0:0:
171,64,165908,1,0,0:0:0:0:
156,51,166210,1,8,0:0:0:0:
156,51,166412,1,8,0:0:0:0:
154,54,166714,1,0,0:0:0:0:
156,51,167016,1,8,0:0:0:0:
156,51,167217,1,8,0:0:0:0:
177,75,167620,1,8,0:0:0:0:
196,44,167821,1,0,0:0:0:0:
177,75,168022,1,0,0:0:0:0:
190,102,168324,1,8,0:0:0:0:
190,102,168626,1,0,0:0:0:0:
190,102,168828,1,8,0:0:0:0:
190,102,169130,1,8,0:0:0:0:
190,102,169432,1,8,0:0:0:0:
190,102,169633,1,0,0:0:0:0:
180,97,169935,1,8,0:0:0:0:
180,97,170237,1,0,0:0:0:0:
180,97,170438,1,8,0:0:0:0:
192,82,171042,1,8,0:0:0:0:
238,46,171143,1,0,0:0:0:0:
192,82,171244,1,0,0:0:0:0:
192,82,171546,1,8,0:0:0:0:
192,82,171848,1,0,0:0:0:0:
195,50,172049,1,8,0:0:0:0:
192,82,172351,1,0,0:0:0:0:
192,82,172653,1,8,0:0:0:0:
192,82,172854,1,0,0:0:0:0:
183,52,173157,1,8,0:0:0:0:
183,52,173459,1,8,0:0:0:0:
183,52,173660,1,8,0:0:0:0:
201,100,174465,1,0,0:0:0:0:
199,263,174667,1,8,0:0:0:0:
199,263,174767,1,0,0:0:0:0:
186,195,174969,1,0,0:0:0:0:
186,195,175069,1,0,0:0:0:0:
186,195,175271,1,8,0:0:0:0:
175,92,175573,1,0,0:0:0:0:
175,92,175875,1,8,0:0:0:0:
175,92,176076,1,0,0:0:0:0:
170,107,176277,1,8,0:0:0:0:
170,107,176378,1,8,0:0:0:0:
170,107,176579,1,0,0:0:0:0:
170,109,176680,1,8,0:0:0:0:
180,69,176881,1,8,0:0:0:0:
179,99,177284,1,8,0:0:0:0:
179,99,177485,1,8,0:0:0:0:
179,99,177586,1,0,0:0:0:0:
179,99,177687,1,0,0:0:0:0:
178,101,177888,1,8,0:0:0:0:
179,99,177989,1,0,0:0:0:0:
179,99,178190,1,0,0:0:0:0:
179,99,178291,1,0,0:0:0:0:
182,109,178492,1,8,0:0:0:0:
181,111,178794,1,0,0:0:0:0:
181,112,179096,1,8,0:0:0:0:
181,112,179297,1,0,0:0:0:0:
182,109,179499,1,8,0:0:0:0:
181,111,179599,1,8,0:0:0:0:
181,111,179801,1,0,0:0:0:0:
181,112,179901,1,8,0:0:0:0:
181,112,180103,1,8,0:0:0:0:
217,45,180304,1,0,0:0:0:0:
152,137,180505,1,8,0:0:0:0:
159,127,180707,1,8,0:0:0:0:
159,127,180908,1,0,0:0:0:0:
167,71,181110,1,0,0:0:0:0:
167,71,181210,1,8,0:0:0:0:
167,71,181412,1,0,0:0:0:0:
167,71,181512,1,0,0:0:0:0:
167,71,181714,1,8,0:0:0:0:
167,71,181915,1,0,0:0:0:0:
167,71,182016,1,0,0:0:0:0:
167,71,182217,1,8,0:0:0:0:
167,71,182318,1,0,0:0:0:0:
167,71,182418,1,0,0:0:0:0:
167,71,182519,1,8,0:0:0:0:
167,71,182720,1,0,0:0:0:0:
167,71,182821,1,8,0:0:0:0:
162,76,183022,1,0,0:0:0:0:
168,54,183123,1,0,0:0:0:0:
170,50,183324,1,8,0:0:0:0:
167,71,183727,1,8,0:0:0:0:
162,76,183928,1,0,0:0:0:0:
163,76,184130,1,0,0:0:0:0:
159,84,184331,1,8,0:0:0:0:
159,83,184432,1,0,0:0:0:0:
181,67,184633,1,0,0:0:0:0:
181,67,184734,1,0,0:0:0:0:
181,67,184935,1,8,0:0:0:0:
181,67,185136,1,0,0:0:0:0:
181,67,185237,1,8,0:0:0:0:
181,67,185438,1,0,0:0:0:0:
181,67,185539,1,0,0:0:0:0:
187,73,185740,1,8,0:0:0:0:
176,85,186042,1,8,0:0:0:0:
175,86,186344,1,8,0:0:0:0:
175,86,186546,1,8,0:0:0:0:
175,86,187351,1,4,0:0:0:0:
190,75,187653,1,0,0:0:0:0:
166,93,187754,1,8,0:0:0:0:
191,225,187955,1,0,0:0:0:0:
191,225,188056,1,8,0:0:0:0:
193,92,188157,1,8,0:0:0:0:
191,225,188257,1,0,0:0:0:0:
198,118,188358,1,0,0:0:0:0:
196,122,188559,1,8,0:0:0:0:
187,128,188761,1,8,0:0:0:0:
187,128,188962,1,0,0:0:0:0:
185,129,189163,1,8,0:0:0:0:
177,27,189264,1,0,0:0:0:0:
185,129,189365,1,8,0:0:0:0:
182,129,189566,1,0,0:0:0:0:
187,128,189667,1,8,0:0:0:0:
187,128,189767,1,0,0:0:0:0:
187,128,189969,1,0,0:0:0:0:
185,129,190170,1,8,0:0:0:0:
181,67,190371,1,8,0:0:0:0:
181,67,190472,1,8,0:0:0:0:
182,129,190573,1,0,0:0:0:0:
181,67,190875,1,0,0:0:0:0:
179,61,190975,1,8,0:0:0:0:
175,117,191177,1,0,0:0:0:0:
175,117,191277,1,8,0:0:0:0:
175,117,191378,1,8,0:0:0:0:
174,80,191579,1,0,0:0:0:0:
178,82,191680,1,0,0:0:0:0:
174,80,191781,1,8,0:0:0:0:
178,82,191982,1,8,0:0:0:0:
178,83,192183,1,0,0:0:0:0:
176,65,192385,1,8,0:0:0:0:
176,65,192485,1,0,0:0:0:0:
176,69,192586,1,8,0:0:0:0:
191,60,192687,1,8,0:0:0:0:
191,60,192787,1,8,0:0:0:0:
192,29,192888,1,0,0:0:0:0:
183,44,192989,1,0,0:0:0:0:
181,48,193089,1,8,0:0:0:0:
204,52,193291,1,0,0:0:0:0:
201,55,193391,1,8,0:0:0:0:
188,50,193593,1,8,0:0:0:0:
188,50,193794,1,0,0:0:0:0:
176,209,193995,1,0,0:0:0:0:
176,209,194197,1,8,0:0:0:0:
189,140,194398,1,0,0:0:0:0:
189,140,194499,1,8,0:0:0:0:
189,140,194599,1,0,0:0:0:0:
180,147,194801,1,0,0:0:0:0:
180,147,195002,1,8,0:0:0:0:
179,153,195203,1,8,0:0:0:0:
179,151,195304,1,8,0:0:0:0:
179,153,195405,1,0,0:0:0:0:
169,93,195606,1,0,0:0:0:0:
169,93,195707,1,8,0:0:0:0:
169,93,195808,1,8,0:0:0:0:
169,93,195908,1,0,0:0:0:0:
169,93,196009,1,0,0:0:0:0:
166,110,196110,1,8,0:0:0:0:
165,110,196210,1,0,0:0:0:0:
157,65,196412,1,0,0:0:0:0:
157,66,196613,1,8,0:0:0:0:
153,72,196814,1,8,0:0:0:0:
153,72,197016,1,0,0:0:0:0:
153,73,197418,1,8,0:0:0:0:
153,74,197620,1,0,0:0:0:0:
153,72,197720,1,8,0:0:0:0:
153,72,197821,1,0,0:0:0:0:
150,89,198022,1,0,0:0:0:0:
150,90,198224,1,8,0:0:0:0:
149,88,198425,1,8,0:0:0:0:
149,88,198626,1,4,0:0:0:0:
168,52,199029,1,8,0:0:0:0:
168,52,199230,1,0,0:0:0:0:
168,52,199331,1,8,0:0:0:0:
168,52,199532,1,0,0:0:0:0:
168,52,199633,1,0,0:0:0:0:
196,103,199834,5,8,0:0:0:0:
216,217,200237,5,4,0:0:0:0:
216,217,200438,1,8,0:0:0:0:
216,217,200539,1,0,0:0:0:0:
216,217,200640,1,0,0:0:0:0:
170,84,200841,1,8,0:0:0:0:
170,84,200942,1,8,0:0:0:0:
147,74,201042,1,0,0:0:0:0:
147,74,201244,1,8,0:0:0:0:
200,92,201344,1,8,0:0:0:0:
147,74,201445,1,0,0:0:0:0:
147,74,201646,1,8,0:0:0:0:
147,74,201848,1,0,0:0:0:0:
145,87,202049,1,8,0:0:0:0:
200,92,202150,1,0,0:0:0:0:
145,87,202250,1,0,0:0:0:0:
145,87,202452,1,8,0:0:0:0:
200,92,202552,1,8,0:0:0:0:
145,87,202653,1,0,0:0:0:0:
145,87,202854,1,8,0:0:0:0:
200,92,202955,1,8,0:0:0:0:
145,87,203056,1,0,0:0:0:0:
145,87,203257,1,8,0:0:0:0:
145,87,203459,1,0,0:0:0:0:
145,87,203660,1,8,0:0:0:0:
200,92,203761,1,0,0:0:0:0:
145,87,203861,1,0,0:0:0:0:
200,92,203962,1,0,0:0:0:0:
145,87,204063,1,8,0:0:0:0:
200,92,204163,1,8,0:0:0:0:
145,87,204264,1,0,0:0:0:0:
200,92,204365,1,0,0:0:0:0:
145,87,204465,1,8,0:0:0:0:
200,92,204566,1,0,0:0:0:0:
145,87,204667,1,0,0:0:0:0:
234,66,204767,1,0,0:0:0:0:
145,87,204868,1,8,0:0:0:0:
234,66,204969,1,8,0:0:0:0:
145,87,205069,1,0,0:0:0:0:
212,45,205170,1,0,0:0:0:0:
145,87,205271,1,8,0:0:0:0:
210,45,205371,1,0,0:0:0:0:
145,87,205472,1,0,0:0:0:0:
203,53,205573,1,0,0:0:0:0:
145,87,205673,1,8,0:0:0:0:
203,53,205774,1,8,0:0:0:0:
145,87,205875,1,0,0:0:0:0:
132,62,206680,5,12,0:0:0:0:
187,26,208291,1,4,0:0:0:0:
196,73,209499,1,8,0:0:0:0:
158,59,209901,1,4,0:0:0:0:
210,102,210203,1,0,0:0:0:0:
163,80,210304,1,8,0:0:0:0:
160,93,210505,1,0,0:0:0:0:
160,95,210606,1,8,0:0:0:0:
160,95,210707,1,8,0:0:0:0:
159,96,210808,1,8,0:0:0:0:
185,45,211009,1,0,0:0:0:0:
185,45,211110,1,8,0:0:0:0:
196,79,211311,1,8,0:0:0:0:
186,52,211412,1,0,0:0:0:0:
184,57,211512,1,0,0:0:0:0:
178,68,211714,1,8,0:0:0:0:
178,68,211814,1,8,0:0:0:0:
161,47,211915,1,8,0:0:0:0:
161,57,212016,1,0,0:0:0:0:
154,111,212116,1,8,0:0:0:0:
162,62,212217,1,0,0:0:0:0:
162,62,212318,1,0,0:0:0:0:
162,62,212418,1,8,0:0:0:0:
169,76,212620,1,0,0:0:0:0:
168,77,212720,1,8,0:0:0:0:
183,90,212922,1,8,0:0:0:0:
216,60,213022,1,0,0:0:0:0:
183,90,213123,1,0,0:0:0:0:
216,155,213324,1,0,0:0:0:0:
171,109,213526,1,8,0:0:0:0:
186,168,213727,1,0,0:0:0:0:
186,168,213828,1,8,0:0:0:0:
186,168,213928,1,8,0:0:0:0:
170,57,214130,1,0,0:0:0:0:
170,57,214331,1,8,0:0:0:0:
171,77,214532,1,8,0:0:0:0:
174,88,214633,1,0,0:0:0:0:
171,77,214734,1,0,0:0:0:0:
201,77,214834,1,8,0:0:0:0:
169,98,214935,1,8,0:0:0:0:
200,52,215136,1,0,0:0:0:0:
195,59,215338,1,8,0:0:0:0:
190,65,215438,1,8,0:0:0:0:
190,65,215539,1,0,0:0:0:0:
187,72,215740,1,8,0:0:0:0:
222,67,215942,1,8,0:0:0:0:
176,81,216143,1,8,0:0:0:0:
187,59,216344,1,4,0:0:0:0:
180,91,216747,1,0,0:0:0:0:
180,91,216948,1,12,0:0:0:0:
179,89,217351,1,8,0:0:0:0:
206,91,217552,1,8,0:0:0:0:
180,91,217754,1,4,0:0:0:0:
176,96,218157,1,8,0:0:0:0:
176,96,218358,1,0,0:0:0:0:
180,91,218559,1,8,0:0:0:0:
180,91,218660,1,8,0:0:0:0:
180,91,218761,1,0,0:0:0:0:
188,102,218861,1,0,0:0:0:0:
188,102,218962,1,0,0:0:0:0:
210,77,219063,1,0,0:0:0:0:
196,42,219163,1,8,0:0:0:0:
190,53,219365,1,0,0:0:0:0:
190,54,219566,1,12,0:0:0:0:
178,217,219868,1,0,0:0:0:0:
178,217,219969,1,8,0:0:0:0:
158,99,220170,1,0,0:0:0:0:
158,99,220271,1,0,0:0:0:0:
158,99,220371,1,8,0:0:0:0:
158,99,220472,1,0,0:0:0:0:
146,56,220673,1,8,0:0:0:0:
146,56,220774,1,8,0:0:0:0:
176,62,220975,1,8,0:0:0:0:
174,68,221076,1,8,0:0:0:0:
173,66,221177,1,0,0:0:0:0:
167,87,221378,1,0,0:0:0:0:
166,87,221579,1,8,0:0:0:0:
178,165,221781,1,0,0:0:0:0:
178,165,221881,1,8,0:0:0:0:
178,165,221982,1,8,0:0:0:0:
178,165,222083,1,0,0:0:0:0:
191,56,222183,1,8,0:0:0:0:
160,175,222284,1,0,0:0:0:0:
160,176,222385,1,8,0:0:0:0:
191,56,222485,1,8,0:0:0:0:
166,170,222586,1,8,0:0:0:0:
168,52,222687,1,8,0:0:0:0:
162,170,222787,1,0,0:0:0:0:
170,53,222989,1,0,0:0:0:0:
118,263,223089,1,0,0:0:0:0:
118,263,223190,1,8,0:0:0:0:
166,85,223391,1,0,0:0:0:0:
166,85,223492,1,8,0:0:0:0:
166,85,223593,1,8,0:0:0:0:
166,85,223693,1,8,0:0:0:0:
174,56,223895,1,0,0:0:0:0:
173,57,223995,1,8,0:0:0:0:
169,47,224197,1,8,0:0:0:0:
158,22,224297,1,0,0:0:0:0:
169,47,224398,1,0,0:0:0:0:
170,54,224499,1,8,0:0:0:0:
159,40,224599,1,8,0:0:0:0:
225,139,224700,1,0,0:0:0:0:
159,40,224801,1,8,0:0:0:0:
159,43,224901,1,0,0:0:0:0:
158,45,225002,1,0,0:0:0:0:
187,52,225103,1,0,0:0:0:0:
158,45,225203,1,8,0:0:0:0:
143,73,225304,1,8,0:0:0:0:
143,74,225405,1,0,0:0:0:0:
188,87,225606,1,8,0:0:0:0:
188,87,225808,1,8,0:0:0:0:
188,87,226009,1,4,0:0:0:0:
166,93,226311,1,0,0:0:0:0:
166,94,226412,1,8,0:0:0:0:
134,141,226613,1,0,0:0:0:0:
134,141,226714,1,8,0:0:0:0:
134,141,226814,1,8,0:0:0:0:
161,124,227016,1,0,0:0:0:0:
161,126,227217,1,8,0:0:0:0:
161,126,227418,1,8,0:0:0:0:
161,126,227620,1,4,0:0:0:0:
174,74,227922,1,0,0:0:0:0:
174,74,228022,1,8,0:0:0:0:
163,82,228224,1,8,0:0:0:0:
163,82,228324,1,0,0:0:0:0:
229,21,228425,1,0,0:0:0:0:
163,82,228526,1,8,0:0:0:0:
163,82,228626,1,0,0:0:0:0:
163,85,228828,1,8,0:0:0:0:
174,74,229029,1,8,0:0:0:0:
176,72,229230,1,4,0:0:0:0:
152,73,229633,1,0,0:0:0:0:
151,74,229834,1,0,0:0:0:0:
151,77,230036,1,0,0:0:0:0:
151,77,230237,1,0,0:0:0:0:
196,70,230438,1,0,0:0:0:0:
152,73,230640,1,0,0:0:0:0:
176,111,230841,1,8,0:0:0:0:
152,52,231042,1,8,0:0:0:0:
176,111,231244,1,8,0:0:0:0:
181,90,231445,1,8,0:0:0:0:
178,93,231646,1,8,0:0:0:0:
159,67,231848,1,8,0:0:0:0:
158,67,232049,1,8,0:0:0:0:
160,78,232250,1,8,0:0:0:0:
160,79,232452,1,4,0:0:0:0:
256,192,234063,12,0,235824,0:0:0:0:
