osu file format v14

[General]
AudioFilename: audio.mp3
AudioLeadIn: 0
PreviewTime: 56364
Countdown: 0
SampleSet: Soft
StackLeniency: 0.7
Mode: 0
LetterboxInBreaks: 0
WidescreenStoryboard: 0

[Editor]
Bookmarks: 13188,34565,144720,190744,220333,223621
DistanceSpacing: 1
BeatDivisor: 4
GridSize: 8
TimelineZoom: 1.7

[Metadata]
Title:Bubble feat. Uta
TitleUnicode:Bubble feat. Uta
Artist:Eve
ArtistUnicode:Eve
Creator:AirinCat
Version:Insane
Source:バブル
Tags:anime movie japanese pop jpop theme opening numa riria riria. りりあ。
BeatmapID:3575247
BeatmapSetID:1747897

[Difficulty]
HPDrainRate:5
CircleSize:4
OverallDifficulty:7.4
ApproachRate:8.4
SliderMultiplier:1.4
SliderTickRate:1

[Events]
//Background and Video events
0,0,"eve.jpg",0,0
Video,-700,"uta.mp4"
//Break Periods
2,96227,101290
2,162596,173619
//Storyboard Layer 0 (Background)
//Storyboard Layer 1 (Fail)
//Storyboard Layer 2 (Pass)
//Storyboard Layer 3 (Foreground)
//Storyboard Layer 4 (Overlay)
//Storyboard Sound Samples

[TimingPoints]
6638,410.958904109589,4,2,1,80,1,0
13213,-100,4,2,2,50,0,0
13624,-100,4,2,1,50,0,0
22459,-100,4,2,1,20,0,0
22562,-100,4,2,1,50,0,0
22768,-100,4,2,1,20,0,0
22870,-100,4,2,1,50,0,0
24103,-100,4,2,1,20,0,0
24206,-100,4,2,1,50,0,0
24411,-100,4,2,1,20,0,0
24514,-100,4,2,1,50,0,0
25747,-100,4,2,1,30,0,0
25850,-100,4,2,1,50,0,0
26055,-100,4,2,1,30,0,0
26158,-100,4,2,1,50,0,0
29035,-100,4,2,1,30,0,0
29138,-100,4,2,1,50,0,0
29343,-100,4,2,1,30,0,0
29446,-100,4,2,1,50,0,0
30679,-100,4,2,1,30,0,0
30781,-100,4,2,1,50,0,0
30987,-100,4,2,1,20,0,0
31090,-100,4,2,1,50,0,0
34583,-83.3333333333333,4,2,1,60,0,0
47733,-142.857142857143,4,2,1,50,0,0
51021,-90.9090909090909,4,2,1,60,0,0
54309,-83.3333333333333,4,2,1,80,0,0
56774,-142.857142857143,4,2,1,60,0,0
57391,-111.111111111111,4,2,1,80,0,0
57494,-111.111111111111,4,2,1,5,0,0
57596,-76.923076923077,4,2,1,80,0,1
70747,-76.923076923077,4,2,2,80,0,1
71158,-76.923076923077,4,2,1,80,0,1
83898,-100,4,2,1,60,0,0
85336,-76.9230769230769,4,2,1,70,0,0
87185,-100,4,2,1,50,0,0
101980,-100,4,2,1,40,0,0
103418,-100,4,2,0,40,0,0
103624,-100,4,2,1,40,0,0
103829,-100,4,2,1,20,0,0
103932,-100,4,2,1,40,0,0
104138,-100,4,2,1,20,0,0
104240,-100,4,2,1,40,0,0
105062,-100,4,2,0,40,0,0
105268,-100,4,2,1,40,0,0
106295,-100,4,2,0,40,0,0
106501,-100,4,2,1,40,0,0
106706,-100,4,2,0,40,0,0
106911,-100,4,2,1,40,0,0
108144,-100,4,2,1,50,0,0
108555,-83.3333333333333,4,2,1,60,0,0
113384,-83.3333333333333,4,2,1,10,0,0
113487,-83.3333333333333,4,2,1,60,0,0
121706,-142.857142857143,4,2,1,50,0,0
124994,-111.111111111111,4,2,1,50,0,0
128281,-90.9090909090908,4,2,1,70,0,0
131569,-76.923076923077,4,2,1,80,0,1
132391,-83.3333333333333,4,2,1,80,0,0
154994,-83.3333333333333,4,2,1,50,0,0
156227,-83.3333333333333,4,2,1,60,0,0
157870,-83.3333333333333,4,2,1,70,0,0
159514,-58.8235294117647,4,2,1,80,0,0
160336,-47.6190476190476,4,2,1,80,0,0
161158,-41.6666666666667,4,2,1,100,0,0
161364,-41.6666666666667,4,2,1,5,0,0
174309,-83.3333333333333,4,2,1,60,0,0
186638,-83.3333333333333,4,2,1,50,0,0
187459,-83.3333333333333,4,2,1,60,0,0
188898,-83.3333333333333,4,2,1,70,0,0
189925,-125,4,2,1,70,0,0
190542,-100,4,2,1,80,0,0
190644,-100,4,2,1,5,0,0
190747,-76.923076923077,4,2,1,80,0,1
203898,-76.923076923077,4,2,2,80,0,1
204309,-76.923076923077,4,2,1,80,0,1
217048,-125,4,2,1,60,0,1
217459,-100,4,2,1,70,0,1
217870,-83.3333333333333,4,2,1,80,0,1
218487,-83.3333333333333,4,2,1,80,0,1
220131,-83.3333333333333,4,2,2,80,0,1
220336,-83.3333333333333,4,2,1,40,0,0
223624,-83.3333333333333,4,2,1,5,0,0

[Colours]
Combo1 : 223,104,104
Combo2 : 233,154,252
Combo3 : 190,131,250
Combo4 : 117,129,236
Combo5 : 155,193,251
Combo6 : 97,182,122
Combo7 : 226,226,150
Combo8 : 224,174,114

[HitObjects]
39,344,13213,6,0,P|56:279|21:220,1,140,4|0,1:2|1:2,0:2:0:0:
20,219,13829,1,0,3:2:0:0:
127,90,14035,2,0,L|60:111,1,70,2|0,1:2|3:2,0:2:0:0:
222,183,14446,1,2,1:2:0:0:
222,183,14651,2,0,L|237:251,1,70,2|0,3:2|1:2,0:2:0:0:
184,303,15062,1,0,3:2:0:0:
273,355,15268,2,0,P|306:346|340:337,1,70,2|0,1:2|3:2,0:2:0:0:
482,238,15679,5,2,1:2:0:0:
394,201,15884,1,2,3:2:0:0:
482,238,16090,2,0,L|500:307,1,70,2|2,1:2|3:2,0:2:0:0:
305,236,16501,6,0,L|329:98,1,140,2|0,1:2|1:2,0:2:0:0:
402,31,17117,1,2,3:2:0:0:
402,31,17220,1,2,0:2:0:0:
402,31,17322,2,0,L|483:42,1,70,0|2,1:2|3:2,0:2:0:0:
235,103,17733,1,2,1:2:0:0:
235,103,17939,2,0,L|157:89,1,70,2|0,3:2|1:2,0:2:0:0:
123,22,18350,1,0,3:2:0:0:
39,75,18555,6,0,L|24:143,1,70,2|0,1:2|3:2,0:2:0:0:
80,340,18966,1,2,1:2:0:0:
142,289,19172,1,2,3:3:0:0:
76,249,19377,2,0,L|7:233,1,70,2|0,1:2|3:2,0:2:0:0:
7,233,20405,2,0,L|76:249,1,70,2|2,3:3|0:2,0:2:0:0:
156,338,20816,5,8,0:2:0:0:
190,319,20918,1,8,0:2:0:0:
212,286,21021,1,8,0:2:0:0:
219,246,21124,1,8,0:2:0:0:
207,207,21227,1,8,0:2:0:0:
173,185,21329,1,8,0:2:0:0:
165,189,21432,5,0,1:2:0:0:
276,382,21843,1,0,1:2:0:0:
381,315,22048,1,2,0:2:0:0:
381,315,22151,1,2,0:2:0:0:
381,315,22254,2,0,P|419:321|452:333,1,70,2|0,1:2|0:2,0:2:0:0:
512,271,22562,2,0,P|500:237|493:203,1,70,2|0,0:2|0:2,0:2:0:0:
412,162,22870,2,0,L|370:175,1,35,2|0,0:2|0:2,0:2:0:0:
286,156,23076,6,0,P|258:113|271:61,2,105,2|2|2,1:2|0:2|0:2,0:2:0:0:
260,333,23898,2,0,P|264:298|273:263,1,70,2|0,1:2|0:2,0:2:0:0:
201,205,24206,2,0,P|168:216|134:225,1,70,2|0,0:2|0:2,0:2:0:0:
84,303,24514,1,2,0:2:0:0:
84,303,24617,1,2,0:2:0:0:
84,302,24720,6,0,P|147:319|172:385,1,140,0|0,1:2|1:2,0:2:0:0:
20,193,25336,1,2,0:2:0:0:
20,193,25439,1,2,0:2:0:0:
20,193,25542,2,0,P|14:158|6:124,1,70,2|0,1:2|0:2,0:2:0:0:
67,50,25850,2,0,P|101:57|135:65,1,70,2|0,0:2|0:2,0:2:0:0:
206,122,26158,2,0,P|226:117|258:108,1,35,2|0,0:2|0:2,0:2:0:0:
318,55,26364,6,0,B|371:63|370:82|415:92,1,105,2|0,1:2|0:2,0:2:0:0:
498,58,26774,2,0,P|505:36|510:20,2,35,2|2|0,1:2|0:2|0:2,0:2:0:0:
377,235,27185,2,0,B|351:209|351:209|358:176,1,70,2|0,1:2|0:2,0:2:0:0:
459,193,27596,1,2,1:2:0:0:
459,193,27699,1,2,0:2:0:0:
459,193,27802,1,2,0:2:0:0:
389,338,28007,5,0,1:2:0:0:
285,275,28213,2,0,L|216:292,1,70,2|0,0:3|1:2,0:2:0:0:
83,380,28624,1,2,0:2:0:0:
83,380,28727,1,2,0:2:0:0:
83,380,28829,2,0,P|76:344|69:311,1,70,2|0,1:2|0:2,0:2:0:0:
13,248,29138,2,0,P|21:210|31:173,1,70,2|0,0:2|0:2,0:2:0:0:
106,130,29446,2,0,P|123:134|139:138,1,35,2|0,0:2|0:2,0:2:0:0:
248,94,29651,6,0,P|267:46|248:0,2,105,2|2|2,1:2|0:2|0:2,0:2:0:0:
203,293,30473,2,0,P|187:262|196:229,1,70,2|0,1:2|0:2,0:2:0:0:
271,185,30781,2,0,P|304:194|336:208,1,70,2|0,0:2|0:2,0:2:0:0:
416,274,31090,1,2,0:2:0:0:
416,274,31192,1,2,0:2:0:0:
416,274,31295,6,0,P|450:266|483:255,1,70,0|2,1:2|0:3,0:2:0:0:
432,73,31706,2,0,P|397:79|364:89,1,70,2|0,1:2|0:2,0:2:0:0:
183,235,32117,2,0,P|170:202|162:168,1,70,2|0,1:2|0:2,0:2:0:0:
289,172,32528,1,2,1:2:0:0:
289,172,32733,1,2,0:2:0:0:
204,349,32939,5,2,1:2:0:0:
89,275,33144,1,2,0:3:0:0:
204,349,33350,1,2,1:2:0:0:
305,275,33555,1,2,0:2:0:0:
426,358,33761,2,0,B|391:365|358:375,1,70,2|0,1:2|0:2,0:2:0:0:
396,206,34172,1,2,1:2:0:0:
512,272,34377,5,2,0:2:0:0:
512,272,34480,1,2,0:2:0:0:
512,272,34583,2,0,P|502:229|487:166,1,83.9999974365235,2|0,1:2|3:2,0:2:0:0:
274,130,34994,2,0,P|284:170|293:211,1,83.9999974365235,2|0,1:2|3:2,0:2:0:0:
161,368,35405,1,2,1:2:0:0:
47,240,35610,1,2,3:2:0:0:
137,239,35816,1,2,1:2:0:0:
86,312,36021,6,0,P|47:329|8:342,1,83.9999974365235,2|0,3:2|1:2,0:2:0:0:
227,152,36432,2,0,P|185:144|144:134,1,83.9999974365235,2|0,3:2|1:2,0:2:0:0:
289,355,36843,1,2,3:2:0:0:
289,355,36946,1,2,0:2:0:0:
289,355,37048,1,2,1:2:0:0:
368,318,37254,2,0,P|379:277|384:236,1,83.9999974365235,2|0,3:2|1:2,0:2:0:0:
199,321,37665,5,2,3:2:0:0:
155,258,37870,2,0,B|64:263|101:301|2:321,1,167.999994873047,0|0,1:2|1:2,0:2:0:0:
3,321,38487,1,2,3:2:0:0:
0,135,38692,2,0,P|38:145|83:156,1,83.9999974365235,2|0,1:2|3:2,0:2:0:0:
155,112,39001,1,2,0:2:0:0:
155,112,39103,2,0,P|166:71|171:29,1,83.9999974365235,2|0,1:2|3:2,0:2:0:0:
368,250,39514,6,0,P|328:179|248:175,1,167.999994873047,2|2,1:2|1:2,0:2:0:0:
248,175,40336,1,2,1:2:0:0:
339,75,40542,1,2,3:2:0:0:
440,178,40747,1,2,1:2:0:0:
512,109,40953,1,2,3:2:0:0:
440,178,41158,6,0,P|429:259|418:344,1,167.999994873047,2|0,1:2|1:2,0:2:0:0:
417,344,41774,1,2,3:2:0:0:
512,288,41980,1,2,1:2:0:0:
351,222,42185,1,2,3:2:0:0:
257,338,42391,1,2,1:2:0:0:
140,310,42596,6,0,P|127:270|120:228,1,83.9999974365235,2|0,3:2|1:2,0:2:0:0:
277,58,43007,2,0,P|288:98|293:140,1,83.9999974365235,2|0,3:2|1:2,0:2:0:0:
293,140,43316,1,2,0:0:0:0:
293,140,43418,2,0,P|253:154|212:162,1,83.9999974365235,2|0,3:2|1:2,0:2:0:0:
244,257,43727,1,2,0:0:0:0:
244,257,43829,2,0,P|283:242|324:234,1,83.9999974365235,2|0,3:2|1:2,0:2:0:0:
475,127,44240,1,2,3:2:0:0:
494,263,44446,5,0,1:2:0:0:
378,157,44651,2,0,P|381:115|391:74,1,83.9999974365235,2|0,3:2|1:2,0:2:0:0:
471,22,45062,1,0,3:2:0:0:
471,22,45165,1,0,3:2:0:0:
471,22,45268,1,0,1:2:0:0:
390,74,45473,1,2,3:2:0:0:
296,25,45679,1,2,1:2:0:0:
207,79,45884,1,2,3:2:0:0:
133,20,46090,5,2,1:2:0:0:
251,159,46295,1,2,3:2:0:0:
116,230,46501,1,2,1:2:0:0:
116,230,46603,1,2,0:2:0:0:
116,230,46706,1,2,3:2:0:0:
237,342,46911,2,0,B|254:302|254:302|227:271,1,83.9999974365235,2|0,1:2|3:2,0:2:0:0:
128,351,47322,1,2,1:2:0:0:
128,351,47528,1,2,3:2:0:0:
227,271,47733,6,0,P|275:256|322:249,1,97.9999970092774,2|0,0:2|0:2,0:2:0:0:
469,159,48350,2,0,P|421:148|376:128,1,97.9999970092774,2|2,0:2|0:2,0:2:0:0:
376,128,49172,2,0,P|380:103|389:80,1,48.9999985046387,2|0,0:2|0:2,0:2:0:0:
230,0,49583,2,0,P|238:23|244:46,1,48.9999985046387,2|0,0:2|0:2,0:2:0:0:
82,161,49994,2,0,P|127:143|174:130,2,97.9999970092774,2|2|2,0:2|0:2|0:2,0:2:0:0:
2,117,50918,5,2,0:2:0:0:
0,123,51021,2,0,P|49:177|37:254,1,154.000004699707,0|0,1:2|1:2,0:2:0:0:
261,360,51740,1,2,0:2:0:0:
263,353,51843,2,0,P|225:361|176:376,1,77.0000023498536,0|0,1:2|0:2,0:2:0:0:
134,222,52254,1,2,1:2:0:0:
134,222,52357,1,2,0:2:0:0:
134,222,52459,2,0,P|174:235|207:246,1,77.0000023498536,2|0,0:2|1:2,0:2:0:0:
315,181,52870,2,0,P|324:143|336:108,1,77.0000023498536,2|0,0:2|1:2,0:2:0:0:
279,53,53281,1,2,0:2:0:0:
421,163,53487,2,0,P|476:163|511:119,1,115.50000352478,2|2,1:2|0:2,0:2:0:0:
511,118,53898,1,0,1:2:0:0:
383,249,54103,5,2,0:2:0:0:
383,249,54206,1,2,0:2:0:0:
383,249,54309,2,0,P|391:291|398:337,1,83.9999974365235,4|8,1:3|0:2,0:2:0:0:
206,217,54720,1,8,1:2:0:0:
297,176,54925,1,8,0:2:0:0:
270,317,55131,1,8,1:2:0:0:
107,197,55336,1,8,0:2:0:0:
335,99,55542,1,8,1:2:0:0:
107,197,55747,1,8,0:2:0:0:
196,31,55953,5,8,1:2:0:0:
237,49,56055,1,8,0:2:0:0:
259,89,56158,1,8,0:2:0:0:
251,134,56261,1,8,0:2:0:0:
226,170,56364,2,8,P|202:175|170:189,1,41.9999987182618,8|8,1:2|0:2,0:2:0:0:
346,220,56569,2,8,P|365:227|386:232,1,41.9999987182618,10|8,0:2|0:2,0:2:0:0:
250,286,56774,6,0,P|238:320|233:356,1,73.4999977569581,2|2,0:2|0:2,0:2:0:0:
233,357,57391,2,0,P|230:341|226:325,1,31.4999990386963,2|0,0:2|0:2,0:2:0:0:
122,198,57596,6,0,P|36:210|5:291,1,181.999991668702,4|8,1:1|0:2,0:2:0:0:
217,113,58213,1,2,0:2:0:0:
217,113,58316,1,2,0:2:0:0:
217,113,58418,2,0,L|202:23,1,90.9999958343508,2|2,1:2|0:2,0:2:0:0:
202,23,58727,1,2,0:2:0:0:
202,23,58829,1,8,0:2:0:0:
387,152,59035,2,0,P|434:142|480:128,1,90.9999958343508,2|0,3:2|1:2,0:2:0:0:
342,364,59446,2,0,P|312:330|316:283,1,90.9999958343508,2|8,3:2|0:2,0:2:0:0:
415,295,59857,1,2,0:2:0:0:
229,370,60062,5,2,1:2:0:0:
415,295,60268,1,2,0:2:0:0:
273,117,60473,1,10,0:2:0:0:
180,243,60679,1,2,0:2:0:0:
333,203,60884,6,0,P|398:184|463:163,1,136.499993751526,2|2,1:2|0:2,0:2:0:0:
463,162,61295,1,8,0:2:0:0:
512,242,61501,1,2,0:2:0:0:
350,91,61706,2,0,P|339:46|335:1,1,90.9999958343508,2|0,1:2|0:2,0:2:0:0:
335,1,62014,1,2,0:2:0:0:
335,1,62117,1,8,0:2:0:0:
233,178,62322,6,0,P|184:190|146:201,1,90.9999958343508,2|0,3:2|1:2,0:2:0:0:
19,13,62733,2,0,P|62:25|107:35,1,90.9999958343508,2|8,3:2|0:2,0:2:0:0:
54,239,63144,1,2,0:2:0:0:
23,132,63350,1,2,1:2:0:0:
145,201,63555,1,2,0:2:0:0:
302,127,63761,1,10,0:2:0:0:
212,56,63966,1,2,0:2:0:0:
246,238,64172,6,0,P|258:281|269:325,1,90.9999958343508,2|0,1:2|0:2,0:2:0:0:
359,368,64480,1,2,0:2:0:0:
359,368,64583,2,0,P|414:299|506:306,1,181.999991668702,10|0,0:2|1:2,0:2:0:0:
475,380,65199,1,2,0:2:0:0:
337,216,65405,1,10,0:2:0:0:
512,107,65610,2,0,P|425:119|367:50,1,181.999991668702,2|0,3:2|3:2,0:2:0:0:
432,1,66227,1,8,0:2:0:0:
244,117,66432,5,2,0:2:0:0:
244,117,66535,1,2,0:2:0:0:
244,117,66638,2,0,P|235:158|223:218,1,90.9999958343508,2|0,1:2|0:2,0:2:0:0:
482,355,67048,2,0,P|471:310|463:265,1,90.9999958343508,10|0,0:2|0:2,0:2:0:0:
210,373,67459,2,0,P|251:321|317:320,1,136.499993751526,2|0,1:2|0:2,0:2:0:0:
316,319,67870,2,0,P|308:347|305:365,1,45.4999979171754,10|2,0:2|0:2,0:2:0:0:
140,260,68076,2,0,P|129:217|111:164,1,90.9999958343508,2|0,0:2|1:2,0:2:0:0:
187,99,68487,5,8,0:2:0:0:
36,268,68692,1,8,0:2:0:0:
187,99,68898,6,0,P|276:117|364:137,1,181.999991668702,6|8,1:2|0:2,0:2:0:0:
450,103,69514,1,8,1:2:0:0:
450,103,69720,1,8,0:2:0:0:
325,284,69925,1,8,0:2:0:0:
353,324,70028,1,8,0:2:0:0:
401,336,70131,1,8,0:2:0:0:
447,318,70233,1,8,0:2:0:0:
465,271,70336,2,8,P|461:243|452:218,1,45.4999979171754,8|8,0:2|0:2,0:2:0:0:
358,139,70542,2,8,P|350:155|346:184,1,45.4999979171754,8|8,0:2|0:2,0:2:0:0:
220,263,70747,6,0,B|120:276|157:322|58:342,1,181.999991668702,4|8,1:2|0:2,0:2:0:0:
58,257,71364,1,2,0:2:0:0:
209,365,71569,1,2,1:2:0:0:
304,226,71774,1,2,0:2:0:0:
206,156,71980,1,10,0:2:0:0:
304,226,72185,6,0,P|347:215|394:200,1,90.9999958343508,2|0,3:2|1:2,0:2:0:0:
504,370,72596,2,0,P|461:353|417:341,1,90.9999958343508,2|8,3:2|0:2,0:2:0:0:
339,375,73007,1,2,0:2:0:0:
391,200,73213,1,2,1:2:0:0:
486,244,73418,1,2,0:2:0:0:
394,99,73624,1,10,0:2:0:0:
284,231,73829,1,2,0:2:0:0:
67,128,74035,6,0,P|87:65|150:48,1,136.499993751526,2|2,1:2|0:2,0:2:0:0:
225,0,74446,2,0,L|242:89,1,90.9999958343508,10|0,0:2|0:2,0:2:0:0:
182,222,74754,1,2,0:2:0:0:
177,229,74857,2,0,L|156:140,1,90.9999958343508,2|2,1:2|0:0,0:0:0:0:
321,37,75268,1,10,0:2:0:0:
156,140,75473,1,2,0:2:0:0:
321,37,75679,6,0,B|387:42|372:71|462:82,1,136.499993751526,2|2,1:2|0:2,0:2:0:0:
449,80,76090,1,8,0:2:0:0:
260,198,76295,1,2,0:2:0:0:
346,273,76501,2,0,P|375:239|369:195,1,90.9999958343508,2|0,1:2|0:2,0:2:0:0:
154,186,76911,1,10,0:2:0:0:
154,186,77117,1,2,0:2:0:0:
369,195,77322,6,0,P|436:182|501:164,1,136.499993751526,6|2,1:2|0:2,0:2:0:0:
501,163,77733,1,8,0:2:0:0:
401,302,77939,1,2,0:2:0:0:
493,366,78144,2,0,B|525:330|525:330|512:289,1,90.9999958343508,2|0,1:2|0:2,0:2:0:0:
295,119,78555,5,2,1:2:0:0:
148,314,78761,2,0,P|212:255|298:274,1,181.999991668702,14|2,0:2|0:2,0:2:0:0:
241,367,79377,1,10,0:2:0:0:
74,218,79583,2,0,P|85:174|96:129,1,90.9999958343508,2|0,0:2|1:2,0:2:0:0:
57,37,79994,5,8,0:2:0:0:
183,191,80199,1,8,0:2:0:0:
308,16,80405,1,8,0:2:0:0:
308,16,80507,1,8,0:2:0:0:
308,16,80610,2,0,P|263:28|219:36,1,90.9999958343508,6|2,1:2|0:2,0:2:0:0:
50,271,81021,2,0,P|95:196|183:191,1,181.999991668702,10|0,0:2|1:2,0:2:0:0:
247,254,81638,1,2,0:2:0:0:
91,101,81843,1,10,0:2:0:0:
247,254,82048,5,14,0:2:0:0:
355,184,82254,2,0,P|369:141|372:95,1,90.9999958343508,2|0,1:2|0:2,0:2:0:0:
196,0,82665,2,0,P|181:42|178:88,1,90.9999958343508,10|0,0:2|0:2,0:2:0:0:
384,14,83076,1,0,1:2:0:0:
263,133,83281,1,8,0:2:0:0:
377,271,83487,1,8,0:2:0:0:
294,367,83692,1,8,0:2:0:0:
200,339,83898,6,0,P|166:327|132:320,1,70,4|0,1:2|0:2,0:2:0:0:
15,238,84309,2,0,P|49:233|83:223,1,70,2|0,1:2|0:2,0:2:0:0:
164,126,84720,2,0,P|158:91|147:58,1,70,2|0,1:2|0:2,0:2:0:0:
78,114,85131,1,8,0:2:0:0:
327,190,85336,6,0,P|415:201|454:291,1,181.999991668702,6|8,1:2|0:2,0:2:0:0:
413,358,85953,1,8,0:2:0:0:
266,295,86158,1,8,0:2:0:0:
114,365,86364,1,8,0:2:0:0:
266,295,86569,1,0,1:2:0:0:
107,99,86774,2,0,B|75:133|75:133|95:172,1,90.9999958343508,10|0,0:2|0:2,0:2:0:0:
195,152,87185,6,0,P|260:132|336:120,2,140,2|0|0,1:2|1:2|1:2,0:2:0:0:
140,229,88213,2,0,P|148:260|156:306,1,70,2|0,0:2|1:2,0:2:0:0:
154,297,88624,1,2,0:2:0:0:
58,378,88829,2,0,P|41:309|31:240,1,140,0|0,1:2|1:2,0:2:0:0:
63,141,89446,1,2,0:2:0:0:
63,141,89548,1,2,0:2:0:0:
63,141,89651,2,0,P|97:134|131:125,1,70,2|2,1:2|0:2,0:2:0:0:
185,48,90062,1,2,1:2:0:0:
185,48,90268,1,2,0:2:0:0:
273,94,90473,6,0,P|283:129|288:164,1,70,2|0,1:2|3:2,0:2:0:0:
209,327,90884,2,0,P|199:291|194:257,1,70,0|0,1:2|3:2,0:2:0:0:
302,272,91295,2,0,P|336:263|371:258,1,70,0|2,1:2|3:2,0:2:0:0:
456,331,91706,1,2,1:2:0:0:
371,258,91911,1,2,3:2:0:0:
457,163,92117,6,0,P|451:127|439:86,1,70,0|0,1:2|3:2,0:2:0:0:
348,21,92528,2,0,P|313:26|279:34,1,70,2|0,1:2|3:2,0:2:0:0:
198,155,92939,1,0,1:2:0:0:
116,123,93144,2,0,P|107:89|102:54,2,70,2|0|0,3:2|1:2|3:2,0:2:0:0:
67,257,93761,1,0,0:2:0:0:
67,257,93966,2,0,P|33:267|0:275,1,70,2|0,3:2|0:2,0:2:0:0:
26,360,94377,2,0,P|60:350|93:342,1,70,2|0,3:2|0:2,0:2:0:0:
205,239,94788,5,8,0:2:0:0:
241,244,94891,1,8,0:2:0:0:
269,271,94994,1,8,0:2:0:0:
280,308,95096,1,8,0:2:0:0:
274,347,95199,1,8,0:2:0:0:
245,372,95302,1,8,0:2:0:0:
42,313,101980,6,0,P|33:347|28:381,2,70,2|2|0,1:2|0:2|1:2,0:2:0:0:
140,258,102596,1,2,0:0:0:0:
140,258,102699,1,2,0:2:0:0:
140,258,102802,2,0,P|195:265|255:281,1,105,2|2,1:2|0:2,0:2:0:0:
243,277,103213,1,0,1:2:0:0:
398,231,103418,1,2,3:2:0:0:
398,231,103521,1,2,3:2:0:0:
398,231,103624,6,0,L|415:163,1,70,2|0,1:2|0:3,0:2:0:0:
369,88,103932,2,0,P|334:80|300:72,1,70,2|0,0:2|0:2,0:2:0:0:
300,72,104240,1,2,0:2:0:0:
170,164,104446,2,0,P|139:121|151:70,2,105,2|2|2,1:2|0:2|3:2,0:2:0:0:
240,212,105165,1,2,3:2:0:0:
240,212,105268,6,0,P|173:196|119:240,2,140,2|0|0,1:2|1:2|1:2,0:2:0:0:
198,308,106295,1,2,3:2:0:0:
198,308,106398,1,2,3:2:0:0:
198,308,106501,1,2,1:2:0:0:
311,362,106706,1,2,3:2:0:0:
311,362,106809,1,2,3:2:0:0:
311,362,106911,6,0,P|345:351|387:342,1,70,2|2,1:2|0:2,0:2:0:0:
510,258,107322,2,0,P|476:250|443:240,1,70,2|2,1:2|0:2,0:2:0:0:
363,83,107733,1,2,1:2:0:0:
309,144,107939,1,2,0:2:0:0:
229,107,108144,2,0,P|223:72|212:39,1,70,2|0,1:3|0:2,0:2:0:0:
397,162,108555,6,0,P|437:149|483:139,1,83.9999974365235,4|0,1:2|3:2,0:2:0:0:
317,372,108966,2,0,P|304:331|300:290,1,83.9999974365235,2|0,1:2|3:2,0:2:0:0:
381,258,109377,1,2,1:2:0:0:
261,207,109583,1,2,3:2:0:0:
170,305,109788,1,2,1:2:0:0:
91,274,109994,6,0,P|49:281|9:294,1,83.9999974365235,2|0,3:2|1:2,0:2:0:0:
149,128,110405,2,0,P|144:86|132:45,1,83.9999974365235,2|0,3:2|1:2,0:2:0:0:
0,73,110816,2,0,P|4:114|15:155,1,83.9999974365235,2|0,3:2|1:2,0:2:0:0:
167,232,111227,1,2,3:2:0:0:
254,146,111432,1,8,1:2:0:0:
167,232,111638,1,2,3:2:0:0:
245,303,111843,6,0,P|339:321|410:341,1,167.999994873047,0|0,1:2|1:2,0:2:0:0:
408,340,112459,1,2,3:2:0:0:
493,268,112665,2,0,P|504:227|510:185,1,83.9999974365235,2|0,1:2|3:2,0:2:0:0:
392,67,113076,2,0,P|339:98|329:158,1,125.999996154785,2|0,1:2|0:2,0:2:0:0:
328,157,113487,6,0,P|280:147|247:135,1,83.9999974365235,2|0,1:2|3:2,0:2:0:0:
113,267,113898,2,0,P|152:253|193:245,1,83.9999974365235,2|0,1:2|3:2,0:2:0:0:
338,320,114309,1,2,1:2:0:0:
270,378,114514,1,2,3:2:0:0:
294,240,114720,1,10,1:2:0:0:
431,320,114925,1,2,3:2:0:0:
480,256,115131,6,0,P|495:169|512:88,1,167.999994873047,0|0,1:2|1:2,0:2:0:0:
511,90,115747,1,2,3:2:0:0:
324,58,115953,1,0,1:2:0:0:
446,5,116158,1,2,3:2:0:0:
396,139,116364,1,0,1:2:0:0:
309,183,116569,6,0,P|267:175|226:166,1,83.9999974365235,2|0,3:2|1:2,0:2:0:0:
146,19,116980,2,0,P|104:31|65:40,1,83.9999974365235,2|0,3:2|1:2,0:2:0:0:
105,192,117391,1,2,3:2:0:0:
105,192,117494,1,0,3:2:0:0:
105,192,117596,1,0,1:2:0:0:
16,251,117802,2,0,P|3:208|-5:170,1,83.9999974365235,2|8,3:2|1:2,0:2:0:0:
182,72,118213,5,2,3:2:0:0:
255,105,118418,2,0,P|267:145|273:186,1,83.9999974365235,0|0,1:2|3:2,0:2:0:0:
205,327,118829,2,0,L|116:350,1,83.9999974365235,8|0,1:2|3:2,0:2:0:0:
123,348,119138,1,0,3:0:0:0:
123,348,119240,1,0,1:2:0:0:
159,242,119446,1,2,3:2:0:0:
310,372,119651,2,0,P|349:360|394:349,1,83.9999974365235,10|0,1:2|3:2,0:2:0:0:
509,256,120062,5,2,1:2:0:0:
376,170,120268,1,2,3:2:0:0:
512,87,120473,2,0,P|497:126|486:167,1,83.9999974365235,10|0,1:2|3:2,0:2:0:0:
296,263,120884,5,0,1:2:0:0:
188,151,121090,1,8,3:2:0:0:
324,29,121295,1,8,1:2:0:0:
324,29,121501,1,0,3:2:0:0:
261,78,121706,6,0,P|269:127|277:174,1,97.9999970092774,2|0,0:2|0:2,0:2:0:0:
230,246,122322,2,0,P|206:253|182:258,2,48.9999985046387,2|2|2,0:2|0:2|0:2,0:2:0:0:
326,373,123144,2,0,P|352:361|376:356,1,48.9999985046387,2|0,0:2|0:2,0:2:0:0:
512,326,123555,2,0,P|488:319|462:307,1,48.9999985046387,2|0,0:2|0:2,0:2:0:0:
412,158,123966,2,0,P|394:207|389:254,2,97.9999970092774,2|2|2,0:2|0:2|0:2,0:2:0:0:
512,89,124994,6,0,P|449:80|392:54,2,125.999996154785,2|0|0,1:2|1:2|1:2,0:2:0:0:
512,89,126021,1,2,0:2:0:0:
439,189,126227,1,2,1:2:0:0:
505,267,126432,2,0,P|496:297|490:328,1,62.9999980773926,2|0,0:2|1:2,0:2:0:0:
322,292,126843,2,0,L|334:230,1,62.9999980773926,2|0,0:2|1:2,0:2:0:0:
286,168,127254,1,2,0:2:0:0:
141,254,127459,2,0,P|92:243|37:231,1,94.499997116089,2|2,1:2|0:2,0:2:0:0:
48,233,127870,1,0,1:2:0:0:
219,384,128076,5,2,0:2:0:0:
219,384,128179,1,2,0:2:0:0:
219,384,128281,2,0,P|247:375|302:362,1,77.0000023498536,4|8,1:3|0:2,0:2:0:0:
357,281,128692,1,8,0:2:0:0:
258,193,128897,1,8,0:2:0:0:
360,78,129103,1,8,0:2:0:0:
258,193,129309,1,8,0:2:0:0:
207,41,129514,1,8,0:2:0:0:
404,156,129720,1,8,0:2:0:0:
162,324,129925,5,8,0:2:0:0:
133,282,130028,1,8,0:2:0:0:
140,232,130131,1,8,0:2:0:0:
172,194,130233,1,8,0:2:0:0:
220,182,130336,2,8,P|241:187|273:198,1,38.5000011749268,8|8,0:2|0:2,0:2:0:0:
328,308,130542,2,8,P|346:302|364:297,1,38.5000011749268,10|8,0:2|0:2,0:2:0:0:
494,247,130747,2,0,B|441:237|441:209|390:194,2,115.50000352478,2|2|2,0:1|0:1|0:1,0:2:0:0:
364,52,131569,5,4,1:1:0:0:
235,256,131774,2,0,B|203:223|203:223|219:181,1,90.9999958343508,2|8,0:1|0:2,0:2:0:0:
287,132,132185,1,0,0:2:0:0:
106,198,132391,2,0,P|62:185|24:174,1,83.9999974365235,2|0,1:2|0:2,0:2:0:0:
102,102,132802,1,8,0:2:0:0:
179,292,133007,6,0,P|168:332|159:373,1,83.9999974365235,2|0,3:2|1:2,0:2:0:0:
350,279,133418,1,2,3:2:0:0:
253,147,133624,2,0,P|293:159|335:167,1,83.9999974365235,10|0,0:2|0:2,0:2:0:0:
404,122,133932,1,2,0:2:0:0:
404,122,134035,2,0,P|416:82|422:40,1,83.9999974365235,2|0,1:2|0:2,0:2:0:0:
205,254,134446,6,0,P|125:239|69:297,1,167.999994873047,10|0,0:2|1:2,0:2:0:0:
136,348,135062,1,0,0:2:0:0:
8,197,135268,2,0,P|20:153|24:103,1,83.9999974365235,10|0,0:2|0:2,0:2:0:0:
162,36,135679,1,0,1:2:0:0:
234,142,135884,1,2,0:2:0:0:
234,142,135987,1,2,0:2:0:0:
234,142,136090,1,8,0:2:0:0:
371,67,136295,6,0,P|329:61|288:51,1,83.9999974365235,2|0,3:2|1:2,0:2:0:0:
105,237,136706,1,2,3:2:0:0:
105,237,136809,1,2,0:2:0:0:
105,237,136911,2,0,P|185:250|282:277,1,167.999994873047,10|0,0:2|1:2,0:2:0:0:
379,166,137528,1,8,0:2:0:0:
425,384,137733,2,0,B|451:350|451:350|437:311,1,83.9999974365235,8|2,0:2|0:2,0:2:0:0:
471,238,138042,5,8,0:2:0:0:
471,238,138144,2,0,P|425:279|364:274,1,125.999996154785,6|0,1:2|0:2,0:2:0:0:
295,343,138555,2,0,P|267:312|268:270,1,83.9999974365235,10|0,0:2|0:2,0:2:0:0:
129,103,138966,2,0,P|156:133|155:175,1,83.9999974365235,2|0,1:2|0:2,0:2:0:0:
97,235,139377,1,8,0:2:0:0:
310,169,139583,6,0,P|351:161|390:147,1,83.9999974365235,2|0,3:2|1:2,0:2:0:0:
437,86,139994,1,2,3:2:0:0:
380,252,140199,2,0,P|386:293|399:333,1,83.9999974365235,10|0,0:2|0:2,0:2:0:0:
476,274,140610,1,2,1:2:0:0:
311,346,140816,1,2,0:2:0:0:
476,274,141021,1,10,0:2:0:0:
280,200,141227,5,2,0:2:0:0:
280,200,141329,1,2,0:2:0:0:
280,200,141432,2,0,P|220:221|142:244,1,125.999996154785,2|0,1:2|0:2,0:2:0:0:
108,312,141843,2,0,P|74:287|67:247,1,83.9999974365235,10|0,0:2|0:2,0:2:0:0:
116,158,142254,1,0,1:2:0:0:
14,349,142459,1,10,0:2:0:0:
116,158,142665,1,10,0:2:0:0:
252,294,142870,6,0,B|294:270|337:293|337:293|359:331|401:332,1,167.999994873047,6|8,1:2|0:2,0:2:0:0:
512,275,143487,1,8,0:2:0:0:
439,145,143692,1,8,0:2:0:0:
439,145,143795,1,8,0:2:0:0:
439,145,143898,2,8,L|427:200,1,41.9999987182618,10|8,0:2|0:2,0:2:0:0:
249,144,144103,2,8,L|263:88,1,41.9999987182618,8|8,0:2|0:2,0:2:0:0:
292,16,144309,1,6,0:3:0:0:
341,34,144411,1,4,0:3:0:0:
361,81,144514,2,0,P|357:99|350:126,1,41.9999987182618,4|4,0:3|0:3,0:0:0:0:
146,222,144720,6,0,P|88:165|103:86,1,167.999994873047,6|2,1:2|0:3,0:2:0:0:
172,139,145336,1,0,1:2:0:0:
28,271,145542,2,0,P|20:308|16:361,1,83.9999974365235,10|0,0:2|0:2,0:2:0:0:
108,316,145953,1,2,1:3:0:0:
360,345,146158,6,0,B|270:336|295:291|205:288,1,167.999994873047,2|8,1:2|0:2,0:2:0:0:
207,374,146774,1,2,0:3:0:0:
329,251,146980,1,0,1:2:0:0:
224,184,147185,2,2,B|208:145|208:145|235:111,1,83.9999974365235,10|0,0:2|3:2,0:1:0:0:
431,238,147596,2,2,B|457:204|457:204|441:166,1,83.9999974365235,2|8,0:3|3:3,0:1:0:0:
471,82,147905,5,8,0:3:0:0:
471,82,148007,2,0,P|425:147|343:141,1,167.999994873047,2|2,1:2|0:3,0:2:0:0:
319,69,148624,1,0,1:2:0:0:
426,255,148829,2,0,P|475:260|521:271,1,83.9999974365235,10|0,0:2|0:2,0:2:0:0:
512,342,149240,1,2,1:3:0:0:
315,379,149446,6,0,P|264:315|289:237,1,167.999994873047,2|8,1:2|0:2,0:2:0:0:
332,171,150062,1,2,0:3:0:0:
178,243,150268,1,0,1:2:0:0:
71,160,150473,1,10,0:2:0:0:
178,243,150679,1,0,1:2:0:0:
200,36,150884,2,2,B|256:65|256:65|236:124,1,125.999996154785,10|0,0:2|0:2,0:1:0:0:
236,124,151295,6,2,B|276:82|315:92|315:92|351:128|384:122,1,167.999994873047,6|2,1:2|0:3,0:1:0:0:
386,38,151911,1,0,1:2:0:0:
475,237,152117,2,0,B|504:205|504:205|490:166,1,83.9999974365235,10|0,0:2|0:2,0:2:0:0:
389,218,152528,1,2,1:3:0:0:
481,379,152733,6,0,P|419:325|339:339,1,167.999994873047,2|8,1:2|0:2,0:2:0:0:
263,384,153350,1,2,0:3:0:0:
299,243,153555,1,0,1:2:0:0:
171,327,153761,2,2,B|143:295|143:295|156:255,1,83.9999974365235,10|0,0:2|3:2,0:1:0:0:
406,279,154172,2,2,B|419:239|419:239|391:207,1,83.9999974365235,2|8,0:3|3:3,0:1:0:0:
325,147,154480,5,8,0:3:0:0:
325,147,154583,2,0,B|288:95|288:95|308:36,1,125.999996154785,4|0,1:2|0:2,0:2:0:0:
307,36,154994,2,0,P|349:44|391:56,1,83.9999974365235,2|8,1:2|0:2,0:2:0:0:
205,160,155405,2,0,P|164:169|124:184,1,83.9999974365235,2|8,1:2|0:2,0:2:0:0:
324,302,155816,2,0,P|364:311|403:327,1,83.9999974365235,2|8,1:2|0:2,0:2:0:0:
337,208,156227,5,8,1:2:0:0:
239,256,156432,1,8,0:2:0:0:
212,365,156638,1,8,1:2:0:0:
103,373,156843,1,8,0:2:0:0:
35,289,157048,1,8,1:2:0:0:
140,192,157254,1,8,0:2:0:0:
300,304,157459,1,8,1:2:0:0:
140,192,157665,1,8,0:2:0:0:
264,52,157870,6,8,L|274:92,3,41.9999987182618,10|8|8|8,1:2|0:2|0:2|0:2,0:2:0:0:
356,157,158281,2,8,L|348:205,3,41.9999987182618,8|8|8|8,1:2|0:2|0:2|0:2,0:2:0:0:
249,250,158692,1,8,1:2:0:0:
226,243,158795,1,8,0:2:0:0:
203,236,158898,1,8,0:2:0:0:
180,228,159001,1,8,0:2:0:0:
157,221,159103,1,8,1:2:0:0:
135,213,159206,1,8,0:2:0:0:
113,205,159309,2,8,P|106:224|101:248,1,41.9999987182618,8|8,0:2|0:2,0:2:0:0:
270,359,159514,5,8,1:2:0:0:
323,331,159617,1,8,0:2:0:0:
352,279,159720,1,8,0:2:0:0:
342,220,159822,1,8,0:2:0:0:
303,174,159925,2,8,B|297:143|297:143|317:120,1,59.5000011348725,8|8,1:2|0:2,0:2:0:0:
470,219,160131,2,8,B|490:198|490:198|484:165,1,59.5000011348725,8|8,0:2|0:2,0:2:0:0:
429,62,160336,6,8,L|413:116,15,36.749998878479,8|8|8|8|8|8|8|8|8|8|8|8|8|8|8|8,1:2|0:2|0:2|0:2|0:2|0:2|0:2|0:2|0:2|0:2|0:2|0:2|0:2|0:2|0:2|0:2,0:2:0:0:
502,20,161158,6,0,P|413:44|339:62,1,167.999994873047,4|0,0:1|0:2,0:2:0:0:
21,196,174309,5,4,1:2:0:0:
188,261,174514,1,2,0:1:0:0:
110,364,174720,2,0,B|79:333|79:333|88:294,1,83.9999974365235,2|0,1:1|0:2,0:2:0:0:
88,294,175028,1,2,0:2:0:0:
88,294,175131,1,2,1:2:0:0:
316,297,175336,2,0,B|325:258|325:258|294:227,1,83.9999974365235,2|0,0:2|1:2,0:2:0:0:
228,176,175747,1,0,0:2:0:0:
293,226,175953,5,2,1:1:0:0:
403,126,176158,1,2,0:1:0:0:
330,69,176364,1,2,1:1:0:0:
403,126,176569,2,0,P|443:114|481:98,1,83.9999974365235,2|0,0:1|1:2,0:2:0:0:
323,313,176980,5,2,0:2:0:0:
377,239,177185,1,2,1:2:0:0:
484,355,177391,2,0,P|474:314|460:274,1,83.9999974365235,2|0,0:1|1:2,0:2:0:0:
301,192,177802,2,0,P|260:201|220:215,1,83.9999974365235,2|0,0:1|1:2,0:2:0:0:
94,133,178213,1,2,0:1:0:0:
94,133,178316,1,2,0:1:0:0:
94,133,178418,1,0,1:2:0:0:
26,283,178624,2,0,P|2:251|8:210,1,83.9999974365235,2|0,0:1|1:2,0:2:0:0:
280,43,179035,5,2,0:1:0:0:
207,7,179240,2,0,P|164:50|173:110,1,125.999996154785,2|2,1:2|0:2,0:2:0:0:
173,110,179651,2,0,P|216:117|254:127,1,83.9999974365235,0|2,1:2|0:2,0:2:0:0:
149,243,180062,1,2,1:2:0:0:
195,312,180268,2,0,P|236:318|280:333,1,83.9999974365235,2|0,0:1|1:2,0:2:0:0:
414,163,180679,1,2,0:1:0:0:
397,266,180884,6,0,P|458:264|498:218,2,125.999996154785,6|2|2,1:2|0:2|0:1,0:2:0:0:
332,63,181706,2,0,P|319:102|309:143,1,83.9999974365235,2|2,1:1|0:1,0:2:0:0:
173,213,182117,1,2,1:1:0:0:
84,187,182322,6,0,P|73:146|54:108,1,83.9999974365235,2|0,0:1|1:2,0:2:0:0:
241,281,182733,2,0,P|282:288|320:304,1,83.9999974365235,2|2,0:1|1:2,0:2:0:0:
320,304,183042,1,2,0:2:0:0:
320,304,183144,1,2,0:2:0:0:
109,384,183350,2,0,P|111:342|121:301,1,83.9999974365235,2|0,1:2|0:2,0:2:0:0:
254,114,183761,1,2,1:2:0:0:
142,79,183966,6,0,P|156:118|163:159,1,83.9999974365235,2|4,0:2|1:2,0:2:0:0:
460,165,184377,1,2,0:2:0:0:
414,243,184583,2,0,P|353:191|366:112,1,167.999994873047,0|0,1:2|1:2,0:2:0:0:
321,30,185199,1,2,0:2:0:0:
466,72,185405,5,2,1:1:0:0:
321,30,185610,2,0,L|240:53,1,83.9999974365235,2|0,0:1|1:2,0:2:0:0:
109,218,186021,1,2,0:1:0:0:
109,218,186124,1,2,0:1:0:0:
109,218,186227,2,0,L|28:195,1,83.9999974365235,2|0,1:1|0:2,0:2:0:0:
111,84,186638,1,8,1:2:0:0:
111,84,186843,1,8,0:2:0:0:
234,224,187048,1,8,1:2:0:0:
234,224,187254,1,10,0:2:0:0:
336,156,187459,6,0,P|347:115|355:74,1,83.9999974365235,10|8,1:2|0:2,0:2:0:0:
294,17,187768,1,2,0:2:0:0:
293,17,187870,2,0,P|251:10|211:0,1,83.9999974365235,8|10,1:2|0:2,0:2:0:0:
431,163,188281,2,0,P|471:151|512:144,1,83.9999974365235,10|8,1:2|0:2,0:2:0:0:
512,144,188590,1,2,0:1:0:0:
512,144,188692,1,8,1:2:0:0:
317,377,188898,6,0,P|304:336|298:295,1,83.9999974365235,10|8,0:2|1:2,0:2:0:0:
371,249,189206,1,8,0:2:0:0:
371,249,189309,2,8,P|391:252|411:260,1,41.9999987182618,8|8,0:2|0:2,0:2:0:0:
217,376,189514,2,8,P|195:372|176:364,1,41.9999987182618,8|8,0:2|0:2,0:2:0:0:
48,271,189720,2,8,P|67:263|88:259,1,41.9999987182618,10|8,0:2|0:2,0:2:0:0:
180,142,189925,6,0,P|195:180|205:221,1,84,2|2,0:2|0:2,0:2:0:0:
206,222,190542,2,0,P|205:204|212:188,1,35,2|0,0:2|0:2,0:2:0:0:
351,81,190747,6,0,P|437:95|471:181,1,181.999991668702,4|8,1:1|0:2,0:2:0:0:
280,369,191364,1,2,0:2:0:0:
276,364,191466,1,2,0:2:0:0:
273,358,191569,2,0,P|279:313|293:269,1,90.9999958343508,2|2,1:2|0:2,0:2:0:0:
292,269,191877,1,2,0:2:0:0:
292,269,191980,1,8,0:2:0:0:
136,362,192185,2,0,P|92:349|47:341,1,90.9999958343508,2|0,3:2|1:2,0:2:0:0:
295,162,192596,2,0,P|338:176|382:185,1,90.9999958343508,2|8,3:2|0:2,0:2:0:0:
446,131,193007,1,2,0:2:0:0:
298,276,193213,5,2,1:2:0:0:
180,146,193418,1,2,0:2:0:0:
353,54,193624,1,10,0:2:0:0:
382,185,193829,1,2,0:2:0:0:
188,42,194035,6,0,P|144:53|44:68,1,136.499993751526,2|2,1:2|0:2,0:2:0:0:
54,67,194446,1,8,0:2:0:0:
136,163,194651,1,2,0:2:0:0:
15,261,194857,2,0,P|5:219|2:168,1,90.9999958343508,2|0,1:2|0:2,0:2:0:0:
1,171,195165,1,2,0:2:0:0:
1,171,195268,1,8,0:2:0:0:
258,216,195473,6,0,P|255:171|244:127,1,90.9999958343508,2|0,3:2|1:2,0:2:0:0:
93,369,195884,2,0,P|137:355|187:348,1,90.9999958343508,2|8,3:2|0:2,0:2:0:0:
392,283,196295,1,2,0:2:0:0:
349,384,196501,1,2,1:2:0:0:
257,307,196706,1,2,0:2:0:0:
263,161,196911,1,10,0:2:0:0:
364,191,197117,1,2,0:2:0:0:
142,332,197322,6,0,P|129:288|122:243,1,90.9999958343508,2|0,1:2|0:2,0:2:0:0:
53,201,197631,1,2,0:2:0:0:
53,201,197733,2,0,P|139:203|184:129,1,181.999991668702,10|0,0:2|1:2,0:2:0:0:
119,93,198350,1,2,0:2:0:0:
299,273,198555,1,10,0:2:0:0:
490,178,198761,2,0,P|437:109|349:111,1,181.999991668702,2|0,3:2|3:2,0:2:0:0:
268,180,199377,1,8,0:2:0:0:
360,8,199583,5,2,0:2:0:0:
268,180,199788,2,0,P|254:136|244:92,1,90.9999958343508,2|0,1:2|0:2,0:2:0:0:
436,327,200199,2,0,P|446:285|461:239,1,90.9999958343508,10|0,0:2|0:2,0:2:0:0:
200,371,200610,2,0,P|139:340|73:320,1,136.499993751526,2|0,1:2|0:2,0:2:0:0:
73,320,201021,2,0,P|64:341|57:362,1,45.4999979171754,10|2,0:2|0:2,0:2:0:0:
216,228,201227,2,0,P|229:184|238:140,1,90.9999958343508,2|0,0:2|1:2,0:2:0:0:
179,77,201638,5,8,0:2:0:0:
338,231,201843,1,8,0:2:0:0:
179,77,202048,6,0,B|130:57|93:101|93:101|85:149|44:168,1,181.999991668702,6|8,1:2|0:2,0:2:0:0:
41,260,202665,1,8,0:2:0:0:
41,260,202870,1,8,0:2:0:0:
272,340,203076,1,8,0:2:0:0:
242,375,203179,1,8,0:2:0:0:
197,381,203281,1,8,0:2:0:0:
159,354,203384,1,8,0:2:0:0:
143,311,203487,2,8,P|153:291|164:265,1,45.4999979171754,8|8,0:2|0:2,0:2:0:0:
251,209,203692,2,8,P|245:186|236:165,1,45.4999979171754,8|8,0:2|0:2,0:2:0:0:
86,80,203898,6,0,P|171:100|233:33,1,181.999991668702,6|8,1:2|0:2,0:2:0:0:
151,7,204514,1,2,0:2:0:0:
323,174,204720,1,2,1:2:0:0:
430,34,204925,1,2,0:2:0:0:
311,63,205131,1,10,0:2:0:0:
427,146,205336,6,0,P|471:134|518:117,1,90.9999958343508,2|0,3:2|1:2,0:2:0:0:
319,384,205747,2,0,P|303:341|297:296,1,90.9999958343508,2|8,3:2|0:2,0:2:0:0:
346,233,206158,1,2,0:2:0:0:
223,374,206364,1,2,1:2:0:0:
164,230,206569,1,2,0:2:0:0:
297,296,206774,1,10,0:2:0:0:
108,360,206980,5,2,0:2:0:0:
108,360,207083,1,2,0:2:0:0:
108,360,207185,2,0,P|91:290|70:224,1,136.499993751526,2|2,1:2|0:2,0:2:0:0:
45,130,207596,2,0,P|84:147|133:161,1,90.9999958343508,10|0,0:2|0:2,0:2:0:0:
340,24,208007,2,0,P|296:9|252:0,1,90.9999958343508,2|2,1:2|0:2,0:2:0:0:
283,163,208418,1,10,0:2:0:0:
451,58,208624,1,2,0:2:0:0:
283,163,208829,6,0,P|261:227|253:295,1,136.499993751526,2|2,1:2|0:2,0:2:0:0:
253,295,209240,1,8,0:2:0:0:
451,185,209446,1,2,0:2:0:0:
471,291,209651,2,0,P|427:297|390:272,1,90.9999958343508,2|0,1:2|0:2,0:2:0:0:
512,96,210062,1,10,0:2:0:0:
512,96,210268,1,2,0:2:0:0:
276,143,210473,6,0,P|210:128|136:104,1,136.499993751526,6|2,1:2|0:2,0:2:0:0:
144,107,210884,1,8,0:2:0:0:
238,42,211090,1,2,0:2:0:0:
257,245,211295,2,0,P|242:288|233:332,1,90.9999958343508,2|0,1:2|0:2,0:2:0:0:
399,118,211706,5,2,1:2:0:0:
167,204,211911,2,0,P|82:183|58:100,1,181.999991668702,14|2,0:2|0:2,0:2:0:0:
143,76,212528,1,10,0:2:0:0:
113,309,212733,2,0,P|68:319|22:335,1,90.9999958343508,2|0,0:2|1:2,0:2:0:0:
24,230,213144,5,8,0:2:0:0:
181,384,213350,1,8,0:2:0:0:
296,227,213555,1,8,0:2:0:0:
296,227,213658,1,8,0:2:0:0:
296,227,213761,2,0,P|287:182|277:138,1,90.9999958343508,4|2,1:2|0:2,0:2:0:0:
214,77,214172,1,10,0:2:0:0:
413,125,214377,2,0,P|457:115|501:104,1,90.9999958343508,2|0,0:2|1:2,0:2:0:0:
446,26,214788,1,2,0:2:0:0:
383,220,214994,1,10,0:2:0:0:
511,307,215199,5,14,0:2:0:0:
383,220,215405,2,0,P|295:237|205:270,1,181.999991668702,2|10,1:2|0:2,0:2:0:0:
187,343,216021,1,0,0:2:0:0:
62,208,216227,2,0,P|48:164|36:120,1,90.9999958343508,0|8,1:2|0:2,0:2:0:0:
147,150,216638,1,8,0:2:0:0:
21,302,216843,1,8,0:2:0:0:
133,359,217048,6,0,P|166:349|190:341,1,56,6|0,1:2|0:2,0:2:0:0:
312,384,217459,2,0,P|320:350|324:315,1,70,2|0,1:2|0:2,0:2:0:0:
462,256,217870,2,0,P|453:214|436:176,1,83.9999974365235,2|0,1:2|0:2,0:2:0:0:
467,87,218281,5,8,0:2:0:0:
240,226,218487,2,0,B|148:215|173:177|87:156,1,167.999994873047,6|8,1:2|0:2,0:2:0:0:
48,221,219103,1,8,0:2:0:0:
184,98,219309,1,8,0:2:0:0:
364,280,219514,1,8,0:2:0:0:
493,171,219720,1,0,1:2:0:0:
345,0,219925,2,0,B|311:24|311:24|317:66,1,83.9999974365235,8|0,0:2|3:2,0:2:0:0:
316,65,220233,1,0,3:2:0:0:
316,65,220336,5,2,0:3:0:0:
256,192,220439,12,0,223624,0:2:0:0:
