osu file format v14

[General]
AudioFilename: audio.mp3
AudioLeadIn: 0
PreviewTime: 43396
Countdown: 0
SampleSet: Soft
StackLeniency: 0.3
Mode: 0
LetterboxInBreaks: 0
WidescreenStoryboard: 1

[Editor]
Bookmarks: 89257
DistanceSpacing: 0.2
BeatDivisor: 16
GridSize: 32
TimelineZoom: 2.1

[Metadata]
Title:Bokura no (TV Size)
TitleUnicode:ぼくらの (TV Size)
Artist:Eve
ArtistUnicode:Eve
Creator:Pepekcz
Version:AsuKo's Insane
Source:僕のヒーローアカデミア
Tags:Kirishima- Asukow bokurano heroaca anime japanese jpop j-pop pop jrock j-rock rock 6th sixth six 11 eleven season opening op deku midoriya izuku my hero academia boku no mha bnha vocal vocalist male
BeatmapID:4049223
BeatmapSetID:1926961

[Difficulty]
HPDrainRate:5
CircleSize:4
OverallDifficulty:8
ApproachRate:9
SliderMultiplier:1.6
SliderTickRate:1

[Events]
//Background and Video events
0,0,"Izuku.jpg",0,0
Video,100,"video.mp4"
//Break Periods
//Storyboard Layer 0 (Background)
//Storyboard Layer 1 (Fail)
//Storyboard Layer 2 (Pass)
//Storyboard Layer 3 (Foreground)
//Storyboard Layer 4 (Overlay)
//Storyboard Sound Samples

[TimingPoints]
406,327.868852459016,4,2,1,30,1,0
406,-166.666666666667,4,2,1,30,0,0
1389,-166.666666666667,4,2,1,5,0,0
1553,-166.666666666667,4,2,1,30,0,0
2209,-166.666666666667,4,2,1,5,0,0
2373,-166.666666666667,4,2,1,30,0,0
2865,-166.666666666667,4,2,1,5,0,0
3028,-166.666666666667,4,2,1,30,0,0
4012,-166.666666666667,4,2,1,5,0,0
4176,-166.666666666667,4,2,1,30,0,0
5487,-166.666666666667,4,2,1,5,0,0
5651,-100,4,2,1,70,0,0
14832,-333.333333333333,4,2,1,50,0,0
17291,-125,4,2,1,50,0,0
23602,-125,4,2,1,50,0,0
23684,-125,4,2,1,50,0,0
25324,-125,4,2,1,60,0,0
33192,-125,4,2,1,70,0,0
35815,-125,4,2,1,60,0,0
37783,-166.666666666667,3,2,1,60,0,0
38438,-166.666666666667,3,2,1,40,0,0
38766,-100,3,2,1,45,0,0
39094,-100,3,2,1,50,0,0
39422,-100,3,2,1,55,0,0
39750,-100,3,2,1,60,0,0
40734,327.868852459016,4,2,1,70,1,0
40734,-100,4,2,1,70,0,0
40979,-100,4,2,1,70,0,0
41061,-100,4,2,1,70,0,0
41471,-100,4,2,1,70,0,0
41553,-100,4,2,1,70,0,0
42671,306.122448979592,4,2,1,50,1,0
42671,-166.666666666667,4,2,1,50,0,0
43489,370.37037037037,4,2,1,60,1,0
43489,-100,4,2,1,60,0,0
43674,338.983050847458,4,2,1,70,1,0
43674,-250,4,2,1,70,0,0
43928,-250,4,2,1,70,0,0
44012,327.868852459016,4,2,1,90,1,0
44012,-66.6666666666667,4,2,1,90,0,0
44257,-66.6666666666667,4,2,1,90,0,0
44339,-66.6666666666667,4,2,1,90,0,0
44503,-83.3333333333333,4,2,1,90,0,0
45405,-83.3333333333333,4,2,1,90,0,0
45487,-83.3333333333333,4,2,1,90,0,0
46880,-83.3333333333333,4,2,1,90,0,0
46962,-83.3333333333333,4,2,1,90,0,0
48028,-83.3333333333333,4,2,1,90,0,0
48110,-83.3333333333333,4,2,1,90,0,0
54749,-83.3333333333333,4,2,1,90,0,0
54831,-83.3333333333333,4,2,1,90,0,0
55897,-83.3333333333333,4,2,1,90,0,0
55979,-83.3333333333333,4,2,1,90,0,0
57372,-83.3333333333333,4,2,1,90,0,0
57454,-83.3333333333333,4,2,1,90,0,0
58520,-83.3333333333333,4,2,1,90,0,0
58602,-83.3333333333333,4,2,1,90,0,0
63520,-100,4,2,1,90,0,0
64995,-100,4,2,1,70,0,0
70241,-100,4,2,1,80,0,0
72864,-100,4,2,1,90,0,0
73848,-250,4,2,1,90,0,0
74503,-250,4,2,1,80,0,0
75487,-100,4,2,1,70,0,0
84503,-100,4,2,1,60,0,0
89257,-100,4,2,1,5,0,0

[Colours]
Combo1 : 146,192,162
Combo2 : 67,156,128
Combo3 : 190,193,170

[HitObjects]
42,152,406,6,0,B|-27:148|-22:68|55:16|112:109|99:106|130:160|189:138,1,287.999991210938,2|0,0:0|0:0,0:0:0:0:
288,64,1553,6,0,B|283:9|361:2|391:88|326:132,1,191.999994140625,2|0,0:0|0:0,0:0:0:0:
370,227,2373,6,0,B|450:236|425:183|506:201,1,143.999995605469,2|0,0:0|0:0,0:0:0:0:
338,327,3028,6,0,B|285:295|240:339|261:341|227:395|142:387|110:276|193:256|217:270,1,287.999991210938,2|0,0:0|0:0,0:0:0:0:
86,187,4176,6,0,B|148:200|172:87|22:60|-7:199|-7:199|57:244|33:297,1,383.99998828125,2|0,0:0|0:0,0:0:0:0:
136,375,5651,6,0,P|175:362|231:344,1,80,6|2,1:2|0:2,0:0:0:0:
347,271,5979,1,10,0:2:0:0:
282,211,6143,2,0,P|259:242|263:281,1,80,2|0,0:2|1:2,0:0:0:0:
377,368,6471,1,2,1:2:0:0:
475,286,6635,1,10,0:2:0:0:
350,150,6799,6,0,B|265:135|286:194|199:186,1,160,2|2,1:2|1:2,0:0:0:0:
73,77,7291,1,10,0:2:0:0:
132,6,7455,2,0,B|181:57|181:57|137:135,1,160,2|2,1:2|1:2,0:0:0:0:
27,253,7946,1,10,0:2:0:0:
147,305,8110,6,0,P|132:253|122:219,1,80,2|0,0:2|1:2,0:0:0:0:
6,124,8438,1,2,1:2:0:0:
6,124,8520,1,2,0:2:0:0:
6,124,8602,1,10,0:2:0:0:
138,53,8766,1,2,0:2:0:0:
72,1,8930,2,0,P|49:32|58:70,1,80,2|2,1:2|1:2,0:0:0:0:
150,147,9258,1,10,0:2:0:0:
336,7,9422,6,0,B|280:36|280:36|272:70|272:70|215:96,1,160,2|2,1:2|1:2,0:0:0:0:
78,183,9914,1,10,0:2:0:0:
203,290,10078,2,0,B|295:298|268:240|354:257,1,160,2|2,1:2|1:2,0:0:0:0:
502,152,10569,1,10,0:2:0:0:
396,87,10733,1,10,1:2:0:0:
396,87,10815,1,8,1:2:0:0:
396,87,10897,6,0,P|404:121|418:168,1,80,4|2,1:2|0:2,0:0:0:0:
421,172,11143,1,2,0:2:0:0:
424,182,11225,1,8,0:2:0:0:
485,318,11389,1,2,0:2:0:0:
354,257,11553,1,2,1:2:0:0:
331,343,11717,2,0,P|370:347|405:330,1,80,2|10,1:2|0:2,0:0:0:0:
226,224,12045,6,0,B|165:237|165:237|149:270|149:270|90:285,1,160,2|2,1:2|1:2,0:0:0:0:
0,182,12537,1,10,0:2:0:0:
130,45,12701,2,0,P|108:122|92:200,1,160,2|2,1:2|1:2,0:0:0:0:
94,366,13192,1,10,0:2:0:0:
1,362,13356,6,0,P|28:290|103:273,1,160,2|14,1:2|1:2,0:0:0:0:
233,372,13848,1,6,1:3:0:0:
233,372,13930,1,4,1:3:0:0:
233,372,14012,2,0,P|242:346|249:330,1,40,10|8,1:3|1:3,0:0:0:0:
173,202,14176,2,0,P|181:220|187:239,1,40,8|8,1:3|1:3,0:0:0:0:
246,334,14340,5,10,1:3:0:0:
339,285,14504,1,10,0:2:0:0:
266,256,14668,1,2,0:2:0:0:
365,385,14832,6,0,B|316:309|377:205|413:279|468:198|426:109,1,311.999990478516,4|10,1:2|1:3,0:0:0:0:
512,3,17127,1,8,0:2:0:0:
426,109,17291,6,0,P|370:83|313:106,1,128,2|0,1:2|0:0,0:0:0:0:
238,36,17783,1,2,1:2:0:0:
172,106,17946,2,0,P|181:132|194:172,1,64,2|0,0:2|1:2,0:0:0:0:
278,248,18274,2,0,P|309:245|335:227,1,64,2|0,0:2|1:2,0:0:0:0:
192,166,18602,2,0,P|162:177|132:188,1,64,2|0,0:2|1:2,0:0:0:0:
10,201,18930,2,0,P|34:221|59:241,1,64,2|0,0:2|1:2,0:0:0:0:
124,336,19258,2,0,P|129:304|133:272,1,64,2|0,0:2|1:2,0:0:0:0:
192,166,19586,1,2,0:2:0:0:
192,166,19750,1,2,1:2:0:0:
112,60,19914,5,2,0:2:0:0:
112,60,19996,1,2,0:2:0:0:
112,60,20078,2,0,P|56:35|2:63,1,128,0|2,1:2|1:2,0:0:0:0:
26,165,20569,2,0,P|55:157|106:143,1,64,2|0,0:2|1:2,0:0:0:0:
187,89,20897,2,0,P|217:97|248:105,1,64,2|0,0:2|1:2,0:0:0:0:
324,183,21225,2,0,P|355:178|381:161,1,64,2|0,0:2|1:2,0:0:0:0:
423,64,21553,2,0,P|409:22|400:-2,1,64,2|0,0:2|1:2,0:0:0:0:
512,133,21881,2,0,P|501:163|491:193,1,64,2|0,0:2|1:2,0:0:0:0:
416,285,22209,5,2,0:2:0:0:
357,208,22373,2,0,P|383:191|415:191,1,64,2|2,1:2|0:2,0:0:0:0:
317,325,22701,6,0,P|248:310|176:297,1,128,2|0,1:2|1:2,0:0:0:0:
98,271,23192,1,2,0:2:0:0:
18,379,23356,2,0,P|63:362|115:344,1,96,2|0,1:2|0:0,0:0:0:0:
116,346,23684,5,2,1:2:0:0:
0,208,23848,1,10,0:2:0:0:
475,384,25324,6,0,P|507:332|477:278,1,128,12|2,1:2|1:2,0:0:0:0:
382,215,25815,2,0,P|352:226|311:244,1,64,2|0,0:2|1:2,0:0:0:0:
215,309,26143,2,0,P|245:320|286:338,1,64,2|0,0:2|1:2,0:0:0:0:
388,324,26471,5,10,0:2:0:0:
388,324,26553,1,8,0:2:0:0:
388,324,26635,1,8,0:2:0:0:
462,203,26799,2,0,P|457:172|436:148,1,64,2|0,0:2|1:2,0:0:0:0:
362,78,27127,1,2,0:2:0:0:
484,2,27291,2,0,P|475:29|462:67,1,64,0|10,1:2|0:2,0:0:0:0:
462,70,27537,1,8,0:2:0:0:
460,78,27619,1,10,0:2:0:0:
388,203,27783,5,8,0:2:0:0:
388,203,27865,1,8,0:2:0:0:
388,203,27946,2,0,B|330:191|330:191|308:202|308:202|264:196,1,128,14|2,0:2|1:2,0:0:0:0:
148,93,28438,2,0,P|198:56|258:70,1,128,2|0,0:2|1:2,0:0:0:0:
264,76,28848,1,0,1:0:0:0:
268,81,28930,1,2,1:2:0:0:
166,228,29094,6,0,P|184:289|202:350,1,128,14|0,1:2|0:0,0:0:0:0:
264,196,29586,1,2,1:2:0:0:
117,165,29750,1,10,0:2:0:0:
117,165,29832,1,0,0:0:0:0:
117,165,29914,2,0,P|72:151|14:137,2,96,2|10|10,1:2|0:2|0:2,0:0:0:0:
227,66,30569,5,14,1:2:0:0:
364,157,30733,1,2,0:2:0:0:
304,219,30897,2,0,B|264:179|264:179|294:114,1,128,0|8,1:2|0:2,0:0:0:0:
349,15,31389,1,8,1:2:0:0:
349,15,31553,1,2,0:2:0:0:
227,66,31717,5,2,0:2:0:0:
227,66,31799,1,8,0:0:0:0:
227,66,31881,2,0,P|177:50|153:43,1,64,8|0,1:2|0:0,0:0:0:0:
25,121,32209,2,0,P|56:128|86:137,1,64,0|10,1:2|0:2,0:0:0:0:
95,141,32455,1,0,0:0:0:0:
101,146,32537,2,0,P|145:134|198:164,2,96,2|10|2,1:2|0:2|1:2,0:0:0:0:
0,259,33192,5,14,1:2:0:0:
124,369,33356,1,2,1:2:0:0:
37,381,33520,2,0,P|33:349|47:320,1,64,8|8,0:2|0:2,0:0:0:0:
136,220,33848,1,0,1:2:0:0:
268,317,34012,1,8,0:2:0:0:
268,317,34176,1,2,1:2:0:0:
340,152,34340,6,0,P|288:145|232:213,1,128,14|0,1:2|1:2,0:0:0:0:
24,13,34996,37,10,0:2:0:0:
24,13,35078,1,8,0:2:0:0:
24,13,35160,1,10,0:2:0:0:
126,10,35324,1,2,1:2:0:0:
163,103,35487,1,4,1:3:0:0:
87,172,35651,1,8,1:3:0:0:
0,115,35815,6,0,P|12:178|25:241,1,128,6|0,1:2|0:0,0:0:0:0:
113,359,36307,6,0,B|164:343|164:343|185:355|185:355|233:342,1,128,2|8,1:2|0:2,0:0:0:0:
377,222,36799,6,0,P|325:188|264:199,1,128,14|0,1:2|0:0,0:0:0:0:
434,375,37291,6,0,P|449:314|472:243,1,128,10|2,1:3|1:2,0:0:0:0:
475,245,37701,1,0,1:2:0:0:
483,240,37783,6,0,B|492:171|419:157|419:157|454:180|452:225,1,191.999994140625,6|0,1:2|1:2,0:0:0:0:
372,307,38602,1,0,1:2:0:0:
279,238,38766,6,0,P|267:264|244:326,1,80,0|0,1:2|1:2,0:0:0:0:
175,384,39094,1,0,1:2:0:0:
86,252,39258,1,8,0:2:0:0:
32,366,39422,1,8,0:2:0:0:
177,246,39586,5,8,0:2:0:0:
177,246,39668,1,8,0:2:0:0:
177,246,39750,1,8,0:2:0:0:
49,133,39914,1,8,0:2:0:0:
49,133,39996,1,8,0:2:0:0:
49,133,40078,2,0,L|94:117,1,40,10|8,1:3|1:3,0:0:0:0:
196,57,40242,2,0,L|151:41,1,40,4|4,1:3|1:3,0:0:0:0:
72,5,40405,2,0,P|32:5|0:26,1,80,10|8,0:2|1:3,0:0:0:0:
196,161,40734,6,0,P|253:143|311:126,1,120,14|0,1:2|0:0,0:0:0:0:
394,100,41061,1,2,1:2:0:0:
503,269,41225,2,0,P|463:227|405:230,1,120,14|0,1:2|0:0,0:0:0:0:
337,270,41553,1,2,1:2:0:0:
401,384,41717,2,0,P|418:340|431:309,1,80,10|0,0:2|1:2,0:0:0:0:
494,145,42045,5,10,0:2:0:0:
417,25,42264,5,2,1:2:0:0:
306,118,42482,5,8,1:3:0:0:
344,249,42671,6,0,P|373:235|406:229,1,63.9999980468751,2|2,0:2|0:2,0:0:0:0:
241,202,43079,6,0,P|212:188|179:182,1,63.9999980468751,2|2,0:2|0:2,0:0:0:0:
74,205,43487,5,2,1:2:0:0:
80,30,43674,2,0,P|67:19|77:31,1,48,10|0,0:2|0:0,0:0:0:0:
0,98,44012,6,0,B|59:117|85:74|77:78|110:39|178:65,1,180.000006866455,6|0,1:2|0:0,0:0:0:0:
238,107,44339,1,10,0:2:0:0:
167,245,44503,2,0,P|151:187|138:145,1,95.9999970703126,2|0,0:2|1:2,0:0:0:0:
343,67,44831,2,0,P|329:112|316:159,1,95.9999970703126,2|8,1:2|0:2,0:0:0:0:
213,364,45159,6,0,P|267:320|335:336,1,143.999995605469,2|0,1:2|0:0,0:0:0:0:
404,378,45487,1,2,1:2:0:0:
512,250,45651,1,10,0:2:0:0:
395,208,45815,1,0,1:2:0:0:
395,208,45897,1,8,0:2:0:0:
395,208,45979,2,0,P|349:225|301:243,1,95.9999970703126,0|0,1:2|1:2,0:0:0:0:
153,278,46307,1,10,0:2:0:0:
224,193,46471,1,2,0:2:0:0:
201,371,46634,6,0,B|148:354|148:354|136:325|136:325|77:313,1,143.999995605469,0|0,1:2|0:0,0:0:0:0:
0,286,46962,1,10,0:2:0:0:
122,187,47126,1,2,1:2:0:0:
122,187,47208,1,8,0:2:0:0:
122,187,47290,1,0,1:2:0:0:
38,96,47454,2,0,P|3:127|-1:174,1,95.9999970703126,2|8,1:2|0:2,0:0:0:0:
220,288,47782,6,0,P|288:267|358:249,1,143.999995605469,2|0,1:2|0:0,0:0:0:0:
432,236,48110,1,2,1:2:0:0:
512,88,48274,2,0,P|487:48|441:41,1,95.9999970703126,10|0,0:2|1:2,0:0:0:0:
326,113,48602,1,0,1:2:0:0:
326,113,48684,1,8,0:2:0:0:
326,113,48766,1,0,1:2:0:0:
500,200,48930,1,10,0:2:0:0:
437,119,49093,1,2,1:2:0:0:
306,229,49257,6,0,B|278:259|247:284|247:284|271:333|300:397,1,191.999994140625,4|10,1:2|0:2,0:0:0:0:
397,286,49749,1,2,1:2:0:0:
397,286,49913,1,0,1:2:0:0:
261,156,50077,1,2,1:2:0:0:
378,183,50241,1,10,0:2:0:0:
212,252,50405,6,0,P|173:122|156:62,1,191.999994140625,2|2,1:2|1:2,0:0:0:0:
14,1,50897,1,10,0:2:0:0:
0,136,51061,1,2,1:2:0:0:
0,136,51143,1,8,0:2:0:0:
0,136,51225,2,0,P|42:123|104:107,1,95.9999970703126,2|0,1:2|1:2,0:0:0:0:
98,113,51471,1,2,0:2:0:0:
103,117,51552,1,8,0:2:0:0:
302,51,51716,6,0,P|273:14|226:8,1,95.9999970703126,2|0,0:2|1:2,0:0:0:0:
220,13,51962,1,0,0:0:0:0:
214,18,52044,1,14,1:2:0:0:
103,117,52208,2,0,P|113:158|130:221,1,95.9999970703126,2|8,0:2|1:3,0:0:0:0:
1,377,52536,1,4,1:3:0:0:
76,338,52700,1,8,1:3:0:0:
9,293,52864,1,10,0:2:0:0:
178,157,53028,6,0,B|235:130|272:183|259:179|285:226|349:206,1,191.999994140625,6|10,1:2|1:3,0:0:0:0:
512,333,53520,1,8,0:2:0:0:
400,384,53684,1,2,0:2:0:0:
283,309,53848,1,8,1:2:0:0:
283,309,53930,1,8,1:2:0:0:
283,309,54011,2,0,P|292:278|300:262,1,47.9999985351563,10|8,1:2|1:2,0:0:0:0:
403,156,54175,2,0,P|412:178|419:201,1,47.9999985351563,8|0,1:2|0:0,0:0:0:0:
306,136,54339,1,10,1:2:0:0:
306,136,54421,1,8,1:2:0:0:
306,136,54503,6,0,P|336:74|404:61,1,143.999995605469,6|0,1:2|0:0,0:0:0:0:
472,88,54831,1,10,0:2:0:0:
511,227,54995,2,0,P|460:212|400:195,1,95.9999970703126,2|0,0:2|1:2,0:0:0:0:
281,293,55323,2,0,P|248:248|254:212,1,95.9999970703126,2|8,1:2|0:2,0:0:0:0:
512,376,55651,6,0,P|441:362|370:350,1,143.999995605469,2|0,1:2|0:0,0:0:0:0:
299,374,55979,1,2,1:2:0:0:
145,266,56143,1,10,0:2:0:0:
193,382,56307,1,0,1:2:0:0:
193,382,56389,1,8,0:2:0:0:
193,382,56471,2,0,P|211:327|228:287,1,95.9999970703126,0|0,1:2|1:2,0:0:0:0:
312,121,56798,1,10,0:2:0:0:
199,168,56963,1,2,0:2:0:0:
340,286,57126,6,0,B|393:269|393:269|405:240|405:240|464:228,1,143.999995605469,0|0,1:2|0:0,0:0:0:0:
512,170,57454,1,10,0:2:0:0:
424,30,57618,1,2,1:2:0:0:
424,30,57700,1,8,0:2:0:0:
424,30,57782,1,0,1:2:0:0:
409,114,57946,2,0,P|455:113|490:81,1,95.9999970703126,2|8,1:2|0:2,0:0:0:0:
273,5,58274,6,0,B|224:34|224:34|218:65|218:65|154:108,1,143.999995605469,2|0,1:2|0:0,0:0:0:0:
94,80,58602,1,2,1:2:0:0:
0,253,58766,2,0,P|25:207|70:194,1,95.9999970703126,10|0,0:2|1:2,0:0:0:0:
222,327,59093,1,0,1:2:0:0:
222,327,59175,1,8,0:2:0:0:
222,327,59257,1,0,1:2:0:0:
81,271,59421,1,10,0:2:0:0:
215,218,59584,1,2,1:2:0:0:
92,384,59749,6,0,P|125:245|137:197,1,191.999994140625,4|10,1:2|0:2,0:0:0:0:
217,64,60240,1,2,1:2:0:0:
217,64,60322,1,8,0:2:0:0:
217,64,60404,1,0,1:2:0:0:
360,187,60569,2,0,P|308:172|267:160,1,95.9999970703126,2|8,1:2|0:2,0:0:0:0:
133,110,60897,1,2,1:2:0:0:
280,9,61061,6,0,P|326:22|372:35,1,95.9999970703126,2|0,0:2|1:2,0:0:0:0:
378,40,61307,1,2,0:2:0:0:
384,46,61389,1,8,0:2:0:0:
512,133,61552,1,2,1:2:0:0:
512,133,61634,1,8,0:2:0:0:
512,133,61716,1,0,1:2:0:0:
361,259,61880,1,2,1:2:0:0:
431,150,62044,1,10,0:2:0:0:
512,347,62208,6,0,P|464:329|419:318,1,95.9999970703126,2|0,1:2|1:2,0:0:0:0:
241,375,62536,1,14,1:2:0:0:
343,168,62700,1,10,0:2:0:0:
420,318,62864,1,2,1:2:0:0:
420,318,62946,1,0,1:2:0:0:
420,318,63028,1,8,0:2:0:0:
248,204,63192,1,0,1:2:0:0:
403,83,63356,1,10,0:2:0:0:
314,22,63520,6,0,P|296:56|305:95,1,80,14|0,1:2|0:0,0:0:0:0:
436,200,63848,2,0,P|465:189|530:173,1,80,10|0,0:2|1:2,0:0:0:0:
333,315,64175,2,0,P|304:304|239:288,1,80,2|4,1:2|1:3,0:0:0:0:
92,384,64503,1,10,1:2:0:0:
61,359,64584,1,8,1:2:0:0:
49,322,64666,1,8,1:2:0:0:
58,283,64749,1,0,0:0:0:0:
86,255,64831,2,0,P|103:261|134:269,1,40,2|0,1:2|1:2,0:0:0:0:
256,291,64995,6,0,B|346:239|299:126|197:147|219:221,1,240,4|0,1:2|1:2,0:0:0:0:
141,145,65651,1,10,0:2:0:0:
205,66,65815,2,0,P|240:77|287:92,1,80,2|0,0:2|0:0,0:0:0:0:
111,12,66143,2,0,P|31:16|0:84,1,160,2|0,1:2|1:2,0:0:0:0:
107,282,66798,5,2,0:2:0:0:
0,337,66962,1,10,0:2:0:0:
51,178,67126,2,0,P|40:217|32:256,1,80,2|2,1:2|0:2,0:0:0:0:
161,374,67454,2,0,P|169:335|180:296,1,80,2|0,0:2|1:2,0:0:0:0:
306,247,67782,2,0,P|298:208|287:169,1,80,2|0,0:2|0:0,0:0:0:0:
200,72,68110,2,0,P|173:101|173:140,1,80,2|8,1:2|0:2,0:0:0:0:
214,225,68438,5,2,1:2:0:0:
287,169,68602,1,2,0:2:0:0:
378,125,68766,1,2,1:2:0:0:
505,263,68930,2,0,P|466:274|428:288,1,80,2|0,0:2|1:2,0:0:0:0:
424,293,69175,1,0,0:0:0:0:
420,300,69257,1,2,0:2:0:0:
321,375,69421,1,2,1:2:0:0:
348,263,69585,1,8,0:2:0:0:
440,381,69749,1,2,1:2:0:0:
274,308,69913,1,8,0:2:0:0:
399,202,70077,5,10,1:3:0:0:
399,202,70159,1,8,1:3:0:0:
399,202,70241,2,0,P|384:146|374:112,1,80,6|2,1:2|1:2,0:0:0:0:
236,12,70569,2,0,P|226:45|209:111,1,80,10|0,0:2|1:2,0:0:0:0:
212,97,70815,1,0,1:2:0:0:
210,105,70897,1,0,1:2:0:0:
153,246,71061,1,0,1:2:0:0:
76,132,71225,1,10,0:2:0:0:
98,310,71389,6,0,P|172:281|248:254,1,160,2|0,1:2|1:2,0:0:0:0:
399,202,71880,1,8,0:2:0:0:
340,302,72044,1,2,1:2:0:0:
340,302,72126,1,8,0:2:0:0:
340,302,72208,2,0,P|326:248|317:212,1,80,2|0,1:2|1:2,0:0:0:0:
317,218,72454,1,2,0:2:0:0:
312,212,72536,1,8,0:2:0:0:
201,114,72700,1,2,1:2:0:0:
272,52,72864,5,14,1:2:0:0:
175,193,73028,1,2,1:2:0:0:
289,33,73192,1,10,0:2:0:0:
160,216,73356,1,0,1:2:0:0:
63,37,73520,2,0,P|25:46|0:76,1,80,8|0,0:2|1:2,0:0:0:0:
25,311,73848,6,0,B|72:279|77:206|77:206|83:266|133:291,1,224,14|2,1:2|0:2,0:0:0:0:
512,65,75487,6,0,P|473:78|417:96,1,80,6|2,1:2|0:2,0:0:0:0:
317,176,75815,1,10,0:2:0:0:
376,234,75979,2,0,P|399:200|396:162,1,80,2|0,0:2|1:2,0:0:0:0:
296,75,76307,1,2,1:2:0:0:
222,154,76471,1,10,0:2:0:0:
368,18,76634,6,0,P|286:36|198:56,1,160,2|2,1:2|1:2,0:0:0:0:
86,86,77127,1,10,0:2:0:0:
156,250,77290,2,0,B|203:201|203:201|160:119,1,160,2|2,1:2|1:2,0:0:0:0:
88,7,77782,1,10,0:2:0:0:
12,146,77946,6,0,P|24:184|34:222,1,80,2|0,0:2|1:2,0:0:0:0:
126,382,78274,1,2,1:2:0:0:
126,382,78356,1,2,0:2:0:0:
126,382,78438,1,10,0:2:0:0:
24,309,78602,1,2,0:2:0:0:
135,256,78766,2,0,P|164:263|216:278,1,80,2|2,1:2|1:2,0:0:0:0:
382,259,79094,1,10,0:2:0:0:
327,196,79257,6,0,B|293:248|293:248|305:281|305:281|273:336,1,160,2|2,1:2|1:2,0:0:0:0:
438,362,79750,1,10,0:2:0:0:
498,204,79913,2,0,P|422:195|381:259,1,160,2|2,1:2|1:2,0:0:0:0:
512,330,80405,1,10,0:2:0:0:
360,374,80569,5,10,1:2:0:0:
360,374,80651,1,8,1:2:0:0:
360,374,80733,2,0,P|326:366|279:352,1,80,4|2,1:2|0:2,0:0:0:0:
275,350,80979,1,2,0:2:0:0:
266,347,81061,1,8,0:2:0:0:
140,262,81225,1,2,0:2:0:0:
183,375,81389,1,2,1:2:0:0:
263,254,81552,2,0,P|251:207|241:166,1,80,2|10,1:2|0:2,0:0:0:0:
53,80,81881,6,0,B|114:67|114:67|130:34|130:34|189:19,1,160,2|2,1:2|1:2,0:0:0:0:
326,6,82373,1,10,0:2:0:0:
461,95,82536,2,0,P|436:171|415:248,1,160,2|2,1:2|1:2,0:0:0:0:
341,362,83028,1,10,0:2:0:0:
203,227,83192,6,0,B|256:244|280:203|273:207|303:171|349:190,1,160,2|14,1:2|1:2,0:0:0:0:
480,281,83684,1,6,1:3:0:0:
341,362,83848,1,10,1:3:0:0:
341,362,83930,1,8,1:3:0:0:
341,362,84011,2,0,P|328:321|324:308,1,40,8|8,1:3|1:3,0:0:0:0:
270,214,84175,2,0,P|282:173|287:160,1,40,10|0,1:3|0:0,0:0:0:0:
338,117,84339,5,10,0:2:0:0:
208,5,84503,1,6,1:2:0:0:
256,192,84585,12,0,89257,0:0:0:0:
