osu file format v14

[General]
AudioFilename: audio.mp3
AudioLeadIn: 0
PreviewTime: 118626
Countdown: 0
SampleSet: Soft
StackLeniency: 0.7
Mode: 0
LetterboxInBreaks: 0
WidescreenStoryboard: 1

[Editor]
Bookmarks: 25211,64882,75374,84390,89144,100651,140321,207206
DistanceSpacing: 0.9
BeatDivisor: 4
GridSize: 4
TimelineZoom: 2.4

[Metadata]
Title:Bokura no
TitleUnicode:ぼくらの
Artist:Eve
ArtistUnicode:Eve
Creator:AirinCat
Version:Insane
Source:僕のヒーローアカデミア
Tags:my hero academia mha bnha heroaca boku no bokurano opening anime japanese rock jrock j-rock season 6th six op 11 eleven numa
BeatmapID:3958819
BeatmapSetID:1918427

[Difficulty]
HPDrainRate:5
CircleSize:4
OverallDifficulty:8
ApproachRate:9
SliderMultiplier:1.6
SliderTickRate:1

[Events]
//Background and Video events
0,0,"Izuku.jpg",0,0
//Break Periods
2,91614,96716
//Storyboard Layer 0 (Background)
//Storyboard Layer 1 (Fail)
//Storyboard Layer 2 (Pass)
//Storyboard Layer 3 (Foreground)
//Storyboard Layer 4 (Overlay)
//Storyboard Sound Samples

[TimingPoints]
4532,327.868852459016,4,2,1,60,1,0
11089,-100,4,2,1,60,0,0
20269,-250,4,2,1,40,0,0
23220,-125,4,2,1,40,0,0
29777,-200,4,2,1,40,0,0
30761,-100,4,2,1,50,0,0
41253,327.868852459016,3,2,1,60,1,0
43875,-100,3,2,1,50,0,0
44203,327.868852459016,4,2,1,60,1,0
46170,327.868852459016,4,2,1,70,1,0
46170,-90.9090909090909,4,2,1,70,0,0
47481,327.868852459016,6,2,1,70,1,0
47481,-83.3333333333333,6,2,1,70,0,0
48136,-200,6,2,1,50,0,0
49448,327.868852459016,4,2,1,70,1,0
49448,-90.9090909090909,4,2,1,70,0,1
70431,-111.111111111111,4,2,1,60,0,0
75677,-99.9999999999999,4,2,1,60,0,0
78300,-90.9090909090909,4,2,1,60,0,0
79284,-166.666666666667,4,2,1,60,0,0
80923,-100,4,2,1,60,0,0
89939,-333.333333333334,4,2,1,60,0,0
90103,-333.333333333334,4,2,1,5,0,0
97316,-333.333333333334,4,2,1,25,0,0
97972,-333.333333333334,4,2,1,45,0,0
98628,-333.333333333334,4,2,1,65,0,0
99120,-333.333333333334,4,2,1,35,0,0
100595,-125,4,2,3,60,0,0
108464,-111.111111111111,4,2,1,60,0,0
111087,327.868852459016,3,2,1,60,1,0
113709,-100,3,2,1,50,0,0
114037,327.868852459016,4,2,1,60,1,0
116004,327.868852459016,4,2,1,60,1,0
117315,327.868852459016,6,2,1,70,1,0
117315,-83.3333333333333,6,2,1,70,0,0
117970,-166.666666666667,6,2,1,50,0,0
119282,327.868852459016,4,2,1,70,1,0
119282,-90.9090909090909,4,2,1,70,0,1
140265,-142.857142857143,4,2,2,50,0,0
150101,-62.5,4,2,2,80,0,0
150757,-100,4,2,2,60,0,0
157150,-76.9230769230769,4,2,2,60,0,0
157478,-90.9090909090909,4,2,2,60,0,0
157806,-111.111111111111,4,2,2,60,0,0
158134,-142.857142857143,4,2,2,60,0,0
160921,-142.857142857143,4,2,2,70,0,0
161249,-100,4,3,1,60,0,0
173052,-76.9230769230769,4,2,1,70,0,0
173872,-142.857142857143,4,2,1,70,0,0
174691,-125,4,2,2,70,0,0
174855,-125,4,2,1,80,0,0
175019,-125,4,2,2,90,0,0
175183,-125,4,2,1,100,0,0
175347,-125,4,2,1,60,0,0
175675,-90.9090909090909,4,2,1,70,0,1
196659,-100,4,2,1,60,0,0
205511,-125,4,2,1,60,0,0
205839,-125,4,2,1,50,0,0

[Colours]
Combo1 : 146,192,162
Combo2 : 67,156,128
Combo3 : 190,193,170

[HitObjects]
92,369,11088,6,0,P|82:330|71:292,1,80,6|0,1:2|0:2,0:2:0:0:
168,156,11416,1,8,0:2:0:0:
93,112,11580,2,0,P|54:121|16:134,1,80,2|0,0:2|1:2,0:2:0:0:
199,259,11908,1,2,1:2:0:0:
285,173,12072,1,10,0:2:0:0:
365,253,12236,6,0,B|449:256|432:300|525:314,1,160,2|0,1:2|1:2,0:2:0:0:
504,204,12728,1,10,0:2:0:0:
347,332,12892,2,0,B|261:339|285:371|174:388,1,160,2|0,1:2|1:2,0:2:0:0:
124,313,13384,1,10,0:2:0:0:
22,383,13548,6,0,P|16:343|8:304,1,80,2|0,0:2|1:2,0:2:0:0:
197,186,13875,1,2,1:2:0:0:
197,186,13957,1,2,0:2:0:0:
197,186,14039,2,0,P|203:222|212:271,1,80,10|2,0:2|0:2,0:0:0:0:
34,191,14367,1,2,1:2:0:0:
116,110,14531,1,2,1:2:0:0:
13,56,14695,1,10,0:2:0:0:
163,2,14859,6,0,B|237:7|235:39|332:55,1,160,2|0,1:2|1:2,0:2:0:0:
404,14,15351,1,10,0:2:0:0:
442,194,15515,2,0,P|503:146|505:69,1,160,0|0,1:2|1:2,0:2:0:0:
413,103,16007,1,8,0:2:0:0:
512,269,16170,5,8,0:2:0:0:
512,269,16252,1,8,0:2:0:0:
512,269,16335,1,0,1:2:0:0:
451,358,16499,1,2,0:2:0:0:
451,358,16580,1,2,0:2:0:0:
451,358,16662,2,0,L|359:343,1,80,10|0,0:2|0:2,0:2:0:0:
254,211,16990,1,2,1:2:0:0:
344,233,17154,1,2,1:2:0:0:
248,350,17318,1,10,0:2:0:0:
161,322,17482,6,0,P|132:242|128:143,1,160,2|0,1:2|1:2,0:2:0:0:
185,100,17974,1,10,0:2:0:0:
346,155,18138,2,0,B|432:148|419:110|494:99,1,160,2|0,1:2|1:2,0:2:0:0:
501,182,18629,1,10,0:2:0:0:
332,61,18793,6,0,P|269:105|260:182,1,160,2|8,1:2|0:2,0:2:0:0:
411,338,19285,1,8,1:3:0:0:
411,338,19367,1,8,0:3:0:0:
411,338,19449,1,8,0:3:0:0:
411,338,19531,1,8,0:3:0:0:
411,338,19613,2,0,L|421:280,2,53.3333333333333,4|4|4,1:3|0:3|0:3,0:2:0:0:
320,243,19941,2,0,P|311:282|302:324,1,80,8|0,1:2|1:2,0:2:0:0:
512,85,20269,6,0,P|406:145|316:99,1,224,4|0,1:2|0:2,0:2:0:0:
321,105,22400,5,8,0:3:0:0:
372,38,22564,1,8,0:2:0:0:
218,0,22728,2,0,L|193:102,1,96,4|0,1:2|1:2,0:2:0:0:
123,134,23384,2,0,P|88:127|54:116,1,64,2|0,0:2|1:2,0:2:0:0:
0,183,23711,2,0,P|5:212|13:247,1,64,2|0,0:2|1:2,0:2:0:0:
94,292,24039,2,0,P|86:326|80:358,1,64,2|0,0:2|1:2,0:2:0:0:
80,354,24285,1,2,0:2:0:0:
80,354,24367,2,0,P|110:360|150:372,1,64,2|0,0:2|1:2,0:2:0:0:
229,346,24695,2,0,P|227:315|215:277,1,64,2|0,0:2|1:2,0:2:0:0:
298,239,25023,2,0,P|306:204|319:170,1,64,2|0,0:2|1:2,0:2:0:0:
242,120,25351,1,2,0:2:0:0:
242,120,25433,1,2,0:2:0:0:
242,120,25515,6,0,P|178:137|113:151,1,128,2|0,1:2|1:2,0:2:0:0:
44,221,26007,2,0,P|37:189|26:159,1,64,2|0,0:2|1:2,0:2:0:0:
38,73,26335,2,0,P|67:67|112:56,1,64,2|0,0:2|1:2,0:2:0:0:
174,0,26663,2,0,P|207:13|238:18,1,64,2|0,0:2|1:2,0:2:0:0:
323,78,26991,2,0,P|338:41|345:9,1,64,2|0,0:2|1:2,0:2:0:0:
225,122,27318,2,0,P|233:147|240:187,1,64,2|0,0:2|1:2,0:2:0:0:
317,238,27646,1,2,0:2:0:0:
391,189,27810,1,2,1:2:0:0:
317,238,27974,1,2,3:2:0:0:
369,298,28138,6,0,P|427:312|502:342,1,128,2|0,1:2|1:2,0:2:0:0:
490,336,28630,1,2,0:2:0:0:
284,335,28794,2,0,P|220:348|157:374,1,128,2|0,1:2|1:2,0:2:0:0:
0,200,29286,1,8,1:2:0:0:
0,200,29777,6,0,L|17:249,1,40,0|0,3:2|3:2,0:2:0:0:
193,289,30105,2,0,L|178:240,3,40,0|0|0|0,3:2|3:2|3:2|3:2,0:2:0:0:
100,228,30761,6,0,P|177:229|229:172,1,160,6|0,1:2|1:2,0:2:0:0:
162,41,31253,2,0,P|150:79|144:128,1,80,2|0,3:2|1:2,0:2:0:0:
332,174,31581,2,0,P|343:129|348:95,1,80,2|0,3:2|1:2,0:2:0:0:
270,36,31909,1,2,3:2:0:0:
270,36,31991,1,0,3:2:0:0:
270,36,32072,1,0,1:2:0:0:
347,95,32236,2,0,P|388:86|429:72,1,80,2|0,3:2|1:2,0:2:0:0:
243,177,32564,2,0,P|226:215|222:263,1,80,2|0,3:2|1:2,0:2:0:0:
377,359,32892,1,2,3:2:0:0:
377,359,32974,1,0,3:2:0:0:
377,359,33056,2,0,P|393:318|398:274,1,80,0|0,1:2|3:2,0:0:0:0:
207,336,33384,6,0,B|135:333|145:376|57:384,1,160,6|2,1:2|1:2,0:2:0:0:
0,224,33876,2,0,P|36:236|96:257,1,80,2|0,3:2|1:2,0:2:0:0:
184,123,34204,1,0,3:2:0:0:
184,123,34286,1,0,3:2:0:0:
184,123,34368,1,0,1:2:0:0:
68,109,34531,5,2,3:2:0:0:
151,202,34695,2,0,P|202:143|280:137,1,160,0|0,1:2|1:2,0:2:0:0:
356,190,35187,1,0,3:2:0:0:
279,317,35351,2,0,P|262:271|253:233,1,80,2|0,1:2|3:2,0:2:0:0:
445,178,35679,2,0,P|463:220|474:262,1,80,2|0,1:2|3:2,0:2:0:0:
472,252,35925,1,0,3:2:0:0:
472,252,36007,5,2,1:2:0:0:
409,340,36171,1,2,3:2:0:0:
254,240,36335,2,0,P|176:245|132:309,1,160,2|0,1:2|1:2,0:2:0:0:
166,384,36827,1,0,3:2:0:0:
214,327,36991,1,2,1:2:0:0:
72,212,37154,5,2,3:2:0:0:
72,212,37236,1,0,3:2:0:0:
72,212,37318,2,0,P|62:157|46:84,1,120,0|0,1:2|3:2,0:2:0:0:
48,94,37646,2,0,P|83:79|126:71,1,80,0|0,1:2|3:2,0:2:0:0:
326,174,37974,2,0,P|267:205|211:186,2,120,2|2|2,1:2|3:2|1:2,0:2:0:0:
265,41,38630,5,12,0:2:0:0:
456,118,38794,2,0,P|463:73|475:22,1,80,2|8,1:2|0:2,0:2:0:0:
326,174,39122,1,8,0:2:0:0:
441,318,39286,1,0,1:2:0:0:
512,235,39450,1,8,0:2:0:0:
408,196,39613,1,0,1:2:0:0:
321,323,39777,6,0,P|243:338|146:372,2,160,14|0|0,0:2|1:2|3:2,0:2:0:0:
324,330,40515,1,0,3:2:0:0:
327,336,40597,1,8,0:2:0:0:
413,368,40761,1,8,0:3:0:0:
466,297,40925,1,12,0:3:0:0:
390,235,41089,1,4,0:3:0:0:
167,269,41253,6,0,P|129:175|129:106,1,160,4|0,1:2|0:2,0:2:0:0:
357,135,41744,2,0,P|362:75|389:22,1,120,2|0,1:2|0:2,0:2:0:0:
389,22,42072,1,8,0:2:0:0:
256,159,42236,2,0,P|202:101|187:23,1,160,2|0,1:2|0:2,0:2:0:0:
177,253,42728,2,0,P|97:252|26:216,1,160,8|4,1:3|0:3,0:2:0:0:
26,216,43138,1,4,0:3:0:0:
26,216,43220,1,4,1:2:0:0:
401,272,43875,6,0,P|412:304|419:359,1,80,0|0,1:2|1:2,0:0:0:0:
243,384,44203,2,0,P|232:352|225:297,1,80,0|0,1:2|1:2,0:0:0:0:
296,192,44530,1,0,1:2:0:0:
199,129,44694,1,0,1:2:0:0:
356,0,44858,5,8,1:2:0:0:
232,38,45022,1,0,1:2:0:0:
232,38,45104,1,0,1:2:0:0:
232,38,45186,1,8,1:2:0:0:
406,136,45350,2,0,L|417:97,1,40,0|0,1:2|1:2,0:0:0:0:
323,71,45514,2,0,L|311:114,3,40,0|0|4|4,1:2|1:2|0:3|0:3,0:2:0:0:
330,205,45842,2,0,P|368:216|419:236,1,80,10|0,0:2|1:2,0:2:0:0:
174,119,46170,6,0,P|114:181|120:267,1,176.000005371094,14|0,0:2|1:2,0:2:0:0:
454,374,46661,2,0,P|499:309|486:210,1,176.000005371094,14|0,0:2|1:2,0:2:0:0:
320,150,47153,1,10,0:2:0:0:
489,216,47317,1,0,1:2:0:0:
264,382,47481,6,0,P|227:331|231:268,2,127.99999609375,12|4|8,0:2|1:3|1:3,0:2:0:0:
384,286,48136,2,0,L|339:296,3,46.6666666666667,2|2|2|2,0:2|0:2|0:2|0:2,0:2:0:0:
338,296,48956,5,2,1:2:0:0:
171,242,49120,2,0,L|157:191,1,40,8|0,0:1|0:2,0:2:0:0:
231,33,49448,6,0,P|258:117|282:212,1,176.000005371094,6|8,1:2|0:2,0:2:0:0:
92,384,49939,2,0,P|83:340|72:285,1,88.000002685547,2|0,0:2|1:2,0:2:0:0:
0,140,50267,2,0,P|41:153|92:168,1,88.000002685547,2|8,1:2|0:2,0:2:0:0:
302,298,50595,2,0,P|259:308|205:326,1,88.000002685547,2|0,1:2|0:2,0:2:0:0:
252,120,50923,1,2,1:2:0:0:
407,181,51087,2,0,P|467:110|453:26,1,176.000005371094,8|0,0:2|1:2,0:2:0:0:
376,75,51579,1,0,1:2:0:0:
512,197,51743,1,10,0:2:0:0:
464,266,51907,6,0,P|377:278|336:356,1,176.000005371094,2|0,0:2|0:2,0:2:0:0:
421,377,52398,1,10,0:2:0:0:
347,199,52562,1,2,0:2:0:0:
347,199,52644,1,0,3:2:0:0:
347,199,52726,1,0,1:2:0:0:
228,262,52890,2,0,P|183:258|136:245,1,88.000002685547,2|8,1:2|0:2,0:2:0:0:
228,69,53218,6,0,P|245:109|253:172,1,88.000002685547,2|0,1:2|0:2,0:2:0:0:
139,342,53546,1,2,1:2:0:0:
34,301,53710,2,0,P|7:220|0:124,1,176.000005371094,8|0,0:2|1:2,0:2:0:0:
0,130,54120,1,8,0:2:0:0:
0,130,54202,1,0,1:2:0:0:
167,174,54366,2,0,P|215:165|255:151,1,88.000002685547,10|2,0:2|1:2,0:2:0:0:
438,0,54693,6,0,P|375:57|374:143,1,176.000005371094,4|10,1:2|0:2,0:2:0:0:
512,294,55185,1,0,3:2:0:0:
512,294,55267,1,0,3:2:0:0:
512,294,55349,1,0,1:2:0:0:
479,161,55513,1,2,1:2:0:0:
352,307,55677,1,10,0:2:0:0:
231,262,55841,6,0,P|201:168|202:82,1,176.000005371094,2|0,1:2|1:2,0:2:0:0:
264,17,56333,1,10,0:2:0:0:
297,138,56497,1,2,0:2:0:0:
119,65,56661,2,0,P|69:72|16:93,1,88.000002685547,2|0,1:2|1:2,0:0:0:0:
33,84,56907,1,2,0:2:0:0:
33,84,56988,1,10,0:2:0:0:
142,244,57152,2,0,P|153:204|157:156,1,88.000002685547,2|0,0:2|1:2,0:2:0:0:
0,303,57480,5,14,0:2:0:0:
69,371,57644,2,0,P|163:354|250:347,1,176.000005371094,2|4,0:2|0:3,0:2:0:0:
347,250,58136,1,4,1:3:0:0:
243,347,58300,1,10,0:2:0:0:
179,158,58464,5,6,1:2:0:0:
179,158,58792,1,2,1:2:0:0:
73,282,58956,2,0,P|60:238|46:196,1,88.000002685547,8|2,0:2|0:2,0:2:0:0:
179,44,59284,2,0,L|240:61,3,44.0000013427735,8|8|8|8,0:2|0:2|0:2|0:2,0:0:0:0:
288,120,59611,2,0,P|318:89|323:42,1,88.000002685547,8|8,0:2|0:2,0:2:0:0:
321,38,59857,1,8,0:2:0:0:
317,32,59939,6,0,P|403:26|459:105,1,176.000005371094,6|10,1:2|0:2,0:2:0:0:
407,328,60431,1,2,0:2:0:0:
330,209,60595,1,2,1:2:0:0:
424,227,60759,2,0,P|469:210|515:204,1,88.000002685547,2|8,1:2|0:2,0:2:0:0:
311,341,61087,2,0,P|269:355|226:360,1,88.000002685547,2|0,1:2|0:2,0:2:0:0:
80,189,61415,1,2,1:2:0:0:
118,275,61579,2,0,P|182:218|187:133,1,176.000005371094,8|0,0:2|1:2,0:2:0:0:
165,54,62070,1,0,1:2:0:0:
313,157,62234,1,10,0:2:0:0:
363,85,62398,6,0,P|447:79|504:142,1,176.000005371094,2|0,0:2|0:2,0:2:0:0:
403,361,62890,1,10,0:2:0:0:
318,258,63054,1,2,0:2:0:0:
318,258,63136,1,0,3:2:0:0:
318,258,63218,1,0,1:2:0:0:
427,233,63382,2,0,P|468:246|514:252,1,88.000002685547,2|8,1:2|0:2,0:2:0:0:
224,384,63710,6,0,P|211:342|206:283,1,88.000002685547,2|0,1:2|0:2,0:2:0:0:
333,144,64038,1,2,1:2:0:0:
266,56,64202,2,0,P|171:75|144:155,1,176.000005371094,8|0,0:2|1:2,0:2:0:0:
143,141,64611,1,8,0:2:0:0:
143,141,64693,1,0,1:2:0:0:
230,143,64857,1,10,0:2:0:0:
91,42,65021,1,2,1:2:0:0:
21,128,65185,6,0,P|42:205|62:316,1,176.000005371094,6|10,1:2|0:2,0:2:0:0:
260,277,65677,1,2,3:2:0:0:
260,277,65759,1,0,3:2:0:0:
260,277,65841,1,0,1:2:0:0:
181,384,66005,2,0,P|167:342|160:288,1,88.000002685547,2|8,1:2|0:2,0:2:0:0:
274,138,66333,1,2,1:2:0:0:
354,197,66497,6,0,P|419:208|484:159,1,132.00000402832,2|2,0:2|0:2,0:2:0:0:
473,175,66825,1,8,0:2:0:0:
344,299,66988,2,0,P|357:341|367:392,1,88.000002685547,2|0,0:2|1:2,0:0:0:0:
402,117,67316,2,0,P|406:71|422:22,1,88.000002685547,2|10,1:2|0:2,0:0:0:0:
182,201,67644,2,0,P|144:194|95:176,1,88.000002685547,2|0,1:2|1:2,0:2:0:0:
230,45,67972,5,8,1:1:0:0:
367,208,68136,2,0,P|431:211|486:175,1,132.00000402832,8|0,1:1|1:2,0:2:0:0:
486,175,68464,2,0,P|495:213|505:264,1,88.000002685547,8|0,0:2|1:2,0:0:0:0:
319,384,68792,1,8,1:2:0:0:
193,299,68956,6,0,P|203:211|227:113,1,176.000005371094,6|12,1:2|0:2,0:0:0:0:
298,180,69447,1,0,1:2:0:0:
101,214,69611,2,0,P|106:164|121:124,1,88.000002685547,0|4,1:2|1:3,0:0:0:0:
246,35,69939,1,0,1:2:0:0:
246,35,70021,1,0,1:2:0:0:
246,35,70103,1,0,1:2:0:0:
402,141,70267,5,8,0:3:0:0:
402,141,70349,1,8,0:3:0:0:
402,140,70431,2,0,P|476:126|511:66,1,143.999995605469,4|0,1:2|0:2,0:2:0:0:
409,44,70923,1,0,1:2:0:0:
303,164,71087,1,10,0:2:0:0:
303,164,71251,2,0,P|313:200|323:249,1,71.9999978027344,2|0,0:2|0:2,0:2:0:0:
434,361,71579,2,0,P|451:271|480:204,2,143.999995605469,2|0|2,1:2|1:2|0:2,0:2:0:0:
326,309,72398,1,10,0:2:0:0:
254,358,72562,1,2,1:2:0:0:
191,303,72726,1,2,0:2:0:0:
129,364,72890,6,0,P|98:351|37:336,1,71.9999978027344,2|0,0:2|1:2,0:2:0:0:
0,221,73218,2,0,P|70:214|142:194,1,143.999995605469,2|2,0:2|1:2,0:2:0:0:
246,249,73710,2,0,P|258:214|265:169,1,71.9999978027344,8|2,0:2|1:2,0:0:0:0:
201,87,74038,1,2,0:2:0:0:
201,87,74202,1,2,1:2:0:0:
306,18,74366,6,0,P|340:27|375:36,1,71.9999978027344,2|0,0:2|1:2,0:2:0:0:
489,150,74693,2,0,P|442:163|373:184,1,107.999996704102,2|0,0:2|3:2,0:2:0:0:
385,180,75021,2,0,P|393:214|401:253,1,71.9999978027344,8|2,0:2|1:2,0:0:0:0:
500,381,75349,2,0,P|503:345|512:310,1,71.9999978027344,8|8,0:2|0:3,0:0:0:0:
264,226,75677,5,4,1:2:0:0:
184,334,75841,1,0,1:2:0:0:
64,280,76005,2,0,P|38:220|28:155,1,120,10|0,0:2|3:2,0:2:0:0:
28,166,76333,2,0,P|74:156|107:144,1,80,0|0,1:2|1:2,0:2:0:0:
264,226,76661,1,10,0:2:0:0:
364,189,76825,6,0,P|391:103|395:21,1,160,2|0,1:2|1:2,0:2:0:0:
298,0,77316,2,0,P|286:43|282:86,1,80,8|8,0:2|0:3,0:0:0:0:
282,78,77562,1,8,0:3:0:0:
282,78,77644,1,8,0:3:0:0:
481,127,77808,1,0,1:2:0:0:
481,127,77890,1,0,1:2:0:0:
481,127,77972,2,0,P|485:93|497:44,1,80,10|0,0:2|1:2,0:2:0:0:
224,178,78300,5,14,0:2:0:0:
299,334,78464,1,2,1:2:0:0:
181,287,78628,2,0,P|138:305|98:311,1,88.000002685547,10|0,0:2|1:2,0:2:0:0:
354,237,78956,2,0,P|398:244|437:263,1,88.000002685547,8|0,0:2|1:2,0:0:0:0:
282,1,79284,6,0,P|233:79|224:183,1,191.999994140625,12|2,0:2|3:2,0:2:0:0:
14,371,80267,2,0,P|7:347|1:324,1,47.9999985351563,2|2,3:2|0:2,0:2:0:0:
1,324,80923,6,0,P|42:309|91:301,1,80,6|0,1:2|0:2,0:2:0:0:
244,368,81251,1,8,0:2:0:0:
315,323,81415,2,0,P|328:282|336:236,1,80,2|0,0:2|1:2,0:2:0:0:
243,140,81743,1,0,1:2:0:0:
168,213,81907,1,10,0:2:0:0:
68,190,82070,6,0,P|29:120|29:41,1,160,2|0,1:2|1:2,0:2:0:0:
102,0,82562,1,10,0:2:0:0:
241,59,82726,2,0,B|325:49|305:14|396:-2,1,160,2|0,1:2|1:2,0:2:0:0:
466,38,83218,1,10,0:2:0:0:
419,175,83382,6,0,P|401:136|393:92,1,80,2|0,0:2|1:2,0:2:0:0:
245,232,83710,1,2,1:2:0:0:
245,232,83792,1,2,0:2:0:0:
245,232,83874,2,0,P|285:246|325:255,1,80,10|2,0:2|0:2,0:0:0:0:
408,384,84202,1,2,1:2:0:0:
509,322,84366,1,2,1:2:0:0:
434,259,84529,1,10,0:2:0:0:
284,345,84693,6,0,P|196:348|122:379,1,160,2|0,1:2|1:2,0:2:0:0:
54,327,85185,1,10,0:2:0:0:
125,202,85349,2,0,P|116:122|95:45,1,160,2|0,1:2|1:2,0:2:0:0:
15,108,85841,1,10,0:2:0:0:
212,136,86005,5,8,0:2:0:0:
212,136,86087,1,8,0:2:0:0:
212,136,86169,1,0,1:2:0:0:
268,26,86333,1,2,0:2:0:0:
268,26,86415,1,2,0:2:0:0:
268,26,86497,2,0,P|226:22|176:12,1,80,10|0,0:2|0:2,0:2:0:0:
341,243,86825,2,0,P|356:202|360:162,1,80,2|2,1:2|1:2,0:0:0:0:
291,107,87152,1,10,0:2:0:0:
428,62,87316,6,0,P|481:86|501:200,1,160,2|0,1:2|1:2,0:2:0:0:
451,257,87808,1,10,0:2:0:0:
253,194,87972,2,0,P|183:213|89:238,1,160,2|0,1:2|1:2,0:2:0:0:
185,311,88464,1,10,0:2:0:0:
289,99,88628,6,0,P|347:164|345:242,1,160,0|12,1:2|0:2,0:2:0:0:
458,373,89120,1,0,1:2:0:0:
458,373,89202,1,8,0:3:0:0:
458,373,89284,1,8,0:3:0:0:
458,373,89366,1,8,0:3:0:0:
458,373,89447,2,0,L|476:283,1,80,4|4,1:3|0:3,0:2:0:0:
435,101,89775,5,8,0:2:0:0:
361,153,89939,2,0,P|278:143|165:75,1,215.999993408203,4|0,1:2|0:2,0:2:0:0:
256,192,97316,12,0,99120,1:2:0:0:
68,131,100595,6,0,P|17:180|15:242,1,128,6|2,1:2|0:2,0:2:0:0:
61,310,101087,1,2,1:2:0:0:
180,313,101251,2,0,P|227:262|225:200,1,128,8|2,0:2|1:2,0:2:0:0:
304,79,101743,2,0,P|251:96|170:112,1,128,2|0,1:2|0:2,0:2:0:0:
126,174,102234,1,2,0:2:0:0:
126,174,102398,1,2,1:2:0:0:
227,206,102562,2,0,P|271:250|275:312,1,128,8|2,0:2|0:2,0:2:0:0:
213,358,103054,1,2,1:2:0:0:
342,372,103218,6,0,P|411:356|487:339,1,128,0|2,1:2|0:2,0:2:0:0:
489,200,103710,1,2,1:2:0:0:
413,227,103874,2,0,P|360:193|346:132,1,128,8|2,0:2|0:2,0:0:0:0:
434,0,104366,2,0,P|481:40|488:102,2,128,2|0|0,1:2|0:2|1:2,0:2:0:0:
346,132,105185,2,0,P|293:134|245:103,2,96,10|2|2,0:2|0:2|1:2,0:2:0:0:
325,25,105841,5,2,1:2:0:0:
325,25,106005,1,2,0:2:0:0:
205,36,106169,2,0,P|173:30|132:16,1,64,2|0,0:2|1:2,0:2:0:0:
59,191,106497,2,0,P|104:145|167:141,1,128,8|2,0:2|1:2,0:2:0:0:
270,250,106988,6,0,P|257:316|244:388,2,128,2|0|0,1:2|0:2|1:2,0:2:0:0:
164,140,107808,1,10,0:2:0:0:
107,234,107972,1,8,0:3:0:0:
107,234,108054,1,8,0:3:0:0:
107,234,108136,1,8,0:3:0:0:
161,294,108300,1,0,1:2:0:0:
273,164,108464,5,14,0:2:0:0:
273,164,108628,1,2,1:2:0:0:
365,249,108792,1,10,0:2:0:0:
464,228,108956,2,0,P|475:160|497:88,1,143.999995605469,8|4,0:2|1:3,0:2:0:0:
451,20,109447,1,2,0:2:0:0:
286,78,109611,6,0,P|211:66|132:43,2,143.999995605469,4|8|8,1:2|1:3|0:3,0:2:0:0:
292,71,110349,1,8,0:3:0:0:
299,64,110431,1,8,0:2:0:0:
368,122,110595,1,8,0:3:0:0:
422,50,110759,1,12,0:3:0:0:
357,0,110923,1,4,0:3:0:0:
281,159,111087,6,0,P|299:215|305:276,1,120,6|0,1:2|0:2,0:2:0:0:
305,275,111414,1,8,0:2:0:0:
466,213,111578,2,0,P|439:288|429:367,1,160,2|0,1:2|1:2,0:2:0:0:
219,378,112070,2,0,P|202:300|169:228,1,160,12|0,0:2|0:2,0:2:0:0:
0,347,112562,2,0,P|10:264|47:180,1,160,8|4,0:3|0:3,0:2:0:0:
38,193,112972,1,4,0:3:0:0:
38,193,113054,1,4,1:2:0:0:
349,384,113709,6,0,P|358:345|364:300,1,80,0|0,1:2|1:2,0:0:0:0:
184,238,114037,2,0,P|171:274|167:319,1,80,0|0,1:2|1:2,0:0:0:0:
252,345,114364,1,0,1:2:0:0:
300,264,114528,1,0,1:2:0:0:
243,149,114692,1,8,1:2:0:0:
367,69,114856,1,0,1:2:0:0:
367,69,114938,1,0,1:2:0:0:
367,69,115020,2,0,P|376:109|383:155,1,80,0|8,1:2|1:3,0:0:0:0:
212,46,115348,5,0,1:2:0:0:
111,180,115512,1,0,1:2:0:0:
111,180,115594,1,0,1:2:0:0:
111,180,115676,2,0,P|99:147|92:100,1,80,0|0,1:2|1:2,0:0:0:0:
366,293,116004,6,0,P|436:247|513:284,1,160,14|0,0:2|1:2,0:2:0:0:
186,342,116495,2,0,P|98:331|59:265,1,160,12|0,0:2|1:2,0:2:0:0:
172,148,116987,1,8,0:2:0:0:
61,276,117151,1,0,1:2:0:0:
0,72,117315,6,0,P|53:55|121:88,2,127.99999609375,12|4|8,0:2|1:3|1:3,0:2:0:0:
176,281,117970,2,0,L|189:225,3,55.9999982910157,2|2|2|2,0:2|0:2|0:2|0:2,0:2:0:0:
188,226,118790,5,0,1:2:0:0:
36,141,118954,2,0,L|46:196,1,47.9999985351563,8|0,0:1|0:2,0:2:0:0:
286,270,119282,6,0,P|368:238|473:215,1,176.000005371094,6|8,1:2|0:2,0:2:0:0:
469,384,119773,2,0,P|428:365|362:346,1,88.000002685547,2|0,0:2|1:2,0:2:0:0:
425,134,120101,2,0,P|438:171|453:217,1,88.000002685547,2|8,1:2|0:2,0:2:0:0:
200,267,120429,2,0,P|212:219|221:172,1,88.000002685547,2|0,1:2|0:2,0:2:0:0:
386,21,120757,1,2,1:2:0:0:
351,121,120921,2,0,P|266:111|222:39,1,176.000005371094,8|0,0:2|1:2,0:2:0:0:
302,35,121413,1,0,1:2:0:0:
219,181,121577,1,10,0:2:0:0:
129,148,121741,6,0,P|49:176|25:258,1,176.000005371094,2|0,0:2|0:2,0:2:0:0:
247,346,122232,1,10,0:2:0:0:
149,244,122396,1,2,0:2:0:0:
149,244,122478,1,0,3:2:0:0:
149,244,122560,1,2,1:2:0:0:
95,377,122724,1,2,1:2:0:0:
24,257,122888,1,10,0:2:0:0:
176,138,123052,6,0,P|222:152|266:162,1,88.000002685547,2|0,1:2|0:2,0:2:0:0:
381,313,123380,1,2,1:2:0:0:
484,277,123544,2,0,P|512:181|512:98,1,176.000005371094,8|0,0:2|1:2,0:2:0:0:
512,105,123954,1,8,0:2:0:0:
512,105,124036,1,0,1:2:0:0:
405,0,124200,2,0,P|388:47|388:98,1,88.000002685547,10|2,0:2|1:2,0:2:0:0:
410,243,124527,6,0,P|343:188|259:200,1,176.000005371094,4|10,1:2|0:2,0:2:0:0:
174,352,125019,1,0,3:2:0:0:
174,352,125101,1,0,3:2:0:0:
174,352,125183,1,2,1:2:0:0:
277,328,125347,1,2,1:2:0:0:
168,222,125511,1,10,0:2:0:0:
80,280,125675,6,0,P|23:216|33:131,1,176.000005371094,2|0,1:2|1:2,0:2:0:0:
113,70,126167,1,10,0:2:0:0:
223,133,126331,1,2,3:2:0:0:
223,133,126413,1,0,3:2:0:0:
223,133,126495,1,0,1:2:0:0:
303,86,126659,2,0,P|315:42|318:-10,1,88.000002685547,2|8,1:2|0:2,0:2:0:0:
137,163,126986,2,0,P|153:203|163:246,1,88.000002685547,2|0,0:2|1:2,0:2:0:0:
381,368,127314,5,14,0:2:0:0:
391,286,127478,2,0,P|349:279|308:299,1,88.000002685547,2|8,0:2|0:3,0:0:0:0:
302,305,127724,1,8,0:3:0:0:
297,313,127806,1,8,1:3:0:0:
237,378,127970,1,4,1:3:0:0:
159,331,128134,1,10,0:2:0:0:
271,190,128298,1,4,1:2:0:0:
271,190,128626,5,2,1:2:0:0:
167,55,128790,2,0,P|151:102|146:150,1,88.000002685547,8|2,0:2|0:2,0:2:0:0:
375,246,129118,2,0,L|386:194,3,44.0000013427735,8|8|8|8,0:2|0:2|0:2|0:2,0:0:0:0:
335,78,129445,1,8,0:2:0:0:
335,78,129527,1,8,0:2:0:0:
335,78,129609,2,8,P|328:103|324:130,1,44.0000013427735,8|8,0:2|0:2,0:2:0:0:
271,190,129773,6,0,P|354:162|441:149,1,176.000005371094,6|8,1:2|0:2,0:2:0:0:
453,371,130265,1,2,0:2:0:0:
368,316,130429,1,2,1:2:0:0:
494,225,130593,2,0,P|503:253|513:318,1,88.000002685547,2|8,1:2|0:2,0:2:0:0:
258,384,130921,6,0,P|245:340|240:288,1,88.000002685547,2|0,1:2|0:2,0:2:0:0:
344,176,131249,1,2,1:2:0:0:
256,76,131413,2,0,P|171:81|125:153,1,176.000005371094,8|0,0:2|1:2,0:2:0:0:
207,166,131904,1,0,1:2:0:0:
80,53,132068,1,10,0:2:0:0:
15,135,132232,6,0,P|35:217|52:319,1,176.000005371094,2|0,0:2|0:2,0:2:0:0:
277,280,132724,1,10,0:2:0:0:
196,377,132888,1,2,3:2:0:0:
196,377,132970,1,0,3:2:0:0:
196,377,133052,1,2,1:2:0:0:
155,265,133216,2,0,P|168:223|177:174,1,88.000002685547,2|8,1:2|0:2,0:2:0:0:
349,348,133544,6,0,P|389:356|439:376,1,88.000002685547,2|0,1:2|0:2,0:2:0:0:
429,196,133872,1,2,1:2:0:0:
336,240,134036,2,0,P|293:189|297:116,1,132.00000402832,8|0,0:2|0:2,0:2:0:0:
293,124,134363,2,0,P|313:120|354:112,3,44.0000013427735,0|0|8|8,1:2|1:2|0:2|0:2,0:0:0:0:
340,28,134691,2,0,P|381:42|424:50,1,88.000002685547,4|8,1:3|0:3,0:2:0:0:
503,37,134937,1,8,0:3:0:0:
501,26,135019,6,0,P|433:77|433:162,1,176.000005371094,6|8,1:2|0:2,0:2:0:0:
512,318,135511,1,2,3:2:0:0:
512,318,135593,1,0,3:2:0:0:
512,318,135675,1,0,1:2:0:0:
402,279,135839,2,0,P|360:288|318:303,1,88.000002685547,2|8,1:2|0:2,0:2:0:0:
124,224,136167,1,2,1:2:0:0:
128,384,136331,6,0,P|184:353|202:291,1,132.00000402832,2|2,0:2|0:2,0:2:0:0:
202,291,136659,1,8,0:2:0:0:
32,227,136822,2,0,P|44:269|48:312,1,88.000002685547,2|0,3:2|1:2,0:0:0:0:
222,207,137150,1,8,0:3:0:0:
206,121,137314,1,2,1:2:0:0:
120,112,137478,2,0,P|107:67|103:22,1,88.000002685547,4|4,0:3|1:3,0:0:0:0:
344,130,137806,5,12,1:1:0:0:
248,289,137970,2,0,P|204:298|163:315,1,88.000002685547,12|0,1:1|3:2,0:2:0:0:
156,321,138216,1,0,3:2:0:0:
148,324,138298,2,0,P|137:281|114:233,1,88.000002685547,8|0,1:2|1:2,0:2:0:0:
252,120,138626,1,10,1:2:0:0:
329,208,138790,6,0,P|411:211|454:169,1,132.00000402832,2|0,1:2|0:2,0:2:0:0:
446,181,139118,2,0,P|434:138|427:95,1,88.000002685547,10|0,0:2|1:2,0:2:0:0:
304,300,139445,2,0,P|286:343|280:390,1,88.000002685547,8|0,0:3|1:2,0:2:0:0:
221,178,139773,1,4,0:3:0:0:
217,181,139937,2,0,P|174:172|133:156,1,88.000002685547,4|4,0:3|0:3,0:2:0:0:
0,295,140265,6,0,L|33:106,1,167.999994873047,4|4,1:2|1:3,0:2:0:0:
129,280,140921,2,0,L|315:311,1,167.999994873047,8|0,0:2|0:2,0:2:0:0:
294,307,141741,1,4,1:3:0:0:
307,171,141904,2,0,L|245:163,1,55.9999982910157,4|0,1:3|0:2,0:2:0:0:
400,373,142232,2,0,L|420:200,1,167.999994873047,8|0,0:2|0:2,0:2:0:0:
199,79,142888,6,0,L|231:243,1,167.999994873047,4|4,1:3|1:3,0:2:0:0:
29,379,143544,2,0,L|196:335,1,167.999994873047,8|0,0:2|0:2,0:2:0:0:
191,336,144363,1,4,1:3:0:0:
82,254,144527,2,0,L|69:197,1,55.9999982910157,4|0,1:3|0:2,0:2:0:0:
271,279,144855,2,0,L|404:315,1,111.999996582031,8|0,0:2|0:2,0:2:0:0:
379,308,145347,1,4,1:3:0:0:
512,137,145511,6,0,L|344:181,1,167.999994873047,4|4,1:3|1:3,0:2:0:0:
189,68,146167,2,0,L|225:233,1,167.999994873047,8|0,0:2|0:2,0:2:0:0:
224,232,146986,1,4,1:3:0:0:
340,354,147150,2,0,L|354:294,1,55.9999982910157,4|0,1:3|0:2,0:2:0:0:
168,311,147478,2,0,L|-8:360,1,167.999994873047,8|0,0:2|0:2,0:2:0:0:
6,356,148134,1,4,1:3:0:0:
6,356,148626,1,4,1:3:0:0:
75,207,148790,2,0,L|182:239,1,111.999996582031,8|0,0:2|0:2,0:2:0:0:
182,239,149281,1,4,1:3:0:0:
288,141,149445,2,0,B|276:92|276:92|262:65|262:65|251:22,1,111.999996582031,4|0,1:3|0:2,0:2:0:0:
254,34,149937,1,4,1:3:0:0:
38,109,150101,6,2,B|11:119|11:119|82:146|82:146|163:121|163:121|170:111,2,192,8|8|8,1:3|1:3|1:3,0:1:0:0:
45,100,150675,1,0,1:2:0:0:
53,91,150757,6,0,L|83:248,1,160,4|2,1:2|0:3,0:2:0:0:
28,369,151249,2,0,B|7:361|7:361|-2:292,1,80,6|8,1:3|0:2,0:2:0:0:
194,227,151577,2,0,B|176:241|176:241|167:310,1,80,2|0,0:3|0:2,0:2:0:0:
298,383,151904,2,0,B|331:343|331:343|447:322,1,160,2|6,0:3|1:3,0:2:0:0:
505,231,152396,2,0,B|486:210|486:210|428:208,1,80,4|0,1:3|0:2,0:2:0:0:
278,104,152724,2,0,B|262:150|262:150|309:209|309:209|319:254,1,160,8|0,0:2|0:2,0:2:0:0:
316,244,153216,1,6,1:3:0:0:
165,384,153380,6,0,B|130:347|130:347|165:217,1,160,4|2,1:3|0:3,0:2:0:0:
158,241,153872,1,4,1:3:0:0:
13,114,154036,2,0,B|32:135|32:135|44:197,1,80,8|0,0:2|0:2,0:2:0:0:
41,185,154363,1,2,0:3:0:0:
160,95,154527,2,0,B|219:105|219:105|287:61|287:61|341:56,1,160,6|4,1:3|1:3,0:2:0:0:
416,205,155019,2,0,B|389:206|389:206|336:164,1,80,4|0,1:3|0:2,0:2:0:0:
469,37,155347,2,0,B|500:63|500:63|488:87|488:87|509:201,1,160,8|0,0:2|0:2,0:2:0:0:
504,177,155839,1,6,1:3:0:0:
402,291,156003,6,0,B|353:281|353:281|246:333,1,160,4|2,1:3|0:3,0:2:0:0:
254,329,156495,1,6,1:3:0:0:
150,276,156659,2,0,B|132:254|132:254|134:203,1,80,8|2,0:2|0:3,0:2:0:0:
134,203,156986,1,2,0:3:0:0:
218,52,157150,6,0,B|235:82|235:82|306:109,1,103.999995239258,6|0,1:3|0:2,0:2:0:0:
298,207,157478,2,0,B|329:213|329:213|391:169,1,88.000002685547,6|4,1:3|1:3,0:2:0:0:
481,217,157806,2,0,B|487:195|487:195|455:138,1,71.9999978027344,2|8,3:3|0:2,0:2:0:0:
509,63,158134,2,0,B|495:56|495:56|432:64,1,55.9999982910157,2|0,3:3|0:2,0:2:0:0:
343,0,158462,6,0,B|353:10|353:10|366:64,1,55.9999982910157,6|0,1:3|0:2,0:2:0:0:
237,162,158790,2,0,B|211:169,3,18.6666660970052,2|0|0|0,3:3|3:2|3:2|3:2,0:2:0:0:
140,127,159118,2,0,B|126:116|126:116|123:73,1,55.9999982910157,6|8,1:3|0:2,0:2:0:0:
247,0,159445,2,0,L|244:14,6,9.33333304850261,2|0|0|0|0|0|0,3:3|0:2|0:2|0:2|0:2|0:2|0:2,0:2:0:0:
351,145,159773,2,0,B|379:147|379:147|458:178,1,111.999996582031,6|0,1:3|0:2,0:2:0:0:
512,105,160265,2,0,L|509:90,12,9.33333304850261,2|0|0|0|0|0|0|0|0|0|0|0|0,0:3|0:2|0:2|0:2|0:2|0:2|0:2|0:2|0:2|0:2|0:2|0:2|0:2,0:2:0:0:
432,15,160757,2,0,L|428:23,3,9.33333304850261,0|0|0|0,3:2|0:2|0:2|0:2,0:2:0:0:
351,59,160921,2,2,L|342:33,3,27.9999991455078,2|2|2|2,0:1|0:1|0:1|0:1,0:1:0:0:
422,126,161249,6,0,L|266:173,1,160,4|0,1:1|1:2,0:2:0:0:
163,127,161741,2,0,L|143:49,1,80,2|0,0:3|1:3,0:3:0:0:
28,159,162068,2,0,L|9:81,1,80,2|0,0:3|1:3,0:3:0:0:
140,218,162396,5,2,0:3:0:0:
140,218,162478,1,0,0:3:0:0:
140,218,162560,1,0,1:3:0:0:
101,311,162724,2,0,L|15:336,1,80,2|0,0:3|1:3,0:3:0:0:
210,303,163052,2,0,L|296:325,1,80,2|0,0:3|1:3,0:3:0:0:
389,238,163380,1,2,0:3:0:0:
341,181,163544,2,0,L|356:102,1,80,0|2,1:3|0:3,0:0:0:0:
355,102,163790,1,0,0:3:0:0:
355,102,163872,6,0,L|521:132,1,160,2|2,1:3|1:3,0:3:0:0:
512,0,164363,1,2,0:3:0:0:
512,0,164445,1,0,0:3:0:0:
512,0,164527,2,0,L|434:18,1,80,2|0,1:3|0:3,0:3:0:0:
272,153,164855,1,2,1:3:0:0:
198,110,165019,6,0,L|182:22,1,80,2|0,0:3|1:3,0:3:0:0:
373,155,165347,1,2,0:3:0:0:
373,155,165429,1,0,0:3:0:0:
373,155,165511,1,0,1:3:0:0:
340,232,165675,2,0,L|258:254,1,80,2|8,0:3|1:3,0:3:0:0:
172,200,166003,1,2,0:3:0:0:
172,200,166085,1,0,0:3:0:0:
172,200,166167,1,0,1:3:0:0:
96,267,166331,1,2,0:3:0:0:
25,184,166495,6,0,L|-2:59,1,120,6|2,1:3|0:3,0:3:0:0:
0,66,166822,2,0,L|77:48,1,80,0|2,1:3|0:3,0:0:0:0:
303,0,167150,2,0,L|275:131,1,120,2|2,1:3|0:3,0:3:0:0:
277,117,167478,2,0,L|198:102,1,80,0|2,1:3|0:3,0:0:0:0:
139,160,167724,1,0,0:3:0:0:
139,160,167806,6,0,L|160:280,1,120,2|2,1:3|0:3,0:3:0:0:
159,278,168134,2,0,L|236:257,1,80,0|0,1:3|0:3,0:3:0:0:
380,141,168462,2,0,L|468:161,1,80,2|8,1:3|0:3,0:0:0:0:
512,224,168708,1,10,0:3:0:0:
512,224,168790,2,0,L|496:311,1,80,0|2,1:3|1:3,0:0:0:0:
377,379,169118,5,8,1:2:0:0:
321,281,169281,1,0,1:3:0:0:
321,281,169363,1,2,1:3:0:0:
321,281,169445,1,8,0:2:0:0:
413,298,169609,1,8,1:2:0:0:
270,384,169773,1,2,1:3:0:0:
198,326,169937,1,8,0:3:0:0:
198,326,170019,1,10,0:3:0:0:
198,326,170101,1,0,1:3:0:0:
227,236,170265,6,0,L|196:65,1,160,4|0,1:2|1:2,0:0:0:0:
117,45,170757,1,0,1:2:0:0:
206,86,170921,2,0,L|374:51,1,160,10|2,0:2|0:2,0:2:0:0:
362,53,171331,1,8,0:3:0:0:
362,53,171413,2,0,L|382:146,1,80,8|4,0:3|3:3,0:0:0:0:
512,205,171741,6,0,P|434:204|381:261,1,160,4|0,1:2|1:2,0:2:0:0:
475,373,172232,1,2,0:2:0:0:
475,373,172314,1,2,0:2:0:0:
475,373,172396,2,0,L|484:314,3,40,2|2|2|2,1:2|0:2|0:2|0:2,0:2:0:0:
381,260,172724,2,0,L|367:345,1,80,2|0,1:2|0:2,0:2:0:0:
148,354,173052,6,0,B|107:301|107:301|10:316,2,138.666660319011,10|2|12,0:2|1:2|0:0,0:2:0:0:
148,354,173708,1,10,1:1:0:0:
218,170,173872,2,0,B|175:159|175:159|116:203,1,111.999996582031,10|0,1:1|0:0,0:2:0:0:
120,199,174363,1,10,1:1:0:0:
274,339,174527,2,2,B|317:293|317:293|240:157|240:157|270:77,1,279.999991455078,10|0,1:1|0:2,0:3:0:0:
261,99,175675,6,0,P|339:132|416:95,1,176.000005371094,6|8,1:2|0:2,0:2:0:0:
210,0,176167,2,0,L|125:23,1,88.000002685547,2|0,0:2|1:2,0:2:0:0:
201,271,176495,2,0,L|223:185,1,88.000002685547,2|8,1:2|0:2,0:2:0:0:
0,87,176822,2,0,L|28:179,1,88.000002685547,2|0,1:2|0:2,0:2:0:0:
92,359,177150,1,2,1:2:0:0:
125,265,177314,2,0,P|40:269|-4:347,1,176.000005371094,8|0,0:2|1:2,0:2:0:0:
189,345,177806,1,0,1:2:0:0:
166,160,177970,1,10,0:2:0:0:
260,207,178134,6,0,P|357:182|392:112,1,176.000005371094,2|0,0:2|0:2,0:2:0:0:
213,0,178626,1,10,0:2:0:0:
287,109,178790,1,2,0:2:0:0:
287,109,178872,1,0,3:2:0:0:
287,109,178954,1,0,1:2:0:0:
351,23,179118,2,0,P|396:15|453:-9,1,88.000002685547,2|8,1:2|0:2,0:2:0:0:
177,210,179445,6,0,P|133:218|93:238,1,88.000002685547,2|0,1:2|0:2,0:2:0:0:
173,71,179773,1,2,1:2:0:0:
305,176,179937,2,0,P|339:260|348:367,1,176.000005371094,8|0,0:2|1:2,0:2:0:0:
348,344,180347,1,8,0:2:0:0:
348,344,180429,1,0,1:2:0:0:
220,384,180593,2,0,P|207:341|200:292,1,88.000002685547,10|2,0:2|1:2,0:2:0:0:
386,126,180921,6,0,P|469:144|511:218,1,176.000005371094,4|10,1:2|0:2,0:2:0:0:
492,370,181413,1,0,3:2:0:0:
492,370,181495,1,0,3:2:0:0:
492,370,181577,1,0,1:2:0:0:
379,279,181741,1,2,1:2:0:0:
512,219,181904,1,10,0:2:0:0:
386,126,182068,6,0,P|302:149|217:172,1,176.000005371094,2|0,1:2|1:2,0:2:0:0:
94,324,182560,1,10,0:2:0:0:
207,282,182724,1,2,0:2:0:0:
120,133,182888,2,0,P|103:173|95:216,1,88.000002685547,2|0,1:2|1:2,0:0:0:0:
94,216,183134,1,2,0:2:0:0:
94,216,183216,1,8,0:2:0:0:
301,302,183380,2,0,P|317:261|325:218,1,88.000002685547,2|0,0:2|1:2,0:2:0:0:
229,6,183708,5,12,0:2:0:0:
282,86,183872,2,0,P|323:99|376:110,1,88.000002685547,2|8,0:2|0:3,0:0:0:0:
366,108,184118,1,8,0:3:0:0:
366,108,184200,2,0,P|382:67|385:23,1,88.000002685547,8|4,0:3|1:3,0:0:0:0:
218,160,184527,1,10,0:2:0:0:
387,286,184691,1,4,1:2:0:0:
387,286,185019,5,2,1:2:0:0:
279,369,185183,2,0,P|236:357|193:348,1,88.000002685547,8|2,0:2|0:2,0:2:0:0:
93,127,185511,2,0,L|162:151,3,44.0000013427735,8|8|8|8,0:2|0:2|0:2|0:2,0:0:0:0:
96,308,185839,1,8,0:2:0:0:
96,308,185921,1,8,0:2:0:0:
96,308,186003,2,8,L|35:291,1,44.0000013427735,8|8,0:2|0:2,0:2:0:0:
26,206,186167,6,0,B|114:201|106:245|194:249,1,176.000005371094,6|8,1:2|0:2,0:2:0:0:
395,113,186659,1,2,0:2:0:0:
292,72,186822,1,2,1:2:0:0:
287,187,186986,2,0,P|299:217|316:284,1,88.000002685547,2|8,1:2|0:2,0:2:0:0:
489,377,187314,6,0,P|498:332|519:277,1,88.000002685547,2|0,1:2|0:2,0:2:0:0:
402,195,187642,1,2,1:2:0:0:
313,270,187806,2,0,P|228:277|166:218,1,176.000005371094,8|0,0:2|1:2,0:2:0:0:
246,197,188298,1,0,1:2:0:0:
166,345,188462,1,10,0:2:0:0:
60,307,188626,6,0,P|30:227|30:126,1,176.000005371094,2|0,0:2|0:2,0:2:0:0:
150,2,189118,1,10,0:2:0:0:
224,114,189281,1,2,0:2:0:0:
224,114,189363,1,0,3:2:0:0:
224,114,189445,1,0,1:2:0:0:
324,83,189609,2,0,P|342:41|348:-17,1,88.000002685547,2|8,1:2|0:2,0:2:0:0:
111,108,189937,6,0,P|75:122|17:140,1,88.000002685547,2|0,1:2|0:2,0:2:0:0:
133,380,190265,1,2,1:2:0:0:
220,332,190429,2,0,P|200:248|125:209,1,176.000005371094,8|0,0:2|1:2,0:2:0:0:
125,209,190839,1,8,0:2:0:0:
125,209,190921,1,0,1:2:0:0:
104,293,191085,1,10,1:2:0:0:
251,177,191249,1,2,1:2:0:0:
334,236,191413,6,0,P|427:244|491:193,1,176.000005371094,6|10,1:2|0:2,0:2:0:0:
302,62,191904,1,2,3:2:0:0:
302,62,191986,1,0,3:2:0:0:
302,62,192068,1,0,1:2:0:0:
407,20,192232,2,0,P|396:64|389:105,1,88.000002685547,2|8,1:2|0:2,0:2:0:0:
242,225,192560,1,2,1:2:0:0:
155,161,192724,6,0,P|119:108|133:37,1,132.00000402832,2|2,0:2|0:2,0:2:0:0:
128,43,193052,1,8,0:2:0:0:
86,219,193216,2,0,P|47:231|-3:237,1,88.000002685547,2|0,0:2|1:2,0:0:0:0:
28,135,193544,1,2,1:2:0:0:
165,273,193708,1,10,0:2:0:0:
279,136,193872,1,2,1:2:0:0:
279,136,194200,5,12,1:1:0:0:
412,344,194363,2,0,P|423:294|431:251,1,88.000002685547,8|0,1:1|1:2,0:0:0:0:
429,257,194609,1,0,1:2:0:0:
429,257,194691,2,0,P|391:247|338:231,1,88.000002685547,8|0,0:2|1:2,0:2:0:0:
73,316,195019,1,8,0:2:0:0:
140,381,195183,6,0,P|191:305|182:218,1,176.000005371094,4|8,1:2|0:2,0:2:0:0:
60,91,195675,1,0,1:2:0:0:
5,156,195839,2,0,P|21:196|35:238,1,88.000002685547,0|8,1:2|0:3,0:2:0:0:
178,93,196167,2,0,L|159:40,2,44.0000013427735,4|4|4,0:3|0:3|0:3,0:0:0:0:
129,177,196495,5,8,0:3:0:0:
129,177,196577,1,8,0:3:0:0:
129,177,196659,2,0,P|188:127|265:138,1,160,4|0,1:2|0:2,0:2:0:0:
339,184,197150,1,0,1:2:0:0:
392,39,197314,1,10,0:2:0:0:
392,39,197478,2,0,L|412:116,1,80,2|0,0:2|0:2,0:2:0:0:
481,278,197806,2,0,P|496:190|512:119,2,160,2|0|2,1:2|1:2|0:2,0:2:0:0:
383,376,198626,1,10,0:2:0:0:
287,257,198790,1,2,1:2:0:0:
376,278,198954,1,2,0:2:0:0:
261,367,199118,6,0,P|218:350|139:340,1,120,2|2,0:2|0:2,0:2:0:0:
145,339,199445,2,0,P|149:295|160:254,1,80,2|0,0:2|0:2,0:2:0:0:
129,137,199773,2,0,P|166:144|206:156,1,80,2|8,1:2|0:2,0:2:0:0:
371,132,200101,1,0,1:2:0:0:
386,56,200265,1,2,0:2:0:0:
288,35,200429,1,4,1:2:0:0:
285,158,200593,6,0,L|301:236,1,80,2|0,0:2|1:2,0:2:0:0:
444,380,200921,2,0,L|480:235,1,120,2|2,0:2|3:2,0:2:0:0:
472,263,201249,2,0,L|393:245,1,80,8|2,0:2|1:2,0:0:0:0:
300,356,201577,2,0,L|220:375,1,80,8|8,0:2|0:3,0:0:0:0:
124,176,201904,5,4,1:2:0:0:
211,240,202068,1,0,1:2:0:0:
38,360,202232,2,0,P|13:305|0:247,1,120,10|0,0:2|3:2,0:2:0:0:
0,247,202560,2,0,P|14:207|23:159,1,80,0|0,1:2|1:2,0:2:0:0:
173,326,202888,1,10,0:2:0:0:
278,295,203052,6,0,P|309:238|282:134,1,160,2|0,1:2|1:2,0:2:0:0:
234,82,203544,1,8,0:2:0:0:
182,207,203708,2,0,P|144:218|102:222,1,80,2|0,1:2|0:2,0:2:0:0:
386,272,204036,1,0,1:2:0:0:
386,272,204118,1,2,1:2:0:0:
386,272,204200,2,0,P|416:262|472:257,1,80,8|0,0:2|1:2,0:0:0:0:
372,61,204527,5,14,0:2:0:0:
279,215,204691,1,2,1:2:0:0:
168,121,204855,2,0,P|158:77|144:41,1,80,10|0,0:2|1:2,0:2:0:0:
418,183,205183,2,0,P|438:142|459:106,1,80,8|0,0:2|1:2,0:0:0:0:
160,322,205511,6,0,P|48:264|29:144,1,256,12|2,0:2|3:2,0:2:0:0:
267,19,206495,1,2,3:2:0:0:
267,19,206659,2,0,P|345:85|343:173,1,192,2|6,0:2|0:2,0:2:0:0:
256,192,207232,12,0,211904,0:2:0:0:
