osu file format v14

[General]
AudioFilename: audio.mp3
AudioLeadIn: 0
PreviewTime: 54136
Countdown: 0
SampleSet: Soft
StackLeniency: 0.7
Mode: 0
LetterboxInBreaks: 0
WidescreenStoryboard: 1

[Editor]
DistanceSpacing: 1
BeatDivisor: 2
GridSize: 8
TimelineZoom: 1

[Metadata]
Title:Avant
TitleUnicode:アヴァン
Artist:Eve
ArtistUnicode:Eve
Creator:melleganol
Version:Normal
Source:呪術廻戦 ファントムパレード
Tags:jujutsu kaisen phantom parade theme op opening video game japanese male vocals vocalist rock jrock j-rock pop jpop j-pop mobile ファンパレ phanpara
BeatmapID:3509310
BeatmapSetID:1717276

[Difficulty]
HPDrainRate:4
CircleSize:3.4
OverallDifficulty:4
ApproachRate:5.5
SliderMultiplier:0.999999999999999
SliderTickRate:1

[Events]
//Background and Video events
0,0,"1144135.jpg",0,0
Video,-774,"Avant Video.m4v"
//Break Periods
//Storyboard Layer 0 (Background)
//Storyboard Layer 1 (Fail)
//Storyboard Layer 2 (Pass)
//Storyboard Layer 3 (Foreground)
//Storyboard Layer 4 (Overlay)
//Storyboard Sound Samples

[TimingPoints]
346,322.58064516129,4,2,77,60,1,0
346,-111.111111111111,4,2,77,60,0,0
10668,-100,4,2,77,70,0,0
23571,-111.111111111111,4,2,77,60,0,0
33894,-100,4,2,77,70,0,0
44216,-111.111111111111,4,2,77,60,0,0
49378,-100,4,2,77,70,0,0
54539,-90.9090909090909,4,2,77,80,0,1
75184,-100,4,2,77,70,0,0
76152,-250,4,2,77,70,0,0
79055,-1000,4,2,77,5,0,0

[Colours]
Combo1 : 149,255,173
Combo2 : 184,149,255
Combo3 : 255,221,149
Combo4 : 149,197,255

[HitObjects]
0,26,346,6,0,B|35:35|35:35|52:58|52:58|91:68,1,89.999997253418,2|2,3:2|3:2,0:0:0:0:
164,35,991,1,2,3:2:0:0:
164,35,1152,2,0,L|220:16,1,44.999998626709,2|2,2:0|3:2,0:0:0:0:
251,6,1475,1,2,2:0:0:0:
251,6,1636,2,0,L|354:28,1,89.999997253418,0|2,3:0|3:2,0:0:0:0:
426,4,2281,1,2,3:2:0:0:
498,58,2604,1,2,3:2:0:0:
461,139,2926,6,0,L|482:235,1,89.999997253418,2|2,3:2|3:2,0:0:0:0:
505,318,3571,1,2,3:2:0:0:
505,318,3733,2,0,L|488:380,1,44.999998626709,2|2,2:0|3:2,0:0:0:0:
457,384,4055,1,2,2:0:0:0:
457,384,4216,2,0,L|363:361,1,89.999997253418,2|2,3:2|3:2,0:0:0:0:
280,377,4862,1,2,3:2:0:0:
194,350,5184,1,2,3:2:0:0:
104,344,5507,6,0,L|85:273,1,44.999998626709,2|0,3:2|0:0,0:0:0:0:
76,258,5829,2,0,P|89:214|136:191,1,89.999997253418,2|0,3:2|3:0,0:0:0:0:
172,182,6313,1,2,2:0:0:0:
172,182,6475,2,0,B|212:186|221:215|271:209,1,89.999997253418,2|0,3:2|3:0,0:0:0:0:
345,226,7120,2,0,P|339:182|306:139,1,89.999997253418,2|0,3:2|3:2,0:0:0:0:
280,122,7604,1,2,2:0:0:0:
280,122,7765,2,0,L|185:98,1,89.999997253418,2|0,3:2|3:0,0:0:0:0:
112,59,8410,2,0,P|66:73|45:121,1,89.999997253418,2|0,3:2|3:0,0:0:0:0:
7,188,9055,1,2,3:2:0:0:
7,188,9216,1,2,3:2:0:0:
7,188,10668,6,0,P|34:239|18:294,1,99.9999999999999,6|10,3:2|2:0,0:0:0:0:
0,321,11152,1,2,2:0:0:0:
80,380,11475,2,0,L|138:361,1,50,2|8,3:2|2:0,0:0:0:0:
173,344,11797,2,0,B|214:353|214:353|234:372|234:372|276:381,1,99.9999999999999,2|2,3:2|3:2,0:0:0:0:
313,383,12281,1,8,2:0:0:0:
313,383,12442,1,2,2:0:0:0:
413,383,12765,2,0,L|471:361,1,50,2|8,3:2|2:0,0:0:0:0:
494,329,13087,6,0,P|488:276|454:244,1,99.9999999999999,2|2,3:2|3:2,0:0:0:0:
408,227,13571,1,10,2:0:0:0:
315,204,13894,1,0,3:0:0:0:
315,204,14055,2,0,L|256:229,1,50,0|8,3:0|2:0,0:0:0:0:
226,250,14378,2,0,L|118:220,1,99.9999999999999,2|2,3:2|3:2,0:0:0:0:
85,211,14862,1,10,2:0:0:0:
85,211,15023,1,6,3:2:0:0:
4,160,15345,1,2,3:2:0:0:
4,160,15507,2,0,L|16:104,1,50,10|8,2:0|2:0,0:0:0:0:
28,63,15829,6,0,B|67:44|67:44|128:63,1,99.9999999999999,6|10,3:2|2:0,0:0:0:0:
165,84,16313,1,2,2:0:0:0:
238,16,16636,2,0,L|286:30,1,50,2|8,3:2|2:0,0:0:0:0:
331,51,16958,2,0,L|428:19,1,99.9999999999999,2|2,3:2|3:2,0:0:0:0:
477,7,17442,1,8,2:0:0:0:
477,7,17604,1,2,2:0:0:0:
511,100,17926,2,0,L|492:158,1,50,2|8,3:2|2:0,0:0:0:0:
481,195,18249,6,0,L|507:298,1,99.9999999999999,2|2,3:2|3:2,0:0:0:0:
511,341,18733,1,10,2:0:0:0:
420,383,19055,2,0,L|356:357,1,50,0|0,3:0|3:0,0:0:0:0:
330,350,19378,1,8,2:0:0:0:
330,350,19539,2,0,L|213:377,1,99.9999999999999,6|0,3:2|3:0,0:0:0:0:
183,382,20023,1,8,2:0:0:0:
83,382,20345,2,0,L|67:324,1,50,8|8,2:0|2:0,0:0:0:0:
31,301,20668,2,0,L|45:249,1,50,8|8,2:0|2:0,0:0:0:0:
76,214,20991,5,6,3:2:0:0:
34,129,21313,1,0,3:0:0:0:
34,129,21475,2,0,P|41:75|92:50,1,99.9999999999999,14|0,2:0|3:0,0:0:0:0:
122,33,21958,1,14,2:0:0:0:
225,47,22281,1,0,3:0:0:0:
225,47,22442,2,0,B|259:35|259:35|295:46|295:46|338:37,1,99.9999999999999,14|0,2:0|3:0,0:0:0:0:
374,36,22926,1,12,2:0:0:0:
374,36,23087,1,12,2:0:0:0:
433,153,23571,6,0,L|407:253,1,89.999997253418,2|2,3:2|3:2,0:0:0:0:
402,284,24055,1,2,2:0:0:0:
345,354,24378,1,2,2:0:0:0:
259,358,24700,1,2,2:0:0:0:
259,358,24862,2,0,P|233:319|252:260,1,89.999997253418,0|0,3:0|3:0,0:0:0:0:
210,192,25507,2,0,L|227:135,1,44.999998626709,2|2,3:2|2:0,0:0:0:0:
234,105,25829,2,0,L|217:48,1,44.999998626709,2|2,3:2|2:0,0:0:0:0:
195,24,26152,6,0,B|154:23|154:23|98:48,1,89.999997253418,0|0,3:0|3:0,0:0:0:0:
26,78,26797,2,0,L|10:35,2,44.999998626709,2|2|2,3:2|2:0|3:2,0:0:0:0:
25,123,27281,1,2,2:0:0:0:
42,211,27604,1,2,2:0:0:0:
3,292,27926,2,0,L|17:355,1,44.999998626709,8|4,0:3|0:3,0:0:0:0:
39,378,28249,1,4,0:3:0:0:
39,378,28410,1,8,3:2:0:0:
127,361,28733,6,0,L|169:264,1,89.999997253418,2|2,3:2|3:2,0:0:0:0:
182,238,29216,1,2,2:0:0:0:
139,158,29539,1,2,2:0:0:0:
179,79,29862,1,2,2:0:0:0:
179,79,30023,2,0,P|220:49|277:59,1,89.999997253418,0|0,3:0|3:0,0:0:0:0:
347,55,30668,2,0,L|403:34,1,44.999998626709,2|2,3:2|2:0,0:0:0:0:
427,16,30991,2,0,L|475:29,1,44.999998626709,2|2,3:2|2:0,0:0:0:0:
506,54,31313,6,0,P|499:100|451:138,1,89.999997253418,0|0,3:0|3:0,0:0:0:0:
438,214,31958,1,2,3:2:0:0:
511,272,32281,1,2,3:2:0:0:
511,272,32442,1,2,3:0:0:0:
511,272,33894,6,0,P|474:308|408:298,1,99.9999999999999,6|10,3:2|2:0,0:0:0:0:
379,297,34378,1,2,2:0:0:0:
297,355,34700,2,0,L|241:335,1,50,2|8,2:0|2:0,0:0:0:0:
202,322,35023,2,0,B|163:330|163:330|143:347|143:347|97:360,1,99.9999999999999,2|0,3:2|3:0,0:0:0:0:
64,376,35507,1,8,2:0:0:0:
3,296,35829,2,0,L|27:233,1,50,2|2,3:2|2:0,0:0:0:0:
42,206,36152,1,10,2:0:0:0:
42,206,36313,6,0,L|14:97,1,99.9999999999999,2|0,3:2|3:0,0:0:0:0:
6,64,36797,1,8,2:0:0:0:
6,64,36958,1,2,2:0:0:0:
96,22,37281,2,0,L|124:64,1,50,2|10,2:0|2:0,0:0:0:0:
152,104,37604,1,2,3:2:0:0:
117,197,37926,2,0,L|145:239,1,50,2|8,3:2|2:0,0:0:0:0:
173,279,38249,1,2,3:2:0:0:
189,381,38571,1,2,3:2:0:0:
189,381,38733,2,0,L|237:361,1,50,8|8,2:0|2:0,0:0:0:0:
281,344,39055,6,0,L|388:360,1,99.9999999999999,2|10,3:2|2:0,0:0:0:0:
429,366,39539,1,2,2:0:0:0:
511,309,39862,2,0,L|484:250,1,50,2|8,2:0|2:0,0:0:0:0:
469,217,40184,1,2,3:2:0:0:
429,130,40507,1,0,3:0:0:0:
429,130,40668,2,0,L|373:154,1,50,8|2,2:0|2:0,0:0:0:0:
336,167,40991,1,2,3:2:0:0:
259,103,41313,1,10,2:0:0:0:
259,103,41475,6,0,L|160:128,1,99.9999999999999,2|0,3:2|3:0,0:0:0:0:
112,135,41958,1,8,2:0:0:0:
66,224,42281,1,2,3:2:0:0:
123,305,42604,1,10,2:0:0:0:
123,305,42765,1,2,3:2:0:0:
213,346,43087,2,0,L|268:330,1,50,2|8,3:2|2:0,0:0:0:0:
310,321,43410,1,8,0:3:0:0:
406,346,43733,2,0,L|422:295,1,50,4|4,0:3|0:3,0:0:0:0:
437,251,44055,1,2,2:0:0:0:
437,251,44216,6,0,P|416:172|324:133,1,179.999994506836,6|10,3:2|2:0,0:0:0:0:
274,63,45184,2,0,L|215:86,1,44.999998626709,0|2,0:0|2:0,0:0:0:0:
191,98,45507,2,0,P|146:69|93:63,2,89.999997253418,2|0|10,3:2|0:0|2:0,0:0:0:0:
117,150,46475,2,0,L|96:190,1,44.999998626709,0|2,0:0|2:0,0:0:0:0:
71,227,46797,6,0,P|90:317|169:338,1,179.999994506836,2|10,3:2|2:0,0:0:0:0:
255,346,47765,2,0,L|317:368,1,44.999998626709,0|2,0:0|3:2,0:0:0:0:
341,350,48087,2,0,P|390:355|440:321,2,89.999997253418,2|0|10,3:2|3:0|2:0,0:0:0:0:
409,233,49216,1,10,2:0:0:0:
409,233,49378,6,0,L|360:135,1,99.9999999999999,6|0,3:2|3:0,0:0:0:0:
342,104,49862,1,10,2:0:0:0:
342,104,50023,1,2,3:2:0:0:
428,51,50345,1,10,2:0:0:0:
428,51,50507,2,0,P|458:89|457:173,1,99.9999999999999,2|10,3:2|2:0,0:0:0:0:
457,188,50991,1,2,3:2:0:0:
467,291,51313,1,2,3:2:0:0:
467,291,51475,2,0,P|488:304|511:312,2,50,8|8|4,3:0|0:3|0:3,0:0:0:0:
425,318,51958,5,6,3:2:0:0:
328,291,52281,2,0,P|318:261|297:238,2,50,10|10|8,3:2|2:0|3:2,0:0:0:0:
284,382,52926,1,14,3:2:0:0:
204,330,53249,5,8,3:2:0:0:
204,330,53410,1,8,3:2:0:0:
64,378,53894,5,8,3:2:0:0:
64,378,54055,1,8,3:2:0:0:
2,224,54539,6,0,L|31:107,1,110.000003356934,4|8,3:1|2:0,0:0:0:0:
40,63,55023,2,0,B|89:49|89:49|118:61|118:61|169:49,1,110.000003356934,2|0,3:2|3:0,0:0:0:0:
197,37,55507,2,0,P|243:76|316:61,1,110.000003356934,10|2,2:0|0:3,0:0:0:0:
340,52,55991,1,2,3:2:0:0:
340,52,56152,1,8,2:0:0:0:
444,86,56475,2,0,L|457:147,1,55.0000016784668,2|2,3:2|3:2,0:0:0:0:
481,188,56797,2,0,L|464:245,1,55.0000016784668,10|2,2:0|2:0,0:0:0:0:
437,288,57120,6,0,P|377:299|339:260,1,110.000003356934,2|10,3:0|2:0,0:0:0:0:
306,227,57604,1,2,2:0:0:0:
205,271,57926,1,2,3:2:0:0:
112,211,58249,1,2,3:2:0:0:
14,262,58571,2,0,L|33:317,1,55.0000016784668,2|8,3:2|2:0,0:0:0:0:
35,369,58894,1,6,3:2:0:0:
139,333,59216,2,0,P|144:364|159:384,2,55.0000016784668,2|8|10,3:2|2:0|2:0,0:0:0:0:
173,290,59700,6,0,P|222:287|284:324,1,110.000003356934,4|10,3:2|2:0,0:0:0:0:
317,349,60184,1,2,3:2:0:0:
413,295,60507,1,2,3:2:0:0:
413,295,60668,2,0,P|389:210|342:191,1,110.000003356934,10|2,2:0|0:3,0:0:0:0:
278,162,61313,1,10,2:0:0:0:
278,162,61475,1,6,3:2:0:0:
326,63,61797,2,0,L|361:105,2,55.0000016784668,2|8|10,3:2|2:0|2:0,0:0:0:0:
278,35,62281,6,0,L|209:62,1,55.0000016784668,4|0,3:2|3:0,0:0:0:0:
176,77,62604,2,0,L|106:52,1,55.0000016784668,10|0,2:0|3:0,0:0:0:0:
73,37,62926,1,10,2:0:0:0:
1,121,63249,1,10,2:0:0:0:
54,217,63571,2,0,P|43:277|-7:321,1,110.000003356934,2|8,2:0|2:0,0:0:0:0:
20,370,64055,1,2,3:2:0:0:
20,370,64216,2,0,L|76:382,1,55.0000016784668,8|10,3:2|2:2,0:0:0:0:
128,383,64539,1,10,3:2:0:0:
224,329,64862,6,0,B|267:338|267:338|295:362|295:362|352:375,1,110.000003356934,4|8,3:1|2:0,0:0:0:0:
376,382,65345,2,0,P|411:344|397:268,1,110.000003356934,2|0,3:2|3:0,0:0:0:0:
386,238,65829,2,0,L|260:194,1,110.000003356934,10|2,2:0|0:3,0:0:0:0:
234,184,66313,1,2,3:2:0:0:
234,184,66475,1,8,2:0:0:0:
128,213,66797,2,0,L|103:136,1,55.0000016784668,2|2,3:2|3:2,0:0:0:0:
84,112,67120,2,0,L|109:35,1,55.0000016784668,10|2,2:0|2:0,0:0:0:0:
134,15,67442,6,0,P|176:51|253:33,1,110.000003356934,2|10,3:0|2:0,0:0:0:0:
274,18,67926,1,2,2:0:0:0:
376,57,68249,2,0,L|436:34,1,55.0000016784668,2|8,3:2|2:0,0:0:0:0:
480,22,68571,1,6,3:2:0:0:
511,127,68894,2,0,L|494:191,1,55.0000016784668,2|8,3:2|2:0,0:0:0:0:
476,231,69216,1,6,3:2:0:0:
365,229,69539,2,0,L|284:202,1,55.0000016784668,2|8,3:2|2:0,0:0:0:0:
266,192,69862,1,10,2:0:0:0:
266,192,70023,5,4,3:2:0:0:
157,211,70345,2,0,L|138:269,1,55.0000016784668,8|2,2:0|3:2,0:0:0:0:
110,310,70668,2,0,L|131:360,1,55.0000016784668,2|2,2:0|3:2,0:0:0:0:
182,381,70991,1,10,2:0:0:0:
291,383,71313,2,0,P|318:343|272:249,1,110.000003356934,2|10,2:0|2:0,0:0:0:0:
286,234,71797,2,0,B|332:213|332:213|366:218|366:218|416:195,1,110.000003356934,2|2,3:2|3:2,0:0:0:0:
439,184,72281,2,0,L|454:126,1,55.0000016784668,10|8,2:0|2:0,0:0:0:0:
469,78,72604,5,4,3:2:0:0:
359,72,72926,2,0,L|293:100,1,55.0000016784668,8|2,2:0|3:2,0:0:0:0:
253,94,73249,2,0,L|182:60,1,55.0000016784668,8|2,3:2|3:2,0:0:0:0:
155,44,73571,1,10,2:0:0:0:
62,103,73894,2,0,L|23:222,1,110.000003356934,14|10,3:2|2:0,0:0:0:0:
4,259,74378,1,2,3:2:0:0:
4,259,74539,2,0,L|32:327,1,55.0000016784668,8|0,3:2|3:0,0:0:0:0:
48,359,74862,1,10,2:0:0:0:
140,321,75184,5,6,3:2:0:0:
221,378,75507,1,8,2:0:0:0:
221,378,75668,1,4,3:2:0:0:
318,345,75991,1,8,2:0:0:0:
318,345,76152,1,4,3:1:0:0:
256,192,76475,12,0,79055,0:0:0:0:
