osu file format v14

[General]
AudioFilename: audio.mp3
AudioLeadIn: 0
PreviewTime: 54136
Countdown: 0
SampleSet: Soft
StackLeniency: 0.7
Mode: 0
LetterboxInBreaks: 0
WidescreenStoryboard: 1

[Editor]
DistanceSpacing: 1.4
BeatDivisor: 4
GridSize: 8
TimelineZoom: 1

[Metadata]
Title:Avant
TitleUnicode:アヴァン
Artist:Eve
ArtistUnicode:Eve
Creator:melleganol
Version:Hard
Source:呪術廻戦 ファントムパレード
Tags:jujutsu kaisen phantom parade theme op opening video game japanese male vocals vocalist rock jrock j-rock pop jpop j-pop mobile ファンパレ phanpara
BeatmapID:3509308
BeatmapSetID:1717276

[Difficulty]
HPDrainRate:4.5
CircleSize:3.6
OverallDifficulty:6
ApproachRate:8
SliderMultiplier:1.3
SliderTickRate:1

[Events]
//Background and Video events
0,0,"1144135.jpg",0,0
Video,-774,"Avant Video.m4v"
//Break Periods
//Storyboard Layer 0 (Background)
//Storyboard Layer 1 (Fail)
//Storyboard Layer 2 (Pass)
//Storyboard Layer 3 (Foreground)
//Storyboard Layer 4 (Overlay)
//Storyboard Sound Samples

[TimingPoints]
346,322.58064516129,4,2,77,60,1,0
346,-125,4,2,77,60,0,0
10668,-100,4,2,77,70,0,0
23571,-125,4,2,77,60,0,0
33894,-100,4,2,77,70,0,0
44216,-125,4,2,77,60,0,0
49378,-100,4,2,77,70,0,0
54539,-90.9090909090909,4,2,77,80,0,1
75184,-100,4,2,77,70,0,0
76152,-250,4,2,77,70,0,0
79055,-1000,4,2,77,5,0,0

[Colours]
Combo1 : 149,255,173
Combo2 : 184,149,255
Combo3 : 255,221,149
Combo4 : 149,197,255

[HitObjects]
0,22,346,6,0,L|121:53,1,104,2|2,3:2|3:2,0:0:0:0:
263,81,991,2,0,L|317:55,1,52,2|2,3:2|2:0,0:0:0:0:
373,5,1313,2,0,L|436:24,1,52,2|2,3:2|2:0,0:0:0:0:
491,67,1636,2,0,P|477:126|502:171,1,104,0|2,3:0|3:2,0:0:0:0:
507,329,2281,2,0,L|433:307,1,52,2|2,3:2|2:0,0:0:0:0:
376,294,2604,2,0,L|302:316,1,52,2|2,3:2|2:0,0:0:0:0:
291,384,2926,6,0,P|238:351|178:361,1,104,2|2,3:2|3:2,0:0:0:0:
34,383,3571,2,0,L|51:323,1,52,2|2,3:2|2:0,0:0:0:0:
90,261,3894,2,0,L|73:201,1,52,2|2,3:2|2:0,0:0:0:0:
10,159,4216,2,0,P|59:129|121:142,1,104,2|2,3:2|3:2,0:0:0:0:
182,172,4700,1,0,0:0:0:0:
182,172,4862,2,0,L|166:241,1,52,2|2,3:2|2:0,0:0:0:0:
251,241,5184,2,0,L|267:172,1,52,2|2,3:2|2:0,0:0:0:0:
325,135,5507,6,0,L|309:66,1,52,2|0,3:2|0:0,0:0:0:0:
271,12,5829,2,0,B|225:29|225:29|215:54|215:54|161:82,1,104,2|0,3:2|3:0,0:0:0:0:
119,32,6313,1,2,2:0:0:0:
119,32,6475,2,0,P|111:74|144:128,1,104,2|0,3:2|3:0,0:0:0:0:
79,181,6958,1,0,0:0:0:0:
79,181,7120,2,0,L|119:294,1,104,2|0,3:2|3:2,0:0:0:0:
166,350,7604,1,2,2:0:0:0:
166,350,7765,6,0,L|278:327,1,104,2|0,3:2|3:0,0:0:0:0:
337,280,8249,1,0,0:0:0:0:
337,280,8410,2,0,P|298:249|225:257,1,104,2|0,3:2|3:0,0:0:0:0:
277,88,9055,1,2,3:2:0:0:
277,88,9216,1,2,3:2:0:0:
277,88,10668,6,0,L|422:54,1,130,6|10,3:2|2:0,0:0:0:0:
467,122,11152,2,0,L|445:199,1,65,2|0,2:0|3:0,0:0:0:0:
482,269,11475,2,0,L|504:346,1,65,2|8,3:2|2:0,0:0:0:0:
425,383,11797,2,0,P|372:339|310:344,1,130,2|2,3:2|3:2,0:0:0:0:
235,384,12281,1,8,2:0:0:0:
235,384,12442,2,0,L|144:357,1,65,2|0,2:0|3:0,0:0:0:0:
82,351,12765,2,0,L|-9:378,1,65,2|8,3:2|2:0,0:0:0:0:
0,280,13087,6,0,L|146:236,1,130,2|2,3:2|3:2,0:0:0:0:
195,184,13571,2,0,P|218:210|225:245,1,65,10|0,2:0|0:0,0:0:0:0:
226,330,13894,2,0,P|265:322|296:296,1,65,0|0,3:0|3:0,0:0:0:0:
318,225,14216,1,8,2:0:0:0:
318,225,14378,2,0,L|270:97,1,130,2|2,3:2|3:2,0:0:0:0:
263,16,14862,1,10,2:0:0:0:
263,16,15023,2,0,P|227:26|193:55,1,65,6|2,3:2|2:0,0:0:0:0:
155,118,15345,2,0,P|119:108|85:79,1,65,2|10,3:2|2:0,0:0:0:0:
35,39,15668,1,8,2:0:0:0:
35,39,15749,1,8,2:0:0:0:
35,39,15829,6,0,B|3:84|3:84|28:165,1,130,6|10,3:2|2:0,0:0:0:0:
37,246,16313,2,0,P|31:288|5:315,1,65,2|0,2:0|3:0,0:0:0:0:
67,382,16636,2,0,P|98:364|144:356,1,65,2|8,3:2|2:0,0:0:0:0:
216,356,16958,2,0,L|362:389,1,130,2|2,3:2|3:2,0:0:0:0:
438,384,17442,1,8,2:0:0:0:
438,384,17604,2,0,L|454:319,1,65,2|0,2:0|3:0,0:0:0:0:
511,250,17926,2,0,L|495:185,1,65,2|8,3:2|2:0,0:0:0:0:
511,96,18249,6,0,P|445:110|402:174,1,130,2|2,3:2|3:2,0:0:0:0:
342,221,18733,2,0,L|269:195,1,65,10|0,2:0|0:0,0:0:0:0:
203,152,19055,2,0,L|130:178,1,65,0|0,3:0|3:0,0:0:0:0:
78,239,19378,1,8,2:0:0:0:
78,239,19539,6,0,P|49:178|63:120,1,130,6|0,3:2|3:0,0:0:0:0:
19,39,20023,1,8,2:0:0:0:
19,39,20184,2,0,B|54:27|54:27|103:38,1,65,0|8,3:0|2:0,0:0:0:0:
165,91,20507,1,8,2:0:0:0:
165,91,20587,1,8,2:0:0:0:
165,91,20668,2,0,L|198:76,3,32.5,8|8|8|8,2:0|2:0|2:0|2:0,0:0:0:0:
236,58,20991,6,0,B|285:46|285:46|331:59|331:59|378:46,1,130,6|0,3:2|3:0,0:0:0:0:
437,0,21475,2,0,P|453:34|422:123,1,130,14|0,2:0|3:0,0:0:0:0:
477,193,21958,2,0,L|513:321,1,130,14|0,2:0|3:0,0:0:0:0:
424,293,22442,2,0,P|364:243|291:256,1,130,14|0,2:0|3:0,0:0:0:0:
341,334,22926,1,12,2:0:0:0:
341,334,23087,1,12,2:0:0:0:
341,334,23571,6,0,P|291:372|246:366,1,104,2|2,3:2|3:2,0:0:0:0:
169,367,24055,2,0,L|195:313,1,52,2|0,2:0|3:0,0:0:0:0:
114,288,24378,2,0,L|88:342,1,52,2|0,2:0|3:0,0:0:0:0:
15,301,24700,1,2,2:0:0:0:
15,301,24862,6,0,L|41:247,1,52,0|0,3:0|0:0,0:0:0:0:
21,172,25184,2,0,L|-5:118,1,52,0|2,3:0|2:0,0:0:0:0:
2,41,25507,2,0,L|60:21,1,52,2|2,3:2|2:0,0:0:0:0:
130,1,25829,2,0,L|188:21,1,52,2|2,3:2|2:0,0:0:0:0:
256,50,26152,6,0,P|300:22|367:29,1,104,0|0,3:0|3:0,0:0:0:0:
435,5,26636,1,2,2:0:0:0:
435,5,26797,2,0,L|452:66,1,52,2|2,3:2|2:0,0:0:0:0:
511,110,27120,1,2,3:2:0:0:
511,110,27281,6,0,L|494:171,1,52,2|0,2:0|3:0,0:0:0:0:
467,238,27604,2,0,L|484:299,1,52,2|0,2:0|3:0,0:0:0:0:
490,379,27927,1,8,0:3:0:0:
490,379,28007,1,8,0:3:0:0:
490,379,28087,1,4,0:3:0:0:
406,375,28249,2,0,L|337:388,1,52,4|8,0:3|3:2,0:0:0:0:
276,378,28571,1,2,2:0:0:0:
276,378,28733,6,0,L|249:314,1,52,2|2,3:2|2:0,0:0:0:0:
336,301,29055,1,2,3:2:0:0:
336,301,29216,2,0,L|348:234,1,52,2|0,2:0|3:0,0:0:0:0:
349,166,29539,2,0,L|283:145,1,52,2|0,2:0|3:0,0:0:0:0:
243,87,29862,1,2,2:0:0:0:
243,87,30023,6,0,L|141:118,1,104,0|0,3:0|3:0,0:0:0:0:
65,139,30507,1,2,2:0:0:0:
65,139,30668,2,0,L|47:202,1,52,2|2,3:2|2:0,0:0:0:0:
2,257,30991,2,0,L|20:320,1,52,2|2,3:2|2:0,0:0:0:0:
49,383,31313,6,0,P|96:353|155:367,1,104,0|0,3:0|3:0,0:0:0:0:
226,384,31797,1,2,2:0:0:0:
226,384,31958,2,0,L|283:363,1,52,2|2,3:2|0:3,0:0:0:0:
334,307,32281,1,2,3:2:0:0:
334,307,32442,1,2,3:0:0:0:
334,307,33894,6,0,L|399:341,1,65,6|2,3:2|2:0,0:0:0:0:
475,384,34216,1,10,2:0:0:0:
475,384,34378,2,0,L|485:318,1,65,2|0,2:0|3:0,0:0:0:0:
509,232,34700,2,0,P|478:216|444:215,1,65,2|8,2:0|2:0,0:0:0:0:
373,266,35023,2,0,P|307:268|253:223,1,130,2|0,3:2|3:0,0:0:0:0:
335,180,35507,2,0,L|361:105,1,65,8|2,2:0|2:0,0:0:0:0:
423,57,35829,2,0,L|449:132,1,65,2|2,3:2|2:0,0:0:0:0:
512,186,36152,1,10,2:0:0:0:
512,186,36313,6,0,P|465:233|401:240,1,130,2|0,3:2|3:0,0:0:0:0:
338,303,36797,1,8,2:0:0:0:
338,303,36958,2,0,L|265:283,1,65,2|0,2:0|3:0,0:0:0:0:
190,252,37281,2,0,L|117:272,1,65,2|10,2:0|2:0,0:0:0:0:
68,338,37604,2,0,P|38:277|52:220,1,130,2|2,3:2|3:2,0:0:0:0:
10,144,38087,1,8,2:0:0:0:
10,144,38249,2,0,L|29:11,1,130,2|2,3:2|3:2,0:0:0:0:
113,48,38733,1,8,2:0:0:0:
193,5,38894,1,8,2:0:0:0:
253,73,39055,6,0,L|232:147,1,65,2|2,3:2|2:0,0:0:0:0:
175,204,39378,1,10,2:0:0:0:
175,204,39539,2,0,L|196:278,1,65,2|0,2:0|3:0,0:0:0:0:
150,347,39862,2,0,P|203:362|226:355,1,65,2|8,2:0|2:0,0:0:0:0:
299,382,40184,2,0,P|342:349|431:361,1,130,2|0,3:2|3:0,0:0:0:0:
504,367,40668,2,0,P|501:331|485:300,1,65,8|2,2:0|2:0,0:0:0:0:
414,252,40991,2,0,P|417:216|433:185,1,65,2|2,3:2|2:0,0:0:0:0:
494,126,41313,1,10,2:0:0:0:
494,126,41475,6,0,P|477:58|401:31,1,130,2|0,3:2|3:0,0:0:0:0:
348,74,41958,1,8,2:0:0:0:
282,18,42120,1,2,2:0:0:0:
282,18,42281,2,0,L|216:33,1,65,2|0,3:2|3:0,0:0:0:0:
131,59,42604,1,10,2:0:0:0:
50,16,42765,6,0,L|15:145,1,130,2|2,3:2|3:2,0:0:0:0:
55,229,43249,1,8,2:0:0:0:
55,229,43410,2,0,P|48:271|13:293,1,65,8|0,0:3|0:0,0:0:0:0:
5,375,43733,1,4,0:3:0:0:
5,375,43894,1,4,0:3:0:0:
99,384,44055,1,2,2:0:0:0:
99,384,44216,6,0,P|139:350|196:359,1,104,6|0,3:2|0:0,0:0:0:0:
273,372,44700,1,2,2:0:0:0:
273,372,44862,2,0,L|357:386,2,78,10|2|2,2:0|2:0|2:0,0:0:0:0:
300,292,45507,6,0,L|375:306,1,52,2|0,3:2|0:0,0:0:0:0:
423,343,45829,2,0,L|484:312,1,52
492,239,46152,2,0,P|495:191|472:150,2,78,10|2|2,2:0|3:2|2:0,0:0:0:0:
413,210,46797,6,0,L|307:180,1,104,2|0,3:2|0:0,0:0:0:0:
240,139,47281,1,2,2:0:0:0:
240,139,47442,2,0,P|201:167|158:158,2,78,10|2|2,2:0|3:2|3:2,0:0:0:0:
174,75,48087,5,2,3:2:0:0:
174,75,48249,2,0,L|104:46,1,52,0|0,0:0|3:0,0:0:0:0:
53,13,48571,1,2,2:0:0:0:
53,13,48733,2,0,P|40:57|71:116,1,104,10|0,2:0|0:0,0:0:0:0:
14,178,49216,1,10,2:0:0:0:
14,178,49297,1,8,2:0:0:0:
14,178,49378,6,0,L|140:226,1,130,6|0,3:2|3:0,0:0:0:0:
192,302,49862,5,10,2:0:0:0:
192,302,50023,2,0,L|263:279,1,65,2|0,3:2|3:0,0:0:0:0:
327,227,50345,5,10,2:0:0:0:
327,227,50506,2,0,L|398:250,1,65,2|0,3:2|3:0,0:0:0:0:
440,328,50829,5,10,2:0:0:0:
440,328,50990,2,0,L|369:351,1,65,2|8,3:2|2:0,0:0:0:0:
297,384,51313,5,2,3:2:0:0:
297,384,51474,2,0,L|226:361,1,65,8|8,3:0|0:3,0:0:0:0:
143,370,51797,5,4,0:3:0:0:
143,370,51958,1,6,3:2:0:0:
80,319,52120,5,8,2:0:0:0:
80,319,52200,1,8,2:0:0:0:
80,319,52281,2,0,L|95:280,3,32.5,10|8|10|8,3:2|2:0|2:0|2:0,0:0:0:0:
109,246,52604,2,0,L|95:202,3,32.5,8|8|8|8,3:2|2:0|2:0|2:0,0:0:0:0:
80,173,52926,1,14,3:2:0:0:
193,30,53249,5,8,3:2:0:0:
272,73,53410,1,8,3:2:0:0:
272,73,53894,5,8,3:2:0:0:
350,27,54055,1,8,3:2:0:0:
350,27,54539,6,0,P|387:63|355:162,1,143.000004364014,4|8,3:1|2:0,0:0:0:0:
456,173,55023,2,0,P|475:214|469:259,1,71.5000021820069,2|0,3:2|0:0,0:0:0:0:
498,326,55345,1,0,3:0:0:0:
498,326,55507,2,0,P|413:321|357:371,1,143.000004364014,10|2,2:0|0:3,0:0:0:0:
287,324,55991,5,2,3:2:0:0:
224,382,56152,2,0,L|151:366,1,71.5000021820069,8|0,2:0|0:0,0:0:0:0:
69,382,56475,1,2,3:2:0:0:
4,325,56636,1,2,3:2:0:0:
60,260,56797,1,10,2:0:0:0:
3,195,56958,1,2,2:0:0:0:
44,119,57120,6,0,B|119:114|108:179|195:176,1,143.000004364014,2|10,3:0|2:0,0:0:0:0:
187,90,57604,2,0,P|224:74|269:85,1,71.5000021820069,2|0,2:0|3:0,0:0:0:0:
316,18,57926,2,0,P|338:49|332:104,1,71.5000021820069,2|8,3:2|2:0,0:0:0:0:
312,163,58249,2,0,L|360:314,1,143.000004364014,2|2,3:2|3:2,0:0:0:0:
421,354,58733,5,8,2:0:0:0:
489,302,58894,2,0,P|465:279|451:235,1,71.5000021820069,6|0,3:2|0:0,0:0:0:0:
490,167,59216,1,2,3:2:0:0:
448,91,59378,1,8,2:0:0:0:
453,13,59539,1,10,2:0:0:0:
453,13,59620,1,8,2:0:0:0:
453,13,59700,6,0,B|392:30|392:30|368:57|368:57|326:76,1,143.000004364014,4|10,3:2|2:0,0:0:0:0:
253,32,60184,2,0,P|215:12|174:11,1,71.5000021820069,2|0,3:2|0:0,0:0:0:0:
104,6,60507,1,2,3:2:0:0:
104,6,60668,2,0,L|157:148,1,143.000004364014,10|2,2:0|0:3,0:0:0:0:
100,207,61152,5,0,3:0:0:0:
163,272,61313,1,10,2:0:0:0:
163,272,61475,2,0,L|88:302,1,71.5000021820069,6|0,3:2|0:0,0:0:0:0:
130,377,61797,1,2,3:2:0:0:
215,383,61958,1,8,2:0:0:0:
288,335,62120,1,10,2:0:0:0:
288,335,62200,1,8,2:0:0:0:
288,335,62281,6,0,L|258:254,1,71.5000021820069,4|0,3:2|3:0,0:0:0:0:
299,189,62604,1,10,2:0:0:0:
226,143,62765,1,0,3:0:0:0:
278,75,62926,2,0,L|356:100,1,71.5000021820069,10|0,2:0|3:0,0:0:0:0:
429,75,63249,1,10,2:0:0:0:
486,138,63410,1,4,3:2:0:0:
486,138,63571,6,0,L|442:213,1,71.5000021820069,2|0,2:0|3:0,0:0:0:0:
487,282,63894,1,8,2:0:0:0:
487,282,64055,1,2,3:2:0:0:
437,351,64216,2,0,L|396:335,3,35.7500010910034,8|8|10|8,3:2|2:0|2:2|2:0,0:0:0:0:
361,328,64539,2,0,L|320:344,3,35.7500010910034,10|8|8|8,3:2|2:0|2:2|2:0,0:0:0:0:
289,362,64862,6,0,P|229:315|161:329,1,143.000004364014,4|8,3:1|2:0,0:0:0:0:
92,367,65345,2,0,P|45:361|26:338,1,71.5000021820069,2|0,3:2|0:0,0:0:0:0:
53,264,65668,1,0,3:0:0:0:
53,264,65829,2,0,L|14:110,1,143.000004364014,10|2,2:0|0:3,0:0:0:0:
2,40,66313,5,2,3:2:0:0:
85,19,66475,2,0,L|108:104,1,71.5000021820069,8|0,2:0|0:0,0:0:0:0:
164,148,66797,1,2,3:2:0:0:
224,86,66958,1,2,3:2:0:0:
295,134,67120,1,10,2:0:0:0:
364,83,67281,1,2,2:0:0:0:
426,141,67442,6,0,P|396:211|406:278,1,143.000004364014,2|10,3:0|2:0,0:0:0:0:
350,342,67926,2,0,L|321:275,1,71.5000021820069,2|0,2:0|3:0,0:0:0:0:
238,254,68249,2,0,L|267:187,1,71.5000021820069,2|8,3:2|2:0,0:0:0:0:
336,138,68571,2,0,P|279:107|200:145,1,143.000004364014,6|2,3:2|3:2,0:0:0:0:
127,107,69055,5,8,2:0:0:0:
134,21,69216,2,0,P|170:12|211:27,1,71.5000021820069,6|0,3:2|0:0,0:0:0:0:
288,25,69539,2,0,P|324:34|365:19,1,71.5000021820069,2|8,3:2|2:0,0:0:0:0:
446,8,69862,1,10,2:0:0:0:
446,8,69942,1,8,2:0:0:0:
446,8,70023,6,0,L|493:162,1,143.000004364014,4|8,3:2|2:0,0:0:0:0:
495,234,70507,1,2,3:2:0:0:
495,234,70668,2,0,L|424:210,1,71.5000021820069,2|2,2:0|3:2,0:0:0:0:
357,159,70991,2,0,L|286:183,1,71.5000021820069,10|2,2:0|2:0,0:0:0:0:
213,221,71313,6,0,L|142:197,1,71.5000021820069,2|0,2:0|3:0,0:0:0:0:
71,153,71636,1,10,2:0:0:0:
6,209,71797,2,0,L|47:353,1,143.000004364014,2|2,3:2|3:2,0:0:0:0:
123,383,72281,1,10,2:0:0:0:
202,343,72442,1,8,2:0:0:0:
202,343,72523,1,8,2:0:0:0:
202,343,72603,6,0,L|287:379,1,71.5000021820069,4|0,3:2|0:0,0:0:0:0:
342,328,72926,1,8,2:0:0:0:
299,253,73087,1,2,3:2:0:0:
360,192,73249,1,8,3:2:0:0:
311,121,73410,1,2,3:2:0:0:
354,47,73571,2,0,P|328:12|297:4,1,71.5000021820069,10|2,2:0|3:2,0:0:0:0:
224,39,73894,6,0,P|183:47|148:30,1,71.5000021820069,14|0,3:2|3:0,0:0:0:0:
76,4,74216,1,10,2:0:0:0:
21,70,74378,1,2,3:2:0:0:
21,70,74539,2,0,L|46:156,1,71.5000021820069,8|0,3:2|3:0,0:0:0:0:
104,197,74862,2,0,L|79:283,1,71.5000021820069,10|0,2:0|3:0,0:0:0:0:
10,319,75184,6,0,P|36:347|78:363,1,65,6|0,3:2|0:0,0:0:0:0:
147,382,75507,1,8,2:0:0:0:
213,320,75668,2,0,L|183:230,1,65,4|0,3:2|0:0,0:0:0:0:
126,195,75990,1,8,2:0:0:0:
172,116,76152,1,4,3:1:0:0:
256,192,76313,12,0,79055,0:0:0:0:
