osu file format v14

[General]
AudioFilename: audio.mp3
AudioLeadIn: 0
PreviewTime: 54136
Countdown: 0
SampleSet: Soft
StackLeniency: 0.7
Mode: 0
LetterboxInBreaks: 0
WidescreenStoryboard: 0

[Editor]
DistanceSpacing: 3.2
BeatDivisor: 4
GridSize: 8
TimelineZoom: 1

[Metadata]
Title:Avant
TitleUnicode:アヴァン
Artist:Eve
ArtistUnicode:Eve
Creator:melleganol
Version:Expert
Source:呪術廻戦 ファントムパレード
Tags:jujutsu kaisen phantom parade theme op opening video game japanese male vocals vocalist rock jrock j-rock pop jpop j-pop mobile ファンパレ phanpara
BeatmapID:3509307
BeatmapSetID:1717276

[Difficulty]
HPDrainRate:6
CircleSize:4.1
OverallDifficulty:8.6
ApproachRate:9.2
SliderMultiplier:1.7
SliderTickRate:1

[Events]
//Background and Video events
0,0,"1144135.jpg",0,0
Video,-774,"Avant Video.m4v"
//Break Periods
//Storyboard Layer 0 (Background)
//Storyboard Layer 1 (Fail)
//Storyboard Layer 2 (Pass)
//Storyboard Layer 3 (Foreground)
//Storyboard Layer 4 (Overlay)
//Storyboard Sound Samples

[TimingPoints]
346,322.58064516129,4,2,77,60,1,0
346,-125,4,2,77,60,0,0
10668,-100,4,2,77,70,0,0
21233,-100,4,2,77,5,0,0
21313,-100,4,2,77,70,0,0
21716,-100,4,2,77,5,0,0
21797,-100,4,2,77,70,0,0
22200,-100,4,2,77,5,0,0
22281,-100,4,2,77,70,0,0
22684,-100,4,2,77,5,0,0
22765,-100,4,2,77,70,0,0
23571,-125,4,2,77,60,0,0
32523,-1000,4,2,77,5,0,0
33894,-100,4,2,77,70,0,0
44216,-166.666666666667,4,2,77,60,0,0
49378,-100,4,2,77,70,0,0
54539,-83.3333333333333,4,2,77,80,0,1
59136,-83.3333333333333,4,2,77,10,0,1
59216,-83.3333333333333,4,2,77,80,0,1
69458,-83.3333333333333,4,2,77,10,0,1
69541,-83.3333333333333,4,2,77,80,0,1
75184,-100,4,2,77,70,0,0
76152,-250,4,2,77,70,0,0
79055,-1000,4,2,77,5,0,0

[Colours]
Combo1 : 149,255,173
Combo2 : 184,149,255
Combo3 : 255,221,149
Combo4 : 149,197,255

[HitObjects]
185,384,346,6,0,L|101:353,1,68,2|0,3:2|0:0,0:0:0:0:
59,239,668,2,0,L|143:270,1,68,2|0,3:2|0:0,0:0:0:0:
259,323,991,1,2,3:2:0:0:
320,281,1152,1,2,2:0:0:0:
387,313,1313,1,2,3:2:0:0:
443,263,1475,1,2,2:0:0:0:
360,155,1636,6,0,L|276:186,1,68,0|2,3:0|2:0,0:0:0:0:
172,123,1958,2,0,L|256:92,1,68,2|0,3:2|0:0,0:0:0:0:
154,13,2281,1,2,3:2:0:0:
79,17,2442,1,2,2:0:0:0:
16,58,2604,1,2,3:2:0:0:
0,135,2765,1,2,2:0:0:0:
0,135,2845,1,2,0:3:0:0:
0,135,2926,6,0,L|24:220,1,68,2|0,3:2|0:0,0:0:0:0:
131,224,3249,2,0,L|107:139,1,68,2|0,3:2|0:0,0:0:0:0:
256,218,3571,1,2,3:2:0:0:
212,279,3733,1,2,2:0:0:0:
232,350,3894,1,2,3:2:0:0:
310,384,4055,1,2,2:0:0:0:
310,384,4136,1,2,0:3:0:0:
310,384,4216,6,0,L|394:353,1,68,2|2,3:2|2:0,0:0:0:0:
427,232,4538,2,0,L|343:263,1,68,2|0,3:2|0:0,0:0:0:0:
363,255,4781,1,2,0:3:0:0:
363,255,4862,1,2,3:2:0:0:
262,179,5023,1,2,2:0:0:0:
262,179,5104,1,2,0:3:0:0:
262,179,5184,2,0,L|346:148,1,68,2|2,3:2|2:0,0:0:0:0:
420,57,5507,6,0,L|448:131,1,68,2|0,3:2|0:0,0:0:0:0:
511,238,5829,2,0,L|483:312,1,68,2|0,3:2|0:0,0:0:0:0:
376,220,6152,1,0,3:0:0:0:
324,349,6313,1,2,2:0:0:0:
324,349,6394,1,2,0:3:0:0:
324,349,6475,2,0,L|238:321,1,68,2|0,3:2|0:0,0:0:0:0:
124,316,6797,6,0,L|41:347,1,68,0|0,3:0|0:0,0:0:0:0:
95,207,7120,2,0,L|176:238,1,68,2|0,3:2|0:0,0:0:0:0:
158,231,7362,1,2,0:3:0:0:
158,231,7443,1,0,3:2:0:0:
104,116,7604,1,2,2:0:0:0:
104,116,7684,1,2,0:3:0:0:
104,116,7765,2,0,L|185:85,1,68,2|0,3:2|0:0,0:0:0:0:
287,29,8087,6,0,L|268:105,1,68,0|0,3:0|0:0,0:0:0:0:
174,191,8410,2,0,L|193:267,1,68,2|0,3:2|0:0,0:0:0:0:
299,339,8733,2,0,L|318:263,1,68,0|0,3:0|0:0,0:0:0:0:
383,155,9055,1,2,3:2:0:0:
190,256,9216,1,2,3:2:0:0:
0,40,10668,6,0,P|37:15|81:16,1,85,6|0,3:2|0:0,0:0:0:0:
229,83,10991,1,10,2:0:0:0:
23,169,11152,2,0,P|60:194|104:193,1,85,2|0,2:0|3:0,0:0:0:0:
229,83,11475,1,2,3:2:0:0:
340,211,11636,1,8,2:0:0:0:
233,342,11797,6,0,B|192:214|192:214|231:245,1,170,2|2,3:2|3:2,0:0:0:0:
381,370,12281,1,8,2:0:0:0:
476,224,12442,2,0,L|456:306,1,85,2|0,2:0|3:0,0:0:0:0:
462,200,12765,1,2,3:2:0:0:
327,299,12926,1,8,2:0:0:0:
182,219,13087,6,0,P|135:215|93:243,1,85,2|0,3:2|0:0,0:0:0:0:
0,384,13410,1,2,3:2:0:0:
176,313,13571,2,0,P|213:294|302:380,1,170,10|0,2:0|3:0,0:0:0:0:
454,287,14055,1,0,3:0:0:0:
328,173,14216,1,8,2:0:0:0:
467,39,14378,6,0,B|493:158|493:158|448:100,1,170,2|2,3:2|3:2,0:0:0:0:
333,8,14862,1,10,2:0:0:0:
293,78,15023,1,6,3:2:0:0:
403,206,15184,1,2,2:0:0:0:
363,276,15345,1,2,3:2:0:0:
503,372,15507,1,10,2:0:0:0:
363,276,15668,1,8,2:0:0:0:
323,291,15749,1,8,2:0:0:0:
284,308,15829,6,0,L|187:280,1,85,6|2,3:2|2:0,0:0:0:0:
41,228,16152,1,10,2:0:0:0:
287,159,16313,2,0,L|190:187,1,85,2|0,2:0|3:0,0:0:0:0:
41,228,16636,1,2,3:2:0:0:
186,316,16797,1,8,2:0:0:0:
377,215,16958,6,0,B|413:345|413:345|382:312,1,170,2|2,3:2|3:2,0:0:0:0:
284,188,17442,1,8,2:0:0:0:
471,202,17604,2,0,L|444:109,1,85,2|0,2:0|3:0,0:0:0:0:
483,222,17926,1,2,3:2:0:0:
512,42,18087,1,8,2:0:0:0:
363,133,18249,6,0,P|308:125|270:93,1,85,2|0,3:2|0:0,0:0:0:0:
154,0,18571,1,2,3:2:0:0:
46,132,18733,2,0,P|106:154|181:79,1,170,10|0,2:0|3:0,0:0:0:0:
305,242,19216,1,0,3:0:0:0:
154,322,19378,1,8,2:0:0:0:
395,384,19539,6,0,B|435:254|435:254|401:293,1,170,6|0,3:2|3:0,0:0:0:0:
262,361,20023,5,8,2:0:0:0:
154,322,20184,1,0,3:0:0:0:
19,218,20345,5,8,2:0:0:0:
181,169,20507,1,8,2:0:0:0:
221,181,20587,1,8,2:0:0:0:
262,193,20668,1,8,2:0:0:0:
303,205,20748,1,8,2:0:0:0:
344,217,20829,1,8,2:0:0:0:
384,229,20910,1,8,2:0:0:0:
425,241,20991,6,0,P|479:216|484:148,1,127.5,6|0,3:2|0:0,0:0:0:0:
486,153,21313,1,0,3:0:0:0:
382,17,21475,6,0,B|337:39|337:39|319:75|319:75|266:104,1,127.5,14|0,2:0|0:0,0:0:0:0:
286,92,21797,1,0,3:0:0:0:
142,3,21958,6,0,L|99:159,1,127.5,14|0,2:0|0:0,0:0:0:0:
108,125,22281,1,0,3:0:0:0:
1,257,22442,6,0,B|46:279|46:279|64:315|64:315|117:344,1,127.5,14|0,2:0|0:0,0:0:0:0:
97,333,22764,1,0,3:0:0:0:
250,213,22926,5,12,2:0:0:0:
0,384,23087,1,12,2:0:0:0:
250,213,23571,6,0,B|277:258|277:258|235:333,1,136,2|2,3:2|3:2,0:0:0:0:
404,329,24055,2,0,L|327:306,1,68,2|0,2:0|3:0,0:0:0:0:
450,258,24378,2,0,L|373:235,1,68,2|0,2:0|3:0,0:0:0:0:
325,131,24700,1,2,2:0:0:0:
378,38,24862,6,0,L|434:173,1,136,0|0,3:0|3:0,0:0:0:0:
364,282,25345,1,2,2:0:0:0:
300,230,25507,1,2,3:2:0:0:
226,324,25668,1,2,2:0:0:0:
173,261,25829,1,2,3:2:0:0:
41,362,25991,1,2,2:0:0:0:
20,282,26152,6,0,B|75:279|75:279|142:349,1,136,0|0,3:0|3:0,0:0:0:0:
38,202,26636,1,2,2:0:0:0:
101,150,26797,1,2,3:2:0:0:
15,62,26958,1,2,2:0:0:0:
78,10,27119,1,2,3:2:0:0:
182,114,27281,6,0,L|247:94,1,68,2|0,2:0|3:0,0:0:0:0:
337,11,27604,2,0,L|402:31,1,68,2|0,2:0|3:0,0:0:0:0:
512,127,27926,1,8,0:3:0:0:
512,127,28007,1,8,0:3:0:0:
512,127,28087,1,4,0:3:0:0:
404,210,28249,1,4,0:3:0:0:
512,384,28410,1,8,3:2:0:0:
512,384,28571,1,2,2:0:0:0:
401,303,28733,6,0,L|331:337,1,68,2|2,3:2|2:0,0:0:0:0:
217,384,29055,1,2,3:2:0:0:
217,384,29216,2,0,L|147:350,1,68,2|0,2:0|3:0,0:0:0:0:
28,304,29539,2,0,L|58:395,1,68,2|0,2:0|3:0,0:0:0:0:
127,256,29862,1,2,2:0:0:0:
127,256,29942,1,2,0:3:0:0:
127,256,30023,6,0,L|157:165,1,68,0|0,3:0|0:0,0:0:0:0:
24,136,30345,2,0,L|-6:45,1,68,0|2,3:0|2:0,0:0:0:0:
126,13,30668,1,2,3:2:0:0:
94,87,30829,1,2,2:0:0:0:
159,136,30991,1,2,3:2:0:0:
251,25,31152,1,2,2:0:0:0:
251,25,31233,1,2,0:3:0:0:
251,25,31313,6,0,P|292:59|375:36,1,136,0|0,3:0|3:0,0:0:0:0:
510,166,31797,1,2,2:0:0:0:
510,166,31958,1,2,3:2:0:0:
431,279,32120,1,2,0:3:0:0:
431,279,32200,1,2,0:3:0:0:
431,279,32281,1,2,3:2:0:0:
276,186,32442,1,2,3:0:0:0:
276,186,33894,5,6,3:2:0:0:
181,283,34055,1,2,2:0:0:0:
47,178,34216,1,10,2:0:0:0:
0,342,34378,2,0,B|36:356|36:356|54:354|54:354|92:367,1,85,2|0,2:0|3:0,0:0:0:0:
95,255,34700,1,2,2:0:0:0:
208,382,34862,1,8,2:0:0:0:
353,295,35023,6,0,P|292:229|196:237,1,170,2|0,3:2|3:0,0:0:0:0:
78,127,35507,1,8,2:0:0:0:
146,176,35668,1,2,2:0:0:0:
237,33,35829,1,2,3:2:0:0:
305,82,35991,1,2,2:0:0:0:
462,18,36152,1,10,2:0:0:0:
507,181,36313,6,0,B|460:197|427:152|427:152|374:183|331:142,1,170,2|0,3:2|3:0,0:0:0:0:
185,121,36797,1,8,2:0:0:0:
261,225,36958,1,2,2:0:0:0:
261,225,37039,1,2,0:3:0:0:
261,225,37120,1,0,3:0:0:0:
160,216,37281,1,2,2:0:0:0:
304,127,37442,1,10,2:0:0:0:
162,30,37604,6,0,P|79:40|25:122,1,170,2|2,3:2|3:2,0:0:0:0:
40,273,38087,1,8,2:0:0:0:
132,134,38249,1,2,3:2:0:0:
132,134,38329,1,2,0:3:0:0:
132,134,38410,1,2,0:3:0:0:
218,231,38571,1,2,3:2:0:0:
378,173,38733,1,8,2:0:0:0:
208,233,38894,1,8,2:0:0:0:
359,310,39055,5,2,3:2:0:0:
418,257,39216,1,2,2:0:0:0:
286,147,39378,1,10,2:0:0:0:
345,94,39539,2,0,B|380:103|380:103|396:120|396:120|432:131,1,85,2|0,2:0|3:0,0:0:0:0:
397,20,39862,1,2,2:0:0:0:
511,144,40023,1,8,2:0:0:0:
395,268,40184,6,0,L|212:221,1,170,2|0,3:2|3:0,0:0:0:0:
103,111,40668,1,8,2:0:0:0:
0,214,40829,1,2,2:0:0:0:
0,214,40910,1,2,0:3:0:0:
0,214,40990,1,2,3:2:0:0:
93,283,41152,1,2,2:0:0:0:
236,191,41313,1,10,2:0:0:0:
358,347,41475,6,0,B|405:336|418:290|418:290|461:318|498:299,1,170,2|0,3:2|3:0,0:0:0:0:
368,187,41958,1,8,2:0:0:0:
326,256,42120,1,2,2:0:0:0:
167,195,42281,1,2,3:2:0:0:
125,264,42443,1,0,3:0:0:0:
1,147,42604,1,10,2:0:0:0:
123,29,42765,6,0,L|214:56,1,85,2|0,3:2|0:0,0:0:0:0:
81,170,43087,1,2,3:2:0:0:
212,278,43249,1,8,2:0:0:0:
313,141,43410,2,0,L|222:177,1,85,8|0,0:3|0:0,0:0:0:0:
345,237,43733,1,4,0:3:0:0:
444,160,43894,1,4,0:3:0:0:
313,59,44055,1,2,2:0:0:0:
313,59,44216,6,0,L|205:106,1,101.999996887207,6|0,3:2|0:0,0:0:0:0:
66,53,44700,1,2,2:0:0:0:
66,53,44862,2,0,P|23:25|-22:31,2,76.4999976654053,10|2|2,2:0|2:0|2:0,0:0:0:0:
5,104,45426,1,2,3:0:0:0:
8,112,45507,6,0,L|36:223,1,101.999996887207,2|0,3:2|0:0,0:0:0:0:
128,175,46152,5,10,2:0:0:0:
32,294,46394,5,2,3:2:0:0:
157,382,46636,5,2,2:0:0:0:
157,382,46797,2,0,P|205:365|266:372,1,101.999996887207,2|0,3:2|0:0,0:0:0:0:
218,272,47281,1,2,2:0:0:0:
218,272,47442,5,10,2:0:0:0:
344,357,47684,5,2,3:2:0:0:
512,305,47926,5,2,3:2:0:0:
512,305,48087,1,2,3:2:0:0:
426,183,48329,5,2,2:0:0:0:
426,183,48410,2,0,L|408:237,1,50.9999984436036,0|2,3:0|2:0,0:0:0:0:
295,276,48733,2,0,L|257:162,1,101.999996887207,10|0,2:0|0:0,0:0:0:0:
157,57,49216,1,10,2:0:0:0:
197,42,49297,1,8,2:0:0:0:
236,25,49378,6,0,L|403:78,1,170,6|0,3:2|3:0,0:0:0:0:
497,215,49862,5,10,2:0:0:0:
339,150,50023,1,2,3:2:0:0:
261,210,50184,1,0,3:0:0:0:
421,88,50345,5,10,2:0:0:0:
263,23,50506,1,2,3:2:0:0:
185,83,50667,1,0,3:0:0:0:
339,150,50829,5,10,2:0:0:0:
216,195,50991,1,2,3:2:0:0:
67,278,51152,5,8,2:0:0:0:
190,323,51314,1,2,3:2:0:0:
0,194,51475,5,8,3:0:0:0:
20,112,51636,1,8,0:3:0:0:
38,28,51797,1,4,0:3:0:0:
222,203,51958,5,6,3:2:0:0:
441,70,52120,5,8,2:0:0:0:
428,91,52200,1,8,2:0:0:0:
410,109,52281,1,10,3:2:0:0:
380,126,52362,1,8,2:0:0:0:
346,128,52442,1,10,2:0:0:0:
307,108,52523,1,8,2:0:0:0:
274,80,52604,1,8,3:2:0:0:
233,49,52684,1,8,2:0:0:0:
184,32,52765,1,8,2:0:0:0:
134,41,52845,1,8,2:0:0:0:
89,80,52926,2,0,B|69:124|69:124|84:165,1,85,14|0,3:2|0:0,0:0:0:0:
180,383,53249,5,8,3:2:0:0:
323,172,53410,1,8,3:2:0:0:
323,172,53894,5,8,3:2:0:0:
93,62,54055,1,8,3:2:0:0:
323,172,54539,6,0,P|378:107|492:119,1,203.999993774414,4|8,3:1|2:0,0:0:0:0:
307,19,55023,2,0,B|265:30|265:30|252:51|252:51|214:67,1,101.999996887207,2|0,3:2|0:0,0:0:0:0:
426,205,55345,1,0,3:0:0:0:
245,301,55507,2,0,B|287:312|287:312|300:333|300:333|338:349,1,101.999996887207,10|0,2:0|0:0,0:0:0:0:
331,346,55749,1,2,0:3:0:0:
331,346,55829,1,2,0:3:0:0:
205,208,55991,5,2,3:2:0:0:
85,372,56152,2,0,B|43:361|43:361|30:340|30:340|-8:324,1,101.999996887207,8|0,2:0|0:0,0:0:0:0:
143,289,56475,1,2,3:2:0:0:
0,201,56636,1,2,3:2:0:0:
144,57,56797,1,10,2:0:0:0:
13,0,56958,1,2,2:0:0:0:
13,0,57039,1,2,0:3:0:0:
13,0,57120,6,0,L|39:100,1,101.999996887207,2|0,3:0|0:0,0:0:0:0:
174,216,57442,1,10,2:0:0:0:
247,79,57604,2,0,L|148:49,1,101.999996887207,2|0,2:0|3:0,0:0:0:0:
296,177,57926,1,2,3:2:0:0:
457,52,58087,1,8,2:0:0:0:
509,250,58249,6,0,L|477:365,1,101.999996887207,2|0,3:2|0:0,0:0:0:0:
280,382,58571,2,0,L|312:267,1,101.999996887207,2|8,3:2|2:0,0:0:0:0:
89,173,58894,2,0,L|40:344,1,152.999995330811,6|0,3:2|0:0,0:0:0:0:
0,384,59216,1,2,3:2:0:0:
158,254,59378,1,8,2:0:0:0:
16,107,59539,1,10,2:0:0:0:
8,132,59619,1,8,2:0:0:0:
3,156,59700,6,0,P|62:161|141:47,1,203.999993774414,4|10,3:2|2:0,0:0:0:0:
319,0,60184,2,0,L|426:31,1,101.999996887207,2|0,3:2|0:0,0:0:0:0:
238,160,60506,1,2,3:2:0:0:
401,282,60668,2,0,B|286:318,1,101.999996887207,10|0,2:0|0:0,0:0:0:0:
303,312,60910,1,2,0:3:0:0:
303,312,60990,1,2,0:3:0:0:
482,361,61152,5,0,3:0:0:0:
346,209,61313,1,10,2:0:0:0:
484,57,61475,2,0,L|518:173,1,101.999996887207,6|0,3:2|0:0,0:0:0:0:
349,32,61797,1,2,3:2:0:0:
208,179,61958,1,8,2:0:0:0:
38,26,62120,1,10,2:0:0:0:
30,51,62200,1,8,2:0:0:0:
25,75,62281,6,0,L|53:194,1,101.999996887207,4|0,3:2|3:0,0:0:0:0:
181,330,62604,5,10,2:0:0:0:
337,277,62765,1,0,3:0:0:0:
506,163,62926,5,10,2:0:0:0:
350,110,63087,1,0,3:0:0:0:
512,0,63249,5,10,2:0:0:0:
512,0,63410,1,4,3:2:0:0:
350,110,63571,6,0,B|311:103|311:103|291:84|291:84|246:77,1,101.999996887207,2|0,2:0|3:0,0:0:0:0:
67,0,63894,1,8,2:0:0:0:
165,41,64055,1,2,3:2:0:0:
0,243,64217,5,8,3:2:0:0:
13,215,64297,1,8,2:0:0:0:
40,194,64378,1,10,2:2:0:0:
77,191,64459,1,8,2:0:0:0:
113,212,64539,1,10,3:2:0:0:
149,238,64620,1,8,2:0:0:0:
199,238,64701,1,8,2:2:0:0:
246,218,64781,1,8,2:0:0:0:
284,179,64862,6,0,B|374:169|364:270|490:233,1,203.999993774414,4|8,3:1|2:0,0:0:0:0:
290,328,65345,2,0,P|228:319|197:280,1,101.999996887207,2|0,3:2|0:0,0:0:0:0:
438,146,65668,1,0,3:0:0:0:
234,59,65829,2,0,P|269:22|324:23,1,101.999996887207,10|0,2:0|0:0,0:0:0:0:
317,20,66071,1,2,0:3:0:0:
317,20,66151,1,2,0:3:0:0:
215,198,66313,5,2,3:2:0:0:
96,30,66475,2,0,L|-4:63,1,101.999996887207,8|0,2:0|0:0,0:0:0:0:
199,99,66797,1,2,3:2:0:0:
59,176,66958,1,2,3:2:0:0:
193,330,67120,1,10,2:0:0:0:
8,384,67281,1,2,2:0:0:0:
8,384,67362,1,2,0:3:0:0:
8,384,67442,6,0,L|46:279,1,101.999996887207,2|0,3:0|0:0,0:0:0:0:
202,160,67765,1,10,2:0:0:0:
234,318,67926,2,0,L|120:358,1,101.999996887207,2|0,2:0|3:0,0:0:0:0:
289,214,68249,1,2,3:2:0:0:
116,106,68410,1,8,2:0:0:0:
292,5,68571,6,0,L|329:122,1,101.999996887207,6|0,3:2|0:0,0:0:0:0:
480,232,68894,2,0,L|517:115,1,101.999996887207,2|8,3:2|2:0,0:0:0:0:
338,319,69216,2,0,P|285:275|200:292,1,152.999995330811,6|0,3:2|0:0,0:0:0:0:
134,340,69539,1,2,3:2:0:0:
269,187,69700,1,8,2:0:0:0:
149,20,69862,1,10,2:0:0:0:
140,55,69942,1,8,2:0:0:0:
132,90,70023,6,0,B|171:254|171:254|185:185,1,203.999993774414,4|8,3:2|2:0,0:0:0:0:
304,57,70507,1,2,3:2:0:0:
232,149,70668,1,2,2:0:0:0:
404,223,70829,1,2,3:2:0:0:
215,357,70991,1,10,2:0:0:0:
351,384,71152,1,2,2:0:0:0:
351,384,71233,1,2,0:3:0:0:
351,384,71313,6,0,L|312:261,1,101.999996887207,2|0,2:0|3:0,0:0:0:0:
497,184,71636,1,10,2:0:0:0:
348,44,71797,2,0,L|454:26,1,101.999996887207,2|0,3:2|0:0,0:0:0:0:
349,168,72120,1,2,3:2:0:0:
190,40,72281,1,10,2:0:0:0:
28,164,72442,1,8,2:0:0:0:
62,174,72522,1,8,2:0:0:0:
96,184,72604,6,0,B|248:150|248:150|167:137,1,203.999993774414,4|8,3:2|2:0,0:0:0:0:
101,96,73087,1,2,3:2:0:0:
247,239,73249,5,8,3:2:0:0:
95,375,73410,1,2,3:2:0:0:
0,261,73571,5,10,2:0:0:0:
192,329,73733,1,2,3:2:0:0:
152,21,73894,5,14,3:2:0:0:
36,188,74055,1,0,3:0:0:0:
158,31,74216,5,10,2:0:0:0:
118,273,74378,1,2,3:2:0:0:
158,31,74539,5,8,3:2:0:0:
227,307,74700,1,0,3:0:0:0:
159,24,74862,5,10,2:0:0:0:
346,290,75023,1,0,3:0:0:0:
159,17,75184,6,0,L|133:124,1,85,6|0,3:2|0:0,0:0:0:0:
259,271,75507,1,8,2:0:0:0:
422,149,75668,2,0,L|397:54,1,85,4|0,3:2|0:0,0:0:0:0:
226,175,75991,1,8,2:0:0:0:
432,345,76152,6,0,B|497:367|527:202|363:183|328:317|328:317|332:314|332:314|324:314|324:314|329:314|329:314|278:430|134:392|179:239|268:274,1,612,4|0,3:1|0:0,0:0:0:0:
