osu file format v14

[General]
AudioFilename: audio.mp3
AudioLeadIn: 0
PreviewTime: 54216
Countdown: 0
SampleSet: Soft
StackLeniency: 0.7
Mode: 0
LetterboxInBreaks: 0
WidescreenStoryboard: 1

[Editor]
Bookmarks: 346,10668,23571,33894,44216,54539,76152,79055
DistanceSpacing: 0.3
BeatDivisor: 7
GridSize: 32
TimelineZoom: 1

[Metadata]
Title:Avant
TitleUnicode:アヴァン
Artist:Eve
ArtistUnicode:Eve
Creator:Nymphe
Version:Pepekcz's Easy
Source:呪術廻戦 ファントムパレード
Tags:廻人 kaizin kaijin 3rd Album jujutsu kaisen phantom parade theme opening mobile video game kang sae-byeok kiyoshi guarden kujinn reform ermi modding queue ermiku j-rock jrock rock japanese j-pop jpop pop kirishima- male vocals vocalist my angel ram my_angel_ram pepekcz
BeatmapID:3513200
BeatmapSetID:1717220

[Difficulty]
HPDrainRate:2.8
CircleSize:2.8
OverallDifficulty:3
ApproachRate:4
SliderMultiplier:0.899999999999999
SliderTickRate:1

[Events]
//Background and Video events
0,0,"thumb-1920-1124794.jpg",0,0
//Break Periods
//Storyboard Layer 0 (Background)
//Storyboard Layer 1 (Fail)
//Storyboard Layer 2 (Pass)
//Storyboard Layer 3 (Foreground)
//Storyboard Layer 4 (Overlay)
//Storyboard Sound Samples

[TimingPoints]
346,322.58064516129,4,2,22,42,1,0
346,-100,4,2,22,42,0,0
5507,-100,4,2,22,52,0,0
7845,-100,4,2,22,5,0,0
7926,-100,4,2,22,52,0,0
8007,-100,4,2,22,5,0,0
8087,-100,4,2,22,52,0,0
10668,-100,4,2,22,62,0,0
10910,-100,4,2,22,5,0,0
10991,-100,4,2,22,62,0,0
12039,-100,4,2,22,5,0,0
12120,-100,4,2,22,62,0,0
13329,-100,4,2,22,5,0,0
13410,-100,4,2,22,62,0,0
14620,-100,4,2,22,5,0,0
14701,-100,4,2,22,62,0,0
16071,-100,4,2,22,5,0,0
16152,-100,4,2,22,62,0,0
17200,-100,4,2,22,5,0,0
17281,-100,4,2,22,62,0,0
18491,-100,4,2,22,5,0,0
18572,-100,4,2,22,62,0,0
19781,-100,4,2,22,5,0,0
19862,-100,4,2,22,62,0,0
21233,-100,4,2,22,5,0,0
21313,-100,4,2,22,62,0,0
21394,-100,4,2,22,5,0,0
21475,-100,4,2,22,62,0,0
21716,-100,4,2,22,5,0,0
21797,-100,4,2,22,62,0,0
21878,-100,4,2,22,5,0,0
21958,-100,4,2,22,62,0,0
23571,-100,4,2,22,42,0,0
33894,-100,4,2,22,52,0,0
37845,-100,4,2,22,5,0,0
37926,-100,4,2,22,52,0,0
44216,-100,4,2,22,42,0,0
46313,-100,4,2,22,5,0,0
46394,-100,4,2,22,42,0,0
46555,-100,4,2,22,5,0,0
46636,-100,4,2,22,42,0,0
49378,-100,4,2,22,52,0,0
51958,-100,4,2,22,62,0,0
54216,-100,4,2,22,52,0,0
54539,-100,4,2,22,72,0,1
76071,-100,4,2,22,72,0,0
76152,-166.666666666667,4,2,22,72,0,0
76233,-166.666666666667,4,2,22,5,0,0
79055,-100,4,2,22,5,0,0

[Colours]
Combo1 : 255,191,191
Combo2 : 128,191,255
Combo3 : 21,138,255
Combo4 : 255,128,128

[HitObjects]
24,336,346,6,0,P|66:349|109:363,1,89.9999999999999,2|2,1:2|1:2,0:2:0:0:
184,312,991,2,0,P|226:298|269:284,1,89.9999999999999,2|2,1:2|1:2,0:0:0:0:
352,324,1636,2,0,P|394:337|437:351,2,89.9999999999999,0|2|2,1:2|1:2|1:2,0:0:0:0:
272,164,2926,5,2,1:2:0:0:
308,84,3249,2,0,P|352:40|464:60,1,180,2|2,1:2|1:2,0:2:0:0:
504,136,4216,2,0,P|494:177|484:224,1,89.9999999999999,2|2,1:2|1:2,0:2:0:0:
456,308,4862,2,0,P|412:317|368:327,1,89.9999999999999,2|0,1:2|1:2,0:0:0:0:
284,292,5507,5,2,1:2:0:0:
211,240,5829,2,0,P|123:221|35:202,2,180,2|2|2,1:2|1:2|1:2,0:2:0:0:
284,188,7442,2,0,P|329:177|376:168,1,89.9999999999999,2|2,1:2|1:2,0:0:0:0:
460,176,8087,5,2,1:2:0:0:
504,96,8410,2,0,P|506:60|472:16,1,89.9999999999999,6|2,1:2|1:2,0:2:0:0:
384,16,9055,2,0,L|328:32,1,45,6|2,1:2|1:2,0:0:0:0:
0,20,10668,6,0,P|12:81|28:152,1,135,6|2,1:2|0:2,0:2:0:0:
24,244,11475,1,2,1:2:0:0:
80,312,11797,2,0,P|124:321|188:336,1,89.9999999999999,2|2,1:2|1:2,0:2:0:0:
244,284,12442,2,0,P|287:274|331:264,2,89.9999999999999,2|2|2,0:2|1:2|1:2,0:2:0:0:
172,232,13410,6,0,L|160:180,1,45,2|10,1:2|0:2,0:0:0:0:
192,104,13894,2,0,P|224:76|312:84,2,135,2|2|10,1:2|1:2|0:2,0:0:0:0:
161,188,15184,1,0,0:0:0:0:
152,277,15507,1,10,0:2:0:0:
230,321,15829,6,0,P|295:335|361:350,1,135,6|2,1:2|0:2,0:2:0:0:
444,312,16636,1,2,1:2:0:0:
500,242,16958,2,0,P|508:202|480:146,1,89.9999999999999,2|2,1:2|1:2,0:2:0:0:
424,96,17604,2,0,P|416:56|444:0,2,89.9999999999999,2|2|2,0:2|1:2|1:2,0:2:0:0:
400,184,18571,6,0,L|336:168,1,45,2|10,1:2|0:2,0:0:0:0:
276,132,19055,2,0,P|210:147|144:164,2,135,2|6|10,1:2|1:2|0:2,0:0:0:0:
344,76,20345,2,0,P|400:56|472:136,1,180,6|6,1:2|1:2,0:2:0:0:
444,268,21475,6,0,P|378:283|312:300,1,135,14|14,0:2|0:2,0:2:0:0:
232,344,22281,2,0,P|186:332|131:320,1,89.9999999999999,2|4,1:2|1:2,0:2:0:0:
72,268,22926,2,0,L|84:216,1,45,10|10,0:2|0:2,0:0:0:0:
56,92,23571,6,0,B|100:112|152:88|132:64|172:36|232:56,1,180,6|2,1:2|1:2,0:2:0:0:
300,100,24539,2,0,P|346:85|396:72,1,89.9999999999999,0|0,1:2|0:0,0:0:0:0:
504,212,25507,1,2,0:2:0:0:
449,283,25829,1,2,1:2:0:0:
359,293,26152,6,0,P|271:273|183:254,1,180,0|2,0:0|1:2,0:0:0:0:
98,284,27120,2,0,P|57:231|79:160,1,135,2|2,1:2|0:2,0:0:0:0:
143,112,27926,2,0,P|208:91|273:74,1,135,10|10,1:3|1:2,0:0:0:0:
360,96,28733,6,0,P|350:138|340:188,1,89.9999999999999,6|2,1:2|1:2,0:2:0:0:
268,236,29378,2,0,P|277:278|288:328,1,89.9999999999999,0|0,1:2|1:2,0:0:0:0:
364,368,30023,2,0,P|460:348|496:268,1,180,0|2,0:0|1:2,0:0:0:0:
456,200,30991,1,2,1:2:0:0:
376,160,31313,6,0,P|330:146|272:132,2,89.9999999999999,0|0|2,0:0|1:2|1:2,0:0:0:0:
444,100,32281,2,0,L|500:84,1,45,10|14,0:2|0:2,0:0:0:0:
88,20,33894,6,0,P|77:58|64:124,1,89.9999999999999,6|10,1:2|0:2,0:2:0:0:
32,192,34539,2,0,P|45:258|58:324,1,135,0|2,1:2|1:2,0:0:0:0:
140,360,35345,2,0,L|196:348,1,45,2|8,1:2|0:2,0:0:0:0:
264,312,35829,6,0,P|328:325|404:344,2,135,2|2|8,1:2|1:2|0:2,0:0:0:0:
192,260,37120,2,0,P|160:208|184:132,1,135,2|2,1:2|1:2,0:2:0:0:
248,88,37926,1,2,1:2:0:0:
335,65,38249,1,2,1:2:0:0:
416,104,38571,2,0,L|432:164,1,45,2|8,1:2|0:2,0:0:0:0:
484,216,39055,6,0,P|473:256|460:308,1,89.9999999999999,6|10,1:2|0:2,0:2:0:0:
388,356,39700,2,0,P|321:358|263:325,1,135,0|2,1:2|1:2,0:0:0:0:
200,260,40507,2,0,L|144:272,1,45,2|8,1:2|0:2,0:0:0:0:
68,260,40991,6,0,P|32:312|40:384,2,135,2|6|8,1:2|1:2|3:2,0:2:0:0:
116,184,42281,2,0,P|127:115|140:52,1,135,2|6,1:2|1:2,0:2:0:0:
224,24,43087,1,2,1:2:0:0:
312,39,43410,1,10,1:3:0:0:
384,96,43733,2,0,P|371:162|359:228,1,135,10|6,1:3|1:2,0:0:0:0:
204,320,44862,6,0,P|186:231|168:143,1,180,10|2,0:2|1:2,0:2:0:0:
108,76,45829,1,0,3:2:0:0:
48,144,46152,2,0,P|29:232|12:320,1,180,10|2,0:2|1:2,0:2:0:0:
192,336,47442,6,0,P|236:321|292:308,1,89.9999999999999,10|0,0:2|1:2,0:2:0:0:
360,352,48087,2,0,P|403:363|446:376,1,89.9999999999999,2|0,1:2|3:2,0:2:0:0:
512,312,48733,2,0,P|496:223|478:135,1,180,14|6,0:2|1:2,0:2:0:0:
420,68,49700,5,0,1:2:0:0:
336,32,50023,2,0,P|269:42|202:54,1,135,2|2,1:2|1:2,0:2:0:0:
112,56,50829,2,0,P|88:88|84:156,1,89.9999999999999,10|10,0:2|0:2,0:0:0:0:
108,220,51475,2,0,P|175:236|260:260,1,135,10|14,1:3|0:2,0:2:0:0:
308,312,52281,6,0,P|376:320|440:220,1,180,10|6,0:2|1:2,0:0:0:0:
452,152,53249,2,0,L|440:100,1,45,8|8,0:2|0:2,0:0:0:0:
316,60,53894,2,0,L|305:103,1,45,8|8,0:2|0:2,0:0:0:0:
188,168,54539,6,0,P|175:100|160:28,2,135,6|2|10,1:2|1:2|0:2,0:2:0:0:
200,304,55991,2,0,P|164:356|92:356,1,135,2|2,1:2|1:2,0:0:0:0:
40,288,56797,1,10,0:2:0:0:
64,200,57120,5,0,1:2:0:0:
28,116,57442,2,0,P|93:99|159:84,1,135,10|2,0:2|1:2,0:0:0:0:
244,120,58249,2,0,P|304:116|340:92,1,89.9999999999999,2|2,1:2|1:2,0:2:0:0:
396,40,58894,2,0,P|464:40|516:100,1,135,6|8,1:2|0:2,0:2:0:0:
492,172,59700,5,6,1:2:0:0:
504,260,60023,2,0,L|492:308,1,45,10|2,0:2|1:2,0:0:0:0:
416,348,60507,2,0,P|352:332|284:316,1,135,2|2,1:2|3:2,0:0:0:0:
228,248,61313,2,0,L|240:196,1,45,10|6,0:2|0:2,0:0:0:0:
300,136,61797,2,0,P|304:80|240:32,1,135,2|4,1:2|1:2,0:0:0:0:
156,24,62604,5,10,0:2:0:0:
76,68,62926,2,0,P|69:111|60:168,1,89.9999999999999,10|10,0:2|0:2,0:0:0:0:
108,236,63571,2,0,P|121:303|132:368,2,135,0|0|8,0:0|0:2|0:2,0:0:0:0:
61,156,64862,6,0,P|72:89|85:23,2,135,6|2|10,1:2|1:2|0:2,0:2:0:0:
188,204,66313,2,0,P|254:216|320:230,1,135,2|2,1:2|1:2,0:0:0:0:
404,268,67120,1,10,0:2:0:0:
476,216,67442,5,4,1:2:0:0:
496,128,67765,2,0,P|456:76|376:76,1,135,10|2,0:2|1:2,0:0:0:0:
312,112,68571,2,0,P|269:101|212:88,1,89.9999999999999,6|2,1:2|1:2,0:2:0:0:
160,28,69216,2,0,P|96:44|28:64,1,135,6|10,1:2|0:2,0:2:0:0:
4,152,70023,5,6,1:2:0:0:
36,236,70345,2,0,P|79:246|132:260,1,89.9999999999999,8|2,0:2|3:2,0:0:0:0:
208,228,70991,1,10,0:2:0:0:
276,288,71313,2,0,P|336:324|412:304,1,135,2|2,3:2|1:2,0:2:0:0:
460,248,72120,2,0,L|472:196,1,45,2|10,1:2|0:2,0:0:0:0:
460,116,72604,6,0,P|413:104|368:96,1,89.9999999999999,6|8,1:2|0:2,0:2:0:0:
296,48,73249,1,10,0:2:0:0:
224,100,73571,1,10,0:2:0:0:
148,52,73894,2,0,P|108:32|44:44,1,89.9999999999999,10|10,0:2|0:2,0:0:0:0:
24,116,74539,2,0,P|36:160|48:212,1,89.9999999999999,8|10,0:2|0:2,0:0:0:0:
92,280,75184,6,0,P|156:284|216:236,1,135,6|6,1:2|1:2,0:2:0:0:
256,168,75991,2,0,L|320:184,1,45,10|6,0:2|1:2,0:0:0:0:
256,192,76313,12,0,79055,0:0:0:0:
