osu file format v14

[General]
AudioFilename: audio.mp3
AudioLeadIn: 0
PreviewTime: 67023
Countdown: 0
SampleSet: Soft
StackLeniency: 0.7
Mode: 0
LetterboxInBreaks: 0
WidescreenStoryboard: 0

[Editor]
DistanceSpacing: 1.5
BeatDivisor: 4
GridSize: 32
TimelineZoom: 4.599998

[Metadata]
Title:As You Like It
TitleUnicode:お気に召すまま
Artist:Eve
ArtistUnicode:Eve
Creator:Anishina Kodoku
Version:Hard
Source:
Tags:619 loreley nattu 文化 oki ni mesu mama okinimesumama vocaloid
BeatmapID:1805005
BeatmapSetID:841277

[Difficulty]
HPDrainRate:5
CircleSize:3.4
OverallDifficulty:6.5
ApproachRate:8
SliderMultiplier:1.6
SliderTickRate:1

[Events]
//Background and Video events
Video,-839,"eve.flv"
0,0,"evew.png",0,0
//Break Periods
2,96801,108872
//Storyboard Layer 0 (Background)
//Storyboard Layer 1 (Fail)
//Storyboard Layer 2 (Pass)
//Storyboard Layer 3 (Foreground)
//Storyboard Sound Samples

[TimingPoints]
7637,419.58041958042,4,2,0,60,1,0
7637,-125,4,2,0,60,0,0
8896,-125,4,2,0,60,0,0
9944,-125,4,2,0,60,0,0
10574,-125,4,2,0,60,0,0
12252,-125,4,2,0,60,0,0
13930,-125,4,2,0,60,0,0
14350,-117.647058823529,4,2,0,60,0,0
26937,441.176470588235,4,2,0,60,1,0
26937,-117.647058823529,4,2,0,60,0,0
27378,375,4,2,0,60,1,0
27565,454.545454545455,4,2,0,60,1,0
27792,389.61038961039,4,2,0,50,1,0
27986,419.58041958042,4,2,0,50,1,0
27986,-133.333333333333,4,2,0,50,0,0
29454,419.58041958042,4,2,0,50,1,0
29454,-133.333333333333,4,2,0,50,0,0
41203,-125,4,2,0,60,0,0
52950,441.176470588235,4,2,0,60,1,0
53391,400,4,2,0,60,1,0
53591,428.571428571429,4,2,0,60,1,0
54233,413.793103448276,4,2,0,60,1,0
54233,-125,4,2,0,60,0,0
54646,419.58041958042,4,2,0,60,1,0
54646,-166.666666666667,4,2,0,60,0,0
56316,419.58041958042,4,2,0,60,1,0
56316,-166.666666666667,4,2,0,60,0,0
66394,419.58041958042,4,2,0,60,1,0
66394,-111.111111111111,4,2,0,60,0,0
67233,-83.3333333333333,4,2,0,60,0,0
68064,419.58041958042,4,2,0,80,1,1
68064,-100,4,2,0,80,0,1
94917,-100,4,2,0,60,0,0
95332,419.58041958042,4,2,0,60,1,0
95332,-100,4,2,0,60,0,0
95774,431.654676258993,4,2,0,60,1,0
96182,419.58041958042,4,2,0,60,1,0
96602,419.58041958042,4,2,0,60,1,0
109622,419.58041958042,4,2,0,60,1,0
109622,-125,4,2,0,60,0,0
110041,419.58041958042,4,2,0,60,1,0
110041,-125,4,2,0,60,0,0
118426,419.58041958042,4,2,0,60,1,0
118426,-125,4,2,0,60,0,0
120943,-100,4,2,0,60,0,0
121363,400,4,2,0,60,1,0
121363,-90.9090909090909,4,2,0,60,0,0
123047,419.58041958042,4,2,0,60,1,0
123455,419.58041958042,4,2,0,80,1,1
123455,-100,4,2,0,80,0,1
150308,-250,4,2,0,60,0,0
155343,431.654676258993,4,2,0,60,1,0
155343,-250,4,2,0,60,0,0
157069,410.958904109589,4,2,0,60,1,0
158712,422.535211267606,4,2,0,60,1,0
160402,410.958904109589,4,2,0,60,1,0
162045,-500.000000000003,4,2,0,60,0,0
163074,-166.666666666667,4,2,0,60,0,0
163278,447.761194029851,4,2,0,60,1,0
163278,-200,4,2,0,60,0,0
163726,419.58041958042,4,2,0,60,1,0
163726,-166.666666666667,4,2,0,60,0,0
175054,447.761194029851,4,2,0,60,1,0
175501,419.58041958042,4,2,0,60,1,0
175920,-90.909090909091,4,2,0,60,0,0
176095,444.444444444444,4,2,0,60,1,0
176317,-166.666666666667,4,2,0,60,0,0
176529,416.666666666667,4,2,0,60,1,0
177154,419.58041958042,4,2,0,90,1,1
177154,-100,4,2,0,90,0,1
203167,-90.9090909090909,4,2,0,90,0,1
204007,-100,4,2,0,70,0,0

[Colours]
Combo1 : 248,211,171
Combo2 : 171,252,203
Combo3 : 175,221,254
Combo4 : 249,254,186
Combo5 : 240,80,80

[HitObjects]
218,327,7637,6,0,P|275:325|323:300,1,95.9999999999999,4|0,0:3|0:0,0:0:0:0:
357,304,8056,2,0,P|362:267|349:219,1,64,4|0,0:3|0:0,0:0:0:0:
416,163,8476,2,0,P|357:143|283:179,1,128,4|0,0:3|0:0,0:0:0:0:
103,138,9315,6,0,P|93:87|79:35,2,95.9999999999999,4|4|4,0:3|0:3|0:3,0:0:0:0:
51,219,10154,1,4,0:3:0:0:
229,290,10574,1,8,0:0:0:0:
55,372,10993,6,0,P|49:341|62:286,1,64,4|0,0:3|0:0,0:0:0:0:
86,218,11413,2,0,L|170:220,1,64,4|0,0:3|0:3,0:0:0:0:
232,268,11833,2,0,B|228:368|228:368|206:316,1,128,4|0,0:3|0:0,0:0:0:0:
351,205,12672,6,0,P|390:195|454:203,2,95.9999999999999,4|4|4,0:3|0:3|0:3,0:0:0:0:
321,296,13511,1,4,0:3:0:0:
371,111,13930,1,10,0:0:0:0:
179,40,14350,6,0,L|190:107,1,68.0000012969971,4|2,0:1|0:0,0:0:0:0:
92,76,14770,2,0,L|103:143,1,68.0000012969971,8|2,0:0|0:0,0:0:0:0:
61,236,15189,2,0,P|112:245|173:220,1,102.000001945496,4|0,0:3|0:0,0:0:0:0:
201,201,15609,2,0,P|252:192|313:217,1,102.000001945496,8|0,0:3|0:0,0:0:0:0:
314,255,16028,6,0,L|309:347,1,68.0000012969971,4|2,0:3|0:0,0:0:0:0:
403,366,16448,2,0,L|410:282,1,68.0000012969971,8|2,0:3|0:0,0:0:0:0:
449,204,16868,2,0,P|447:149|455:93,1,102.000001945496,4|0,0:3|0:0,0:0:0:0:
420,63,17287,2,0,P|365:64|308:57,1,102.000001945496,8|0,0:0|0:0,0:0:0:0:
273,33,17707,6,0,L|274:-22,2,34.0000006484985,4|0|2,0:3|0:0|0:0,0:0:0:0:
180,76,18126,2,0,L|193:173,1,68.0000012969971,8|2,0:0|0:0,0:0:0:0:
252,223,18546,2,0,B|205:245|205:245|150:235,1,102.000001945496,4|0,0:3|0:0,0:0:0:0:
106,224,18965,2,0,B|121:324,1,102.000001945496,8|0,0:3|0:0,0:0:0:0:
76,349,19385,6,0,L|36:360,2,34.0000006484985,4|0|2,0:3|0:0|0:0,0:0:0:0:
21,262,19805,2,0,L|10:188,1,68.0000012969971,8|10,0:3|0:0,0:0:0:0:
52,101,20224,1,4,0:3:0:0:
52,101,20329,1,0,0:0:0:0:
52,101,20434,1,10,0:0:0:0:
137,45,20644,2,0,L|152:131,1,68.0000012969971,8|2,0:0|0:0,0:0:0:0:
224,180,21063,6,0,L|299:164,1,68.0000012969971,4|2,0:3|0:0,0:0:0:0:
345,79,21483,2,0,L|420:63,1,68.0000012969971,8|2,0:0|0:0,0:0:0:0:
486,135,21903,2,0,P|503:180|503:246,1,102.000001945496,4|0,0:3|0:0,0:0:0:0:
472,273,22322,2,0,P|421:264|377:240,1,102.000001945496,8|0,0:3|0:0,0:0:0:0:
330,217,22742,6,0,L|319:306,1,68.0000012969971,4|2,0:3|0:0,0:0:0:0:
238,344,23161,2,0,L|229:276,1,68.0000012969971,8|2,0:3|0:0,0:0:0:0:
156,204,23581,2,0,L|99:198,2,34.0000006484985,4|0|10,0:3|0:0|0:3,0:0:0:0:
251,168,24000,2,0,P|260:118|249:68,1,102.000001945496,8|0,0:0|0:0,0:0:0:0:
285,32,24420,6,0,L|317:15,2,34.0000006484985,4|0|2,0:3|0:0|0:0,0:0:0:0:
182,23,24840,2,0,L|110:21,1,68.0000012969971,8|2,0:0|0:0,0:0:0:0:
114,123,25259,2,0,L|105:183,2,34.0000006484985,4|0|10,0:3|0:0|0:0,0:0:0:0:
208,163,25679,2,0,L|329:147,1,102.000001945496,8|0,0:3|0:0,0:0:0:0:
360,151,26098,6,0,P|381:198|375:268,1,102.000001945496,4|0,0:3|0:0,0:0:0:0:
355,292,26518,2,0,L|363:369,2,68.0000012969971,8|10|4,0:3|0:0|0:3,0:0:0:0:
259,256,27157,2,0,L|266:353,1,68.0000012969971,10|8,0:0|0:0,0:0:0:0:
320,74,27792,1,4,3:3:0:0:
226,98,27986,6,0,B|235:69|235:69|228:41,2,60.0000022888184,0|0|0,0:0|3:0|0:0,0:0:0:0:
142,66,28615,2,0,L|70:61,1,60.0000022888184,0|0,3:0|0:0,0:0:0:0:
63,150,29035,2,0,L|135:155,1,60.0000022888184,0|0,3:0|0:0,0:0:0:0:
193,210,29455,5,0,3:0:0:0:
288,57,29873,1,0,0:0:0:0:
390,204,30294,1,0,3:0:0:0:
387,294,30502,2,0,L|385:342,2,30.0000011444092,0|0|0,0:0|0:0|3:0,0:0:0:0:
448,124,31133,6,0,P|404:103|325:131,1,120.000004577637,0|0,3:0|3:0,0:0:0:0:
250,145,31761,1,0,0:0:0:0:
223,230,31972,2,0,P|179:251|100:223,1,120.000004577637,0|0,3:0|3:0,0:0:0:0:
76,153,32600,1,0,0:0:0:0:
156,110,32810,6,0,P|162:141|160:183,1,60.0000022888184,0|0,3:0|0:0,0:0:0:0:
77,139,33231,2,0,P|70:107|73:66,1,60.0000022888184,0|0,3:0|0:0,0:0:0:0:
142,24,33649,2,0,P|205:31|278:48,1,120.000004577637,0|0,3:0|3:0,0:0:0:0:
411,141,34488,5,0,3:0:0:0:
376,317,34908,1,0,3:0:0:0:
199,285,35329,1,0,3:0:0:0:
222,106,35747,1,0,3:0:0:0:
199,285,36168,5,0,3:0:0:0:
376,317,36586,1,0,3:0:0:0:
411,141,37007,2,0,P|365:136|343:144,1,60.0000022888184,0|0,3:0|0:0,0:0:0:0:
313,162,37322,1,0,0:0:0:0:
302,205,37427,2,0,L|306:272,1,60.0000022888184,0|0,3:0|0:0,0:0:0:0:
254,339,37845,6,0,P|229:309|128:295,1,120.000004577637,0|0,3:0|3:0,0:0:0:0:
69,320,38474,1,0,0:0:0:0:
33,237,38684,2,0,P|91:227|133:186,1,120.000004577637,0|0,3:0|3:0,0:0:0:0:
124,96,39315,1,0,0:0:0:0:
204,135,39523,6,0,L|280:144,1,60.0000022888184,0|0,3:0|0:0,0:0:0:0:
343,101,39944,2,0,L|363:55,2,30.0000011444092,0|0|0,3:0|0:0|0:0,0:0:0:0:
337,191,40364,2,0,P|328:249|331:292,1,90.0000034332277,0|0,3:0|0:0,0:0:0:0:
348,321,40782,1,8,3:1:0:0:
260,340,40993,1,8,0:1:0:0:
260,340,41098,1,8,0:1:0:0:
260,340,41203,6,0,B|178:333,1,64,4|0,0:3|0:0,0:0:0:0:
148,344,41516,1,8,0:1:0:0:
101,330,41621,2,0,P|98:290|105:245,1,64,0|8,3:0|0:1,0:0:0:0:
161,192,42042,2,0,B|241:191,1,64,4|8,0:3|0:1,0:0:0:0:
272,181,42357,1,0,0:0:0:0:
307,148,42460,2,0,P|310:124|307:92,2,32,0|8|0,0:0|0:1|0:0,0:0:0:0:
359,228,42880,6,0,L|432:222,1,64,4|2,0:3|0:0,0:0:0:0:
463,197,43196,1,8,0:1:0:0:
487,155,43301,2,0,L|481:75,1,64,0|0,3:0|0:0,0:0:0:0:
391,59,43719,2,0,L|397:128,1,64,4|8,0:3|0:1,0:0:0:0:
355,148,44035,1,0,0:0:0:0:
308,161,44140,2,0,L|276:160,2,32,0|8|0,3:0|0:1|0:0,0:0:0:0:
351,247,44558,6,0,P|356:278|349:312,1,64,4|0,0:3|0:0,0:0:0:0:
317,345,44873,1,8,0:1:0:0:
269,346,44979,2,0,L|184:346,1,64,0|8,3:0|0:1,0:0:0:0:
127,287,45399,2,0,L|125:208,1,64,4|0,0:3|0:0,0:0:0:0:
156,185,45712,1,0,0:0:0:0:
187,148,45817,2,0,L|240:141,2,32,0|8|0,3:0|0:1|0:0,0:0:0:0:
93,125,46238,6,0,L|91:37,1,64,4|2,0:3|0:0,0:0:0:0:
135,40,46551,1,8,0:1:0:0:
182,30,46656,2,0,L|272:28,1,64,0|10,3:0|0:0,0:0:0:0:
340,47,47077,1,4,0:3:0:0:
278,121,47287,1,8,0:1:0:0:
356,176,47495,2,0,L|412:176,2,32,0|8|0,3:0|0:1|0:0,0:0:0:0:
268,217,47915,6,0,P|266:246|275:289,1,64,4|0,0:3|0:0,0:0:0:0:
280,328,48231,1,8,0:1:0:0:
326,341,48336,2,0,L|405:331,1,64,0|8,3:0|0:1,0:0:0:0:
454,261,48754,2,0,L|445:171,1,64,4|8,3:0|0:1,0:0:0:0:
457,150,49070,1,0,0:0:0:0:
469,103,49175,2,0,L|470:49,2,32,0|8|0,3:0|0:1|0:0,0:0:0:0:
374,122,49593,6,0,B|345:134|345:134|302:126,1,64,4|2,0:3|0:0,0:0:0:0:
268,107,49908,1,8,0:1:0:0:
221,94,50014,2,0,L|222:166,1,64,0|10,3:0|0:0,0:0:0:0:
163,234,50434,1,4,0:3:0:0:
93,167,50642,1,8,0:1:0:0:
54,254,50852,2,0,L|39:296,2,32,0|8|0,3:0|0:1|0:0,0:0:0:0:
128,315,51273,6,0,L|211:317,1,64,4|0,0:3|0:0,0:0:0:0:
238,301,51586,1,8,0:1:0:0:
285,293,51691,2,0,B|363:293,1,64,0|8,3:0|0:1,0:0:0:0:
427,348,52112,1,4,0:3:0:0:
478,266,52322,1,8,0:1:0:0:
401,207,52530,1,0,3:0:0:0:
401,207,52635,1,8,0:1:0:0:
401,207,52740,1,0,3:0:0:0:
475,146,52951,6,0,P|478:100|489:37,1,80,4|0,0:3|0:0,0:0:0:0:
393,27,53391,2,0,P|335:68|313:78,1,80,4|2,0:3|0:0,0:0:0:0:
328,172,53805,2,0,P|392:200|412:215,1,80,4|0,0:3|0:0,0:0:0:0:
401,323,54233,2,0,L|398:354,2,32,8|8|12,0:1|0:1|0:3,0:0:0:0:
342,269,54646,6,0,B|235:255,2,95.9999970703126,4|4|4,3:1|0:3|0:3,0:0:0:0:
481,241,55904,1,8,0:0:0:0:
402,127,56316,6,0,B|491:117,2,71.9999978027344,4|4|4,0:3|0:3|0:3,0:0:0:0:
309,157,57155,2,0,L|302:106,1,47.9999985351563,4|0,0:3|0:0,0:0:0:0:
292,32,57574,2,0,P|295:67|297:92,1,47.9999985351563,8|0,0:0|0:0,0:0:0:0:
226,138,57993,6,0,B|130:148,2,95.9999970703126,4|4|4,0:3|0:3|0:3,0:0:0:0:
324,243,59252,1,8,0:0:0:0:
225,347,59672,6,0,L|223:278,1,47.9999985351563,4|0,0:3|0:0,0:0:0:0:
227,263,59986,1,4,0:3:0:0:
254,158,60301,1,4,0:3:0:0:
148,188,60511,2,0,P|106:199|84:231,1,71.9999978027344,4|0,0:3|0:0,0:0:0:0:
70,251,60931,2,0,B|17:247,1,47.9999985351563,8|0,0:0|0:0,0:0:0:0:
32,168,61350,6,0,P|26:122|15:62,2,95.9999970703126,4|4|4,0:3|0:3|0:3,0:0:0:0:
171,237,62609,2,0,L|123:244,1,47.9999985351563,8|0,0:0|0:0,0:0:0:0:
159,327,63028,6,0,L|247:308,2,71.9999978027344,4|4|4,0:3|0:3|0:3,0:0:0:0:
76,341,63868,1,4,0:3:0:0:
168,231,64287,2,0,P|166:191|154:147,1,71.9999978027344,8|0,0:0|0:0,0:0:0:0:
132,134,64707,6,0,L|25:108,2,95.9999970703126,4|4|4,0:3|0:3|0:3,0:0:0:0:
245,46,65966,1,8,0:0:0:0:
343,151,66394,2,0,L|334:233,1,71.9999978027344,4|0,0:3|0:3,0:0:0:0:
331,258,66813,1,0,0:0:0:0:
259,185,67023,1,12,0:3:0:0:
259,185,67128,1,0,0:3:0:0:
259,185,67233,6,0,B|215:171|215:171|162:193,1,95.9999970703126,12|0,0:3|0:3,0:0:0:0:
440,350,68064,6,0,L|444:268,1,80,4|2,0:1|0:0,0:0:0:0:
478,220,68378,1,0,0:0:0:0:
478,220,68483,2,0,L|482:138,1,80,8|2,0:0|0:0,0:0:0:0:
393,59,68903,2,0,B|356:45|356:45|318:60,1,80,4|10,0:3|0:0,0:0:0:0:
276,103,69217,1,0,0:0:0:0:
276,103,69322,2,0,L|275:142,1,40,8|0,0:3|0:0,0:0:0:0:
256,200,69532,6,0,B|149:189,1,80,10|4,0:0|0:3,0:0:0:0:
90,107,69951,1,2,0:0:0:0:
40,216,70161,2,0,L|47:313,1,80,8|2,0:0|0:0,0:0:0:0:
156,343,70581,2,0,P|198:345|251:336,1,80,4|2,0:3|0:0,0:0:0:0:
234,220,71000,2,0,P|191:217|138:227,1,80,8|2,0:0|0:0,0:0:0:0:
242,305,71420,6,0,B|345:296,1,80,4|2,0:3|0:0,0:0:0:0:
372,264,71735,1,0,0:0:0:0:
372,264,71840,2,0,L|475:250,1,80,8|2,0:0|0:0,0:0:0:0:
483,137,72259,2,0,P|481:97|465:61,1,80,4|10,0:3|0:0,0:0:0:0:
407,43,72574,1,0,0:0:0:0:
407,43,72679,2,0,L|342:60,1,40,8|0,0:3|0:0,0:0:0:0:
314,81,72889,2,0,L|321:160,1,80,10|4,0:0|0:3,0:0:0:0:
375,267,73308,5,2,0:0:0:0:
270,328,73518,2,0,P|232:338|193:333,1,80,8|2,0:0|0:0,0:0:0:0:
226,217,73937,2,0,P|187:206|148:211,1,80,4|2,0:3|0:0,0:0:0:0:
57,291,74357,1,8,0:0:0:0:
35,172,74567,1,2,0:0:0:0:
35,172,74672,1,0,0:0:0:0:
35,172,74777,6,0,L|48:69,1,80,4|2,0:3|0:0,0:0:0:0:
142,27,75196,1,8,0:0:0:0:
158,146,75406,1,2,0:0:0:0:
220,58,75616,2,0,P|266:52|307:59,1,80,4|10,0:3|0:0,0:0:0:0:
400,103,76035,2,0,L|392:214,1,80,8|10,0:3|0:0,0:0:0:0:
370,240,76350,1,0,0:0:0:0:
370,240,76455,6,0,L|256:243,1,80,4|2,0:3|0:0,0:0:0:0:
175,205,76875,2,0,B|163:245|163:245|175:281,1,80,8|2,0:0|0:0,0:0:0:0:
280,341,77294,2,0,L|279:255,1,80,4|2,0:3|0:0,0:0:0:0:
315,145,77714,1,8,0:0:0:0:
198,176,77924,1,2,0:0:0:0:
198,176,78028,1,0,0:0:0:0:
198,176,78133,6,0,P|156:168|109:169,1,80,4|2,0:3|0:0,0:0:0:0:
60,184,78448,1,0,0:0:0:0:
60,184,78553,2,0,L|49:81,1,80,8|2,0:0|0:0,0:0:0:0:
136,19,78972,2,0,L|215:24,1,80,4|10,0:3|0:0,0:0:0:0:
303,107,79392,1,8,0:3:0:0:
370,7,79602,1,10,0:0:0:0:
487,71,79812,6,0,L|483:174,1,80,4|2,0:3|0:0,0:0:0:0:
437,188,80126,1,0,0:0:0:0:
437,188,80231,2,0,L|436:244,1,40,8|0,0:0|0:0,0:0:0:0:
460,283,80441,2,0,L|459:339,1,40,10|0,0:0|0:0,0:0:0:0:
406,352,80651,2,0,P|366:349|326:346,1,80,4|10,0:3|0:0,0:0:0:0:
214,302,81070,2,0,P|174:299|134:296,1,80,8|2,0:0|0:0,0:0:0:0:
39,221,81490,6,0,L|43:139,1,80,4|2,0:1|0:0,0:0:0:0:
87,99,81805,1,0,0:0:0:0:
87,99,81910,2,0,L|168:105,1,80,8|2,0:0|0:0,0:0:0:0:
285,84,82330,2,0,B|265:118|265:118|275:157,1,80,4|10,0:3|0:0,0:0:0:0:
305,208,82644,1,0,0:0:0:0:
305,208,82749,2,0,L|349:205,1,40,8|0,0:3|0:0,0:0:0:0:
404,218,82959,6,0,B|402:297,1,80,10|4,0:0|0:3,0:0:0:0:
294,350,83378,1,2,0:0:0:0:
183,303,83588,2,0,L|177:223,1,80,8|2,0:0|0:0,0:0:0:0:
177,102,84008,2,0,P|135:100|82:109,1,80,4|2,0:3|0:0,0:0:0:0:
99,225,84427,2,0,P|142:228|195:218,1,80,8|2,0:0|0:0,0:0:0:0:
283,162,84847,6,0,B|291:53,1,80,4|2,0:3|0:0,0:0:0:0:
337,46,85162,1,0,0:0:0:0:
337,46,85267,2,0,L|434:73,1,80,8|2,0:0|0:0,0:0:0:0:
479,168,85686,2,0,L|462:246,1,80,4|10,0:3|0:0,0:0:0:0:
436,301,86001,1,0,0:0:0:0:
436,301,86106,2,0,L|378:283,1,40,8|0,0:3|0:0,0:0:0:0:
347,323,86316,6,0,L|255:297,1,80,10|4,0:0|0:3,0:0:0:0:
245,183,86735,1,2,0:0:0:0:
174,280,86945,2,0,P|213:285|251:275,1,80,8|2,0:0|0:0,0:0:0:0:
322,189,87364,2,0,P|283:178|244:183,1,80,4|2,0:3|0:0,0:0:0:0:
123,179,87784,1,8,0:0:0:0:
189,78,87994,1,2,0:0:0:0:
189,78,88099,1,0,0:0:0:0:
189,78,88204,6,0,L|294:67,1,80,4|2,0:3|0:0,0:0:0:0:
359,148,88623,1,8,0:0:0:0:
386,31,88833,1,2,0:0:0:0:
476,109,89043,2,0,L|487:195,1,80,4|10,0:3|0:0,0:0:0:0:
456,293,89462,2,0,L|344:292,1,80,8|10,0:3|0:0,0:0:0:0:
318,272,89777,1,0,0:0:0:0:
318,272,89882,6,0,L|204:275,1,80,4|0,0:3|0:0,0:0:0:0:
124,309,90301,2,0,B|112:273|112:273|124:233,1,80,8|2,0:0|0:0,0:0:0:0:
226,169,90721,2,0,L|235:254,1,80,4|2,0:3|0:0,0:0:0:0:
307,343,91140,2,0,L|315:263,1,80,8|2,0:0|0:0,0:0:0:0:
360,151,91560,6,0,P|399:151|439:159,1,80,4|2,0:3|0:0,0:0:0:0:
488,123,91875,1,0,0:0:0:0:
488,123,91980,2,0,L|477:20,1,80,8|2,0:0|0:0,0:0:0:0:
360,26,92399,2,0,L|300:34,2,40,4|0|10,0:3|0:0|0:0,0:0:0:0:
334,124,92819,2,0,L|295:127,1,40,8|0,0:3|0:0,0:0:0:0:
236,110,93029,2,0,L|196:112,1,40,10|0,0:0|0:0,0:0:0:0:
147,148,93239,6,0,B|134:188|134:188|152:255,1,80,4|2,0:3|0:0,0:0:0:0:
189,264,93553,1,0,0:0:0:0:
189,264,93658,2,0,L|188:320,1,40,8|0,0:0|0:0,0:0:0:0:
149,350,93868,2,0,L|102:350,1,40,2|0,0:0|0:0,0:0:0:0:
53,326,94078,2,0,P|18:305|33:257,1,80,8|2,0:0|0:0,0:0:0:0:
115,195,94497,2,0,P|149:174|134:126,1,80,8|2,0:0|0:0,0:0:0:0:
44,75,94917,5,4,3:1:0:0:
35,46,95489,2,0,L|106:40,1,60,8|4,3:3|3:3,0:0:0:0:
177,84,95774,1,8,3:3:0:0:
177,84,95917,6,0,L|237:79,1,53.3333333333333,8|8,3:3|3:3,0:0:0:0:
309,66,96182,2,0,B|280:32|280:32|287:90|287:90|282:104|282:104|286:158,1,160,8|4,3:3|0:1,0:0:0:0:
378,242,109622,6,0,L|375:300,2,32,8|8|8,0:1|0:1|0:3,0:0:0:0:
305,179,110041,6,0,B|223:186,1,64,4|2,0:3|0:0,0:0:0:0:
193,175,110355,1,8,0:1:0:0:
146,189,110460,2,0,P|143:229|150:274,1,64,0|10,3:0|0:0,0:0:0:0:
198,332,110879,2,0,B|278:331,1,64,4|8,0:3|0:1,0:0:0:0:
309,321,111194,1,0,0:0:0:0:
351,299,111299,2,0,L|406:298,2,32,0|8|0,3:0|0:1|0:0,0:0:0:0:
270,245,111719,6,0,P|270:209|267:171,1,64,4|0,0:3|0:0,0:0:0:0:
234,146,112033,1,8,0:1:0:0:
253,102,112138,2,0,L|333:98,1,64,0|8,3:0|0:1,0:0:0:0:
403,140,112558,2,0,L|409:209,1,64,4|8,0:3|0:1,0:0:0:0:
434,243,112872,1,0,0:0:0:0:
441,290,112977,2,0,L|449:339,2,32,0|8|0,3:0|0:1|0:0,0:0:0:0:
349,321,113397,6,0,P|318:327|283:322,1,64,4|2,0:3|0:0,0:0:0:0:
249,292,113712,1,8,0:1:0:0:
218,255,113817,2,0,L|145:260,1,64,0|10,3:0|0:0,0:0:0:0:
64,295,114236,2,0,L|62:216,1,64,4|8,0:3|0:1,0:0:0:0:
93,193,114551,1,0,0:0:0:0:
124,156,114656,2,0,L|177:149,2,32,0|8|0,3:0|0:1|0:0,0:0:0:0:
31,129,115075,6,0,B|21:98|21:98|39:44,1,64,4|0,0:3|0:0,0:0:0:0:
69,39,115390,1,8,0:1:0:0:
116,33,115495,2,0,L|206:31,1,64,0|8,3:0|0:1,0:0:0:0:
235,110,115915,1,4,0:3:0:0:
305,45,116124,1,8,0:1:0:0:
350,129,116334,2,0,L|349:161,2,32,0|8|0,3:0|0:1|0:0,0:0:0:0:
405,50,116754,6,0,P|433:47|477:55,1,64,4|2,0:3|0:0,0:0:0:0:
504,84,117068,1,8,0:1:0:0:
480,126,117173,2,0,L|471:204,1,64,0|10,3:0|0:0,0:0:0:0:
389,140,117594,2,0,L|380:230,1,64,4|8,0:3|0:1,0:0:0:0:
395,250,117908,1,0,0:0:0:0:
392,297,118013,2,0,L|390:356,2,32,0|8|0,3:0|0:1|0:0,0:0:0:0:
310,244,118426,6,0,B|237:256,1,64,4|0,0:3|0:0,0:0:0:0:
199,266,118740,1,8,0:1:0:0:
151,271,118845,2,0,B|141:240|141:240|146:199,1,64,0|8,3:0|0:1,0:0:0:0:
180,119,119264,1,4,0:3:0:0:
85,134,119474,1,8,0:1:0:0:
120,44,119684,2,0,L|120:2,2,32,0|8|0,0:0|0:1|0:0,0:0:0:0:
180,119,120104,6,0,L|263:117,1,64,4|2,0:3|0:0,0:0:0:0:
271,77,120418,1,8,0:1:0:0:
315,95,120523,2,0,B|316:16,1,64,0|10,3:0|0:0,0:0:0:0:
435,45,120943,6,0,B|410:80|410:80|418:193,1,120,8|0,3:3|0:0,0:0:0:0:
469,223,121363,6,0,B|480:237|480:237|441:249|426:274|426:274|412:255|362:242|362:242|384:220,1,176.000005371094,8|4,3:3|3:3,0:0:0:0:
376,227,123047,1,12,0:3:0:0:
163,339,123455,6,0,L|155:259,1,80,4|2,0:1|0:0,0:0:0:0:
183,205,123769,1,0,0:0:0:0:
183,205,123874,2,0,L|266:193,1,80,8|2,0:0|0:0,0:0:0:0:
382,189,124294,2,0,B|365:153|365:153|377:114,1,80,4|10,0:3|0:0,0:0:0:0:
394,56,124608,1,0,0:0:0:0:
394,56,124713,2,0,L|355:59,1,40,8|0,0:3|0:0,0:0:0:0:
295,42,124923,6,0,B|215:50,1,80,10|4,0:0|0:3,0:0:0:0:
138,142,125342,1,2,0:0:0:0:
67,44,125552,2,0,P|53:81|54:121,1,80,8|2,0:0|0:0,0:0:0:0:
97,233,125972,2,0,B|139:244|139:244|192:226,1,80,4|2,0:3|0:0,0:0:0:0:
253,142,126392,2,0,B|211:130|211:130|158:148,1,80,8|2,0:0|0:0,0:0:0:0:
261,228,126811,6,0,B|340:234,1,80,4|2,0:3|0:0,0:0:0:0:
382,278,127126,1,0,0:0:0:0:
382,278,127231,2,0,L|369:375,1,80,8|2,0:0|0:0,0:0:0:0:
254,328,127650,2,0,L|270:239,1,80,4|10,0:3|0:0,0:0:0:0:
315,211,127965,1,0,0:0:0:0:
315,211,128070,2,0,L|323:144,1,40,8|0,0:3|0:0,0:0:0:0:
333,112,128280,6,0,P|296:97|256:98,1,80,10|4,0:0|0:3,0:0:0:0:
201,205,128699,1,2,0:0:0:0:
87,166,128909,2,0,P|72:203|74:242,1,80,8|2,0:0|0:0,0:0:0:0:
165,320,129329,2,0,L|248:315,1,80,4|2,0:3|0:0,0:0:0:0:
318,219,129748,1,8,0:0:0:0:
396,309,129958,1,2,0:0:0:0:
396,309,130063,1,0,0:0:0:0:
396,309,130168,6,0,P|404:259|401:205,1,80,4|2,0:3|0:0,0:0:0:0:
336,130,130587,1,8,0:0:0:0:
270,230,130797,1,2,0:0:0:0:
228,117,131007,2,0,P|267:112|307:118,1,80,4|10,0:3|0:0,0:0:0:0:
387,29,131426,2,0,L|498:26,1,80,8|10,0:3|0:0,0:0:0:0:
481,85,131741,1,0,0:0:0:0:
481,85,131846,6,0,L|472:201,1,80,4|2,0:3|0:0,0:0:0:0:
390,251,132266,2,0,B|402:215|402:215|390:175,1,80,8|2,0:0|0:0,0:0:0:0:
270,158,132685,2,0,L|280:246,1,80,4|2,0:3|0:0,0:0:0:0:
222,348,133105,1,8,0:0:0:0:
144,256,133315,1,2,0:0:0:0:
144,256,133419,1,0,0:0:0:0:
144,256,133524,6,0,B|181:234|181:234|227:246,1,80,4|2,0:3|0:0,0:0:0:0:
274,265,133839,1,0,0:0:0:0:
274,265,133944,2,0,L|268:352,1,80,8|2,0:0|0:0,0:0:0:0:
366,275,134364,2,0,L|445:270,1,80,4|10,0:3|0:0,0:0:0:0:
362,182,134783,1,8,0:3:0:0:
478,154,134992,1,0,0:0:0:0:
425,48,135203,6,0,L|327:57,1,80,4|2,0:3|0:0,0:0:0:0:
289,76,135517,1,0,0:0:0:0:
289,76,135622,2,0,L|290:132,1,40,8|0,0:0|0:0,0:0:0:0:
259,168,135832,2,0,L|260:224,1,40,10|0,0:0|0:0,0:0:0:0:
235,263,136042,2,0,P|195:266|155:269,1,80,4|10,0:3|2:0,0:0:0:0:
245,347,136461,2,0,P|285:344|325:341,1,80,8|0,2:0|0:0,0:0:0:0:
432,290,136881,6,0,P|423:248|428:208,1,80,4|2,0:1|0:0,0:0:0:0:
426,150,137196,1,0,0:0:0:0:
426,150,137301,2,0,L|345:156,1,80,8|2,0:0|0:0,0:0:0:0:
236,104,137721,2,0,P|242:144|247:196,1,80,4|10,0:3|0:0,0:0:0:0:
208,229,138035,1,0,0:0:0:0:
208,229,138140,2,0,L|164:226,1,40,8|0,0:3|0:0,0:0:0:0:
107,231,138350,6,0,B|109:310,1,80,10|4,0:0|0:3,0:0:0:0:
217,361,138769,1,2,0:0:0:0:
326,312,138979,2,0,L|332:232,1,80,8|2,0:0|0:0,0:0:0:0:
376,118,139399,2,0,P|336:113|297:116,1,80,4|2,0:3|0:0,0:0:0:0:
225,212,139818,2,0,P|182:215|129:205,1,80,8|2,0:0|0:0,0:0:0:0:
40,150,140238,6,0,B|45:42,1,80,4|2,0:3|0:0,0:0:0:0:
102,53,140553,1,0,0:0:0:0:
102,53,140658,2,0,L|197:56,1,80,8|2,0:0|0:0,0:0:0:0:
293,11,141077,2,0,B|307:50|307:50|295:86,1,80,4|10,0:3|0:0,0:0:0:0:
260,135,141392,1,0,0:0:0:0:
260,135,141497,2,0,L|259:197,1,40,8|0,0:3|0:0,0:0:0:0:
259,235,141707,6,0,L|372:231,1,80,10|4,0:0|0:3,0:0:0:0:
437,164,142126,1,2,0:0:0:0:
417,282,142336,2,0,P|410:321|418:360,1,80,8|2,0:0|0:0,0:0:0:0:
503,275,142755,2,0,P|463:270|425:281,1,80,4|2,0:3|0:0,0:0:0:0:
343,370,143175,1,8,0:0:0:0:
324,251,143385,1,2,0:0:0:0:
324,251,143490,1,0,0:0:0:0:
324,251,143595,6,0,L|225:256,1,80,4|2,0:3|0:0,0:0:0:0:
127,226,144014,1,8,0:0:0:0:
234,172,144224,1,2,0:0:0:0:
118,203,144434,2,0,L|128:123,1,80,4|10,0:3|0:0,0:0:0:0:
23,64,144853,2,0,L|13:153,1,80,8|10,0:3|0:0,0:0:0:0:
25,202,145168,1,0,0:0:0:0:
25,202,145273,6,0,L|16:296,1,80,4|2,0:3|0:0,0:0:0:0:
124,336,145693,2,0,B|159:349|159:349|199:338,1,80,8|2,0:0|0:0,0:0:0:0:
297,267,146112,2,0,L|305:187,1,80,4|2,0:3|0:0,0:0:0:0:
187,212,146531,2,0,L|179:132,1,80,8|2,0:0|0:0,0:0:0:0:
286,60,146951,6,0,P|325:52|365:51,1,80,4|2,0:3|0:0,0:0:0:0:
423,67,147266,1,0,0:0:0:0:
423,67,147371,2,0,L|415:171,1,80,8|2,0:0|0:0,0:0:0:0:
453,261,147790,2,0,L|513:269,2,40,4|0|10,0:3|0:0|0:0,0:0:0:0:
344,208,148210,2,0,L|304:206,1,40,8|0,0:3|0:0,0:0:0:0:
245,223,148420,2,0,L|206:220,1,40,10|0,0:0|0:0,0:0:0:0:
145,210,148630,6,0,B|135:173|135:173|148:133,1,80,4|2,0:3|0:0,0:0:0:0:
189,90,148944,1,0,0:0:0:0:
189,90,149049,2,0,L|285:89,1,80,8|2,0:0|0:0,0:0:0:0:
326,71,149363,1,4,0:3:0:0:
326,71,149468,2,0,B|382:66|382:66|417:88,1,80,8|2,0:0|0:0,0:0:0:0:
380,189,149888,2,0,B|436:194|436:194|471:172,1,80,8|2,0:0|0:0,0:0:0:0:
457,182,150308,6,0,P|444:281|440:375,1,192,4|0,0:0|0:0,0:0:0:0:
354,329,151986,2,0,P|274:268|188:213,1,192,0|0,0:0|0:0,0:0:0:0:
285,180,153664,2,0,P|377:141|460:98,1,192,0|0,0:0|0:0,0:0:0:0:
412,17,155343,2,0,P|321:59|239:105,1,192,0|0,0:0|0:0,0:0:0:0:
256,192,157069,12,0,161634,0:0:0:0:
419,279,162045,6,0,P|450:278|424:263,1,80,2|0,0:1|0:0,0:0:0:0:
353,236,163278,6,0,P|352:209|355:169,1,60,4|0,0:3|0:0,0:0:0:0:
338,122,163726,6,0,B|230:106,2,95.9999970703126,4|4|4,0:1|0:3|0:3,0:0:0:0:
459,44,164985,1,8,0:0:0:0:
452,192,165404,6,0,B|440:273,2,71.9999978027344,4|4|4,0:3|0:3|0:3,0:0:0:0:
369,188,166243,2,0,L|320:193,1,47.9999985351563,4|0,0:3|0:0,0:0:0:0:
251,211,166663,2,0,L|309:205,1,47.9999985351563,8|0,0:0|0:0,0:0:0:0:
269,130,167082,6,0,B|270:26,2,95.9999970703126,4|4|4,0:3|0:3|0:3,0:0:0:0:
188,244,168341,1,8,0:0:0:0:
119,117,168761,6,0,L|187:128,1,47.9999985351563,4|0,0:3|0:0,0:0:0:0:
201,115,169075,1,4,0:3:0:0:
309,113,169390,1,4,0:3:0:0:
265,216,169600,2,0,P|248:256|213:273,1,71.9999978027344,4|0,0:3|0:0,0:0:0:0:
203,299,170020,2,0,B|207:353,1,47.9999985351563,8|0,0:0|0:0,0:0:0:0:
125,330,170439,6,0,P|78:327|21:329,2,95.9999970703126,4|4|4,0:3|0:3|0:3,0:0:0:0:
94,125,171698,2,0,L|90:173,1,47.9999985351563,8|0,0:0|0:0,0:0:0:0:
174,172,172117,6,0,L|262:153,2,71.9999978027344,4|4|4,0:3|0:3|0:3,0:0:0:0:
223,241,172957,1,4,0:3:0:0:
343,319,173376,2,0,P|367:292|386:262,1,71.9999978027344,8|0,0:0|0:0,0:0:0:0:
387,225,173795,6,0,P|383:177|382:117,2,95.9999970703126,4|4|4,0:3|0:3|0:3,0:0:0:0:
276,132,175054,1,8,0:0:0:0:
391,52,175501,6,0,L|402:136,1,80,12|0,0:3|0:0,0:0:0:0:
450,201,175815,1,8,0:1:0:0:
450,201,175920,6,0,B|458:263,1,44.0000013427735,8|0,0:3|0:0,0:0:0:0:
430,290,176095,2,0,L|435:346,2,40,8|0|12,0:3|0:0|0:3,0:0:0:0:
85,48,177154,6,0,L|81:127,1,80,4|2,0:1|0:0,0:0:0:0:
105,183,177467,1,0,0:0:0:0:
105,183,177573,2,0,L|99:273,1,80,8|2,0:0|0:0,0:0:0:0:
199,194,177992,2,0,B|237:179|237:179|274:193,1,80,0|10,0:0|0:0,0:0:0:0:
300,246,178306,1,0,0:0:0:0:
300,246,178412,2,0,L|299:285,1,40,8|0,0:3|0:0,0:0:0:0:
274,341,178622,6,0,B|171:338,1,80,10|4,0:0|0:3,0:0:0:0:
99,262,179042,1,2,0:0:0:0:
199,194,179251,2,0,L|204:108,1,80,8|2,0:0|0:0,0:0:0:0:
296,36,179671,2,0,P|338:34|391:43,1,80,4|2,0:3|0:0,0:0:0:0:
374,159,180091,2,0,P|331:162|278:152,1,80,8|2,0:0|0:0,0:0:0:0:
197,85,180510,6,0,L|92:84,1,80,4|2,0:3|0:0,0:0:0:0:
73,126,180824,1,0,0:0:0:0:
73,126,180930,2,0,P|69:171|79:229,1,80,8|2,0:0|0:0,0:0:0:0:
152,295,181349,2,0,L|255:287,1,80,4|10,0:3|0:0,0:0:0:0:
285,316,181663,1,0,0:0:0:0:
285,316,181769,2,0,L|350:299,1,40,8|0,0:3|0:0,0:0:0:0:
378,278,181978,6,0,P|379:235|371:199,1,80,10|4,0:0|0:3,0:0:0:0:
306,97,182397,1,2,0:0:0:0:
240,197,182608,2,0,P|202:207|163:202,1,80,8|2,0:0|0:0,0:0:0:0:
105,76,183028,2,0,P|144:72|183:83,1,80,4|0,0:3|0:3,0:0:0:0:
248,184,183446,1,8,0:0:0:0:
296,73,183656,1,2,0:0:0:0:
296,73,183761,1,0,0:0:0:0:
296,73,183867,6,0,L|401:88,1,80,4|2,0:3|0:0,0:0:0:0:
460,169,184285,1,8,0:0:0:0:
453,49,184495,1,2,0:0:0:0:
357,122,184706,2,0,P|351:161|356:201,1,80,4|10,0:3|0:0,0:0:0:0:
324,316,185126,2,0,L|213:304,1,80,8|10,0:3|0:0,0:0:0:0:
190,334,185440,1,0,0:0:0:0:
190,334,185545,6,0,L|73:326,1,80,4|2,0:3|0:0,0:0:0:0:
31,233,185964,2,0,B|19:273|19:273|31:309,1,80,8|2,0:0|0:0,0:0:0:0:
137,252,186384,2,0,L|136:166,1,80,4|2,0:3|0:0,0:0:0:0:
94,58,186803,1,8,0:0:0:0:
211,89,187014,1,2,0:0:0:0:
211,89,187119,1,0,0:0:0:0:
211,89,187223,6,0,P|253:81|300:82,1,80,4|2,0:3|0:0,0:0:0:0:
350,84,187537,1,0,0:0:0:0:
350,84,187643,2,0,L|342:189,1,80,8|2,0:0|0:0,0:0:0:0:
376,279,188063,2,0,P|336:283|298:273,1,80,4|10,0:3|0:0,0:0:0:0:
218,181,188482,1,8,0:3:0:0:
147,278,188692,1,10,0:0:0:0:
32,230,188902,6,0,L|28:333,1,80,4|2,0:3|0:0,0:0:0:0:
72,350,189216,1,0,0:0:0:0:
72,350,189321,2,0,L|127:352,1,40,8|0,0:0|0:0,0:0:0:0:
170,336,189531,2,0,L|225:338,1,40,10|0,0:0|0:0,0:0:0:0:
244,287,189741,2,0,L|243:206,1,80,4|10,0:3|0:0,0:0:0:0:
357,169,190160,2,0,L|355:264,1,80,8|6,0:0|0:3,0:0:0:0:
249,191,190580,6,0,P|244:151|253:109,1,80,4|2,0:1|0:0,0:0:0:0:
280,58,190895,1,0,0:0:0:0:
280,58,191000,2,0,L|367:57,1,80,8|2,0:0|0:0,0:0:0:0:
477,30,191419,2,0,P|484:69|477:108,1,80,4|10,0:3|0:0,0:0:0:0:
427,142,191734,1,0,0:0:0:0:
427,142,191839,2,0,L|428:186,1,40,8|0,0:3|0:0,0:0:0:0:
390,229,192049,6,0,B|300:228,1,80,10|4,0:0|0:3,0:0:0:0:
217,304,192468,1,2,0:0:0:0:
104,260,192678,2,0,B|94:222|94:222|106:178,1,80,8|2,0:0|0:0,0:0:0:0:
229,133,193098,2,0,L|221:213,1,80,4|2,0:3|0:0,0:0:0:0:
115,155,193517,2,0,L|106:75,1,80,8|2,0:0|0:0,0:0:0:0:
214,20,193937,6,0,P|254:13|293:25,1,80,4|2,0:3|0:0,0:0:0:0:
343,53,194252,1,0,0:0:0:0:
343,53,194356,2,0,P|383:60|422:47,1,80,8|2,0:0|0:0,0:0:0:0:
458,163,194776,2,0,L|450:249,1,80,4|10,0:3|0:0,0:0:0:0:
418,294,195091,1,0,0:0:0:0:
418,294,195195,2,0,L|359:279,1,40,8|0,0:3|0:0,0:0:0:0:
330,320,195405,6,0,B|286:333|286:333|234:312,1,80,10|4,0:0|0:3,0:0:0:0:
148,264,195825,1,2,0:0:0:0:
258,217,196035,2,0,L|247:296,1,80,8|2,0:0|0:0,0:0:0:0:
143,237,196454,2,0,P|104:226|65:231,1,80,4|2,0:3|0:0,0:0:0:0:
11,339,196873,1,8,0:0:0:0:
28,220,197083,1,2,0:0:0:0:
28,220,197188,1,0,0:0:0:0:
28,220,197293,6,0,L|40:115,1,80,4|2,0:3|0:0,0:0:0:0:
150,102,197712,1,8,0:0:0:0:
47,40,197922,1,2,0:0:0:0:
160,75,198132,2,0,L|257:86,1,80,4|10,0:3|0:0,0:0:0:0:
353,120,198552,2,0,L|465:104,1,80,8|10,0:3|0:0,0:0:0:0:
491,96,198867,1,0,0:0:0:0:
491,96,198971,6,0,L|474:208,1,80,4|2,0:3|0:0,0:0:0:0:
444,290,199391,2,0,P|404:297|366:287,1,80,8|2,0:0|0:0,0:0:0:0:
268,358,199811,2,0,L|260:279,1,80,4|2,0:3|0:0,0:0:0:0:
157,216,200230,2,0,L|165:136,1,80,8|2,0:0|0:0,0:0:0:0:
283,108,200650,6,0,L|362:116,1,80,4|2,0:3|0:0,0:0:0:0:
423,118,200964,1,0,0:0:0:0:
423,118,201069,2,0,L|412:15,1,80,8|2,0:0|0:0,0:0:0:0:
296,15,201489,2,0,L|236:23,2,40,4|0|10,0:3|0:0|0:0,0:0:0:0:
190,73,201909,2,0,L|151:76,1,40,8|0,0:3|0:0,0:0:0:0:
92,59,202118,2,0,L|52:61,1,40,10|0,0:0|0:0,0:0:0:0:
3,97,202328,6,0,B|7:156|7:156|45:191,1,80,4|2,0:3|0:0,0:0:0:0:
77,194,202642,1,0,0:0:0:0:
77,194,202748,2,0,L|76:250,1,40,8|0,0:0|0:0,0:0:0:0:
99,289,202958,2,0,L|139:289,1,40,2|0,0:0|0:0,0:0:0:0:
199,263,203166,5,8,0:0:0:0:
343,42,203586,1,8,0:0:0:0:
458,252,204007,6,0,P|449:290|448:330,2,80,4|2|8,0:1|0:0|0:0,0:0:0:0:
405,143,204635,1,2,0:0:0:0:
355,251,204846,2,0,L|275:251,1,80,4|10,0:3|0:0,0:0:0:0:
184,171,205265,2,0,L|104:171,1,80,8|10,0:3|0:0,0:0:0:0:
82,290,205685,6,0,P|129:289|161:247,1,80,4|0,0:3|0:0,0:0:0:0:
196,156,206105,2,0,L|187:59,1,80,8|2,0:0|0:0,0:0:0:0:
256,192,206523,12,4,208201,0:3:0:0:
56,150,208621,6,0,B|173:101|197:260|296:189,1,240,8|2,0:3|0:0,0:0:0:0:
382,256,209461,2,0,P|395:213|448:106,1,160,8|4,0:0|0:3,0:0:0:0:
337,58,210091,1,2,0:0:0:0:
337,58,210194,1,0,0:0:0:0:
337,58,210300,2,0,P|291:66|250:70,1,80,8|2,0:0|0:0,0:0:0:0:
149,17,210720,6,0,B|124:93|124:93|190:182,1,160,4|8,0:3|0:0,0:0:0:0:
259,239,211349,2,0,L|273:68,1,160,2|10,0:0|0:0,0:0:0:0:
390,57,211979,2,0,L|378:160,1,80,8|10,0:3|0:0,0:0:0:0:
432,245,212398,6,0,P|392:202|269:192,1,160,4|8,0:3|0:0,0:0:0:0:
204,261,213028,1,2,0:0:0:0:
116,178,213237,2,0,L|69:171,2,40,4|2|0,0:3|0:3|0:3,0:0:0:0:
189,82,213657,2,0,L|88:58,1,80,8|2,0:0|0:0,0:0:0:0:
25,186,214077,6,0,P|9:225|3:291,1,80,4|2,0:3|0:0,0:0:0:0:
171,234,214496,2,0,P|144:201|91:162,1,80,8|2,0:0|0:0,0:0:0:0:
53,328,214916,2,0,P|95:321|154:294,1,80,4|8,0:3|0:0,0:0:0:0:
210,218,215336,1,8,0:3:0:0:
316,274,215546,1,10,0:0:0:0:
412,204,215755,6,0,P|417:131|364:48,1,160,4|8,0:3|0:0,0:0:0:0:
266,108,216385,2,0,P|214:108|172:86,1,80,0|4,0:0|0:3,0:0:0:0:
92,25,216804,1,10,0:0:0:0:
16,118,217014,1,8,0:0:0:0:
75,222,217224,1,2,0:0:0:0:
75,222,217329,1,0,0:0:0:0:
75,222,217434,6,0,L|185:224,1,80,4|2,0:3|0:0,0:0:0:0:
237,310,217853,2,0,L|127:308,1,80,8|2,0:0|0:0,0:0:0:0:
162,187,218273,2,0,L|168:139,2,40,4|0|10,0:3|0:0|0:0,0:0:0:0:
282,198,218693,2,0,L|286:98,1,80,8|10,0:3|0:0,0:0:0:0:
314,65,219007,1,0,0:0:0:0:
314,65,219112,6,0,P|358:58|410:70,1,80,4|2,0:3|0:0,0:0:0:0:
477,149,219532,2,0,P|484:192|472:245,1,80,8|2,0:0|0:0,0:0:0:0:
401,320,219951,2,0,L|345:322,2,40,4|0|2,0:3|0:0|0:0,0:0:0:0:
370,203,220370,2,0,L|259:219,1,80,8|2,0:0|0:0,0:0:0:0:
242,177,220686,1,0,0:0:0:0:
242,177,220790,6,0,P|233:138|237:98,1,80,4|2,0:3|0:0,0:0:0:0:
144,22,221210,2,0,P|152:60|148:100,1,80,8|2,0:0|0:0,0:0:0:0:
71,193,221630,1,4,0:3:0:0:
71,193,221734,1,0,0:0:0:0:
71,193,221839,1,10,0:0:0:0:
107,307,222049,2,0,P|173:305|197:286,1,80,8|10,0:3|0:0,0:0:0:0:
213,246,222364,1,0,0:0:0:0:
213,246,222469,6,0,L|216:131,1,80,4|2,0:3|0:0,0:0:0:0:
312,95,222888,2,0,L|314:174,1,80,8|2,0:0|0:0,0:0:0:0:
349,289,223307,2,0,L|358:351,2,40,4|0|2,0:3|0:0|0:0,0:0:0:0:
446,197,223728,1,8,0:0:0:0:
481,311,223937,1,2,0:0:0:0:
481,311,224042,1,0,0:0:0:0:
481,311,224147,1,4,0:3:0:0:
256,192,224251,12,8,225615,0:0:0:0:
256,192,225825,12,2,227293,0:0:0:0:
256,192,227503,12,8,229601,0:0:0:0:
180,154,230021,6,0,P|168:191|170:260,2,80,8|10|8,0:0|0:3|0:0,0:0:0:0:
408,78,230860,1,4,0:1:0:0:
