osu file format v14

[General]
AudioFilename: audio.mp3
AudioLeadIn: 0
PreviewTime: 231601
Countdown: 0
SampleSet: Soft
StackLeniency: 0.5
Mode: 0
LetterboxInBreaks: 0
WidescreenStoryboard: 0

[Editor]
Bookmarks: 281562
DistanceSpacing: 1.1
BeatDivisor: 6
GridSize: 32
TimelineZoom: 1.6

[Metadata]
Title:Ao no Waltz
TitleUnicode:蒼のワルツ
Artist:Eve
ArtistUnicode:Eve
Creator:Smoke
Version:Wings of the Heart
Source:ジョゼと虎と魚たち
Tags:sakanatachi aono anime japanese movie film 2020 jpop j-pop pop josee the tiger and the fish Joze to Tora to Sakana-tachi kaikai Kitan kaikaikitan 廻廻奇譚
BeatmapID:3078409
BeatmapSetID:1502531

[Difficulty]
HPDrainRate:5.2
CircleSize:4
OverallDifficulty:7.5
ApproachRate:8.3
SliderMultiplier:2.6
SliderTickRate:1

[Events]
//Background and Video events
0,0,"josee tiger fish.jpg",0,0
Video,-98,"vid.mp4"
//Break Periods
//Storyboard Layer 0 (Background)
//Storyboard Layer 1 (Fail)
//Storyboard Layer 2 (Pass)
//Storyboard Layer 3 (Foreground)
//Storyboard Layer 4 (Overlay)
//Storyboard Sound Samples

[TimingPoints]
930,725.777186403774,4,2,1,45,1,0
930,-166.666666666667,4,2,1,45,0,0
12542,-125,4,2,1,55,0,0
36372,-125,4,2,1,5,0,0
36493,725.777186403774,4,2,1,55,1,0
36493,-142.857142857143,4,2,1,55,0,0
41633,625,4,2,1,55,1,0
41633,-142.857142857143,4,2,1,55,0,0
42299,725.777186403774,4,2,1,55,1,0
42299,-142.857142857143,4,2,1,55,0,0
48105,-125,4,2,1,60,0,0
59717,-117.647058823529,4,2,1,65,0,0
71330,-153.846153846153,4,2,1,60,0,0
75322,-153.846153846153,4,2,1,5,0,0
75443,-153.846153846153,4,2,1,60,0,0
77136,-142.857142857143,4,2,1,60,0,0
77862,-133.333333333333,4,2,1,65,0,0
78588,-117.647058823529,4,2,1,70,0,0
79313,-100,4,2,1,75,0,0
82942,-90.9090909090909,4,2,1,80,0,1
84031,-90.9090909090909,4,2,1,5,0,1
84152,-90.9090909090909,4,2,1,80,0,1
85482,-90.9090909090909,4,2,1,5,0,1
85603,-90.9090909090909,4,2,1,80,0,1
92256,-90.9090909090909,4,2,1,5,0,1
92377,-90.9090909090909,4,2,1,80,0,1
94192,-90.9090909090909,4,2,1,5,0,1
94313,-90.9090909090909,4,2,1,80,0,1
95643,-90.9090909090909,4,2,1,5,0,1
95764,-90.9090909090909,4,2,1,80,0,1
97095,-90.9090909090909,4,2,1,5,0,1
97216,-90.9090909090909,4,2,1,80,0,1
106167,-111.111111111111,4,2,1,60,0,0
112820,-111.111111111111,4,2,1,5,0,0
112941,-111.111111111111,4,2,1,60,0,0
117780,-117.647058823529,4,2,3,65,0,0
129392,-105.263157894737,4,2,2,70,0,0
152617,-166.666666666667,4,2,1,60,0,0
158423,-142.857142857143,4,2,1,65,0,0
159149,-125,4,2,1,70,0,0
159875,-111.111111111111,4,2,1,75,0,0
160600,-100,4,2,1,80,0,0
161205,-100,4,2,1,5,0,0
161326,-100,4,2,1,45,0,0
161568,-100,4,2,1,50,0,0
161810,-100,4,2,1,55,0,0
162052,-100,4,2,1,60,0,0
162294,-100,4,2,1,65,0,0
162536,-100,4,2,1,70,0,0
162778,-100,4,2,1,75,0,0
163383,-100,4,2,1,5,0,0
163504,-100,4,2,1,75,0,0
164229,-86.9565217391304,4,2,1,85,0,1
165318,-86.9565217391304,4,2,1,5,0,1
165439,-86.9565217391304,4,2,1,85,0,1
166770,-86.9565217391304,4,2,1,5,0,1
166891,-86.9565217391304,4,2,1,85,0,1
173543,-86.9565217391304,4,2,1,5,0,1
173664,-86.9565217391304,4,2,1,85,0,1
175479,-86.9565217391304,4,2,1,5,0,1
175600,-86.9565217391304,4,2,1,85,0,1
176930,-86.9565217391304,4,2,1,5,0,1
177051,-86.9565217391304,4,2,1,85,0,1
178382,-86.9565217391304,4,2,1,5,0,1
178503,-86.9565217391304,4,2,1,85,0,1
190720,-86.9565217391304,4,2,1,5,0,1
190841,-86.9565217391304,4,2,1,85,0,1
197615,-125,4,2,1,65,0,0
199067,-111.111111111111,4,2,1,70,0,0
201970,-105.263157894737,4,2,4,75,0,0
213582,-99.9999999999999,4,2,4,75,0,0
225195,-181.818181818182,4,2,1,70,0,0
225315,-181.818181818182,4,2,1,5,0,0
228340,-100,4,2,1,80,0,0
231727,-125,4,2,1,50,0,0
232452,725.777186403774,4,2,1,50,1,0
232452,-125,4,2,1,50,0,0
233177,-83.3333333333333,4,2,1,85,0,1
233540,-83.3333333333333,4,2,1,5,0,1
233661,-83.3333333333333,4,2,1,85,0,1
234992,-83.3333333333333,4,2,1,5,0,1
235113,-83.3333333333333,4,2,1,85,0,1
241766,-83.3333333333333,4,2,1,5,0,1
241887,-83.3333333333333,4,2,1,85,0,1
244427,-83.3333333333333,4,2,1,5,0,1
244548,-83.3333333333333,4,2,1,85,0,1
245878,-83.3333333333333,4,2,1,5,0,1
245999,-83.3333333333333,4,2,1,85,0,1
256039,-83.3333333333333,4,2,1,5,0,1
256160,-83.3333333333333,4,2,1,85,0,1
258942,-83.3333333333333,4,2,1,5,0,1
259063,-83.3333333333333,4,2,1,85,0,1
259305,-76.9230769230769,4,2,1,85,0,1
260031,-83.3333333333333,4,2,1,85,0,1
265837,725.777186403774,4,2,1,60,1,0
265837,-142.857142857143,4,2,1,60,0,0
267167,-142.857142857143,4,2,1,5,0,0
268740,-125,4,2,1,55,0,0
281562,-125,4,2,1,5,0,0

[Colours]
Combo1 : 225,180,23
Combo2 : 237,201,116
Combo3 : 242,126,40

[HitObjects]
74,346,930,6,0,P|46:336|16:329,2,51.999998413086,2|0|0,0:0|0:0|0:0,0:0:0:0:
150,291,1655,2,0,P|178:281|208:274,2,51.999998413086,2|0|0,0:0|0:0|0:0,0:0:0:0:
93,215,2381,1,2,0:0:0:0:
146,158,2623,1,0,0:0:0:0:
103,75,2865,1,0,0:0:0:0:
350,14,3833,6,0,P|373:30|387:63,2,51.999998413086,2|0|0,0:0|0:0|0:0,0:0:0:0:
303,95,4558,2,0,P|280:111|266:144,2,51.999998413086,2|0|0,0:0|0:0|0:0,0:0:0:0:
375,154,5284,1,2,0:0:0:0:
329,217,5526,1,0,0:0:0:0:
387,292,5768,1,0,0:0:0:0:
30,348,6736,6,0,B|27:332|15:328|15:328|51:308|58:260,1,103.999996826172,2|0,0:0|0:0,0:0:0:0:
126,202,7461,2,0,P|116:179|103:147,2,51.999998413086,2|0|0,0:0|0:0|0:0,0:0:0:0:
212,239,8187,1,2,0:0:0:0:
280,161,8429,1,0,0:0:0:0:
233,59,8671,1,0,0:0:0:0:
233,59,9457,1,0,0:0:0:0:
295,11,9639,6,0,B|312:10|318:27|318:27|350:7|391:19,1,103.999996826172,2|0,0:0|0:0,0:0:0:0:
450,89,10365,2,0,P|474:78|513:67,2,51.999998413086,2|0|0,0:0|0:0|0:0,0:0:0:0:
385,157,11090,1,2,0:0:0:0:
452,235,11332,1,0,0:0:0:0:
382,346,11574,1,0,0:0:0:0:
451,383,11816,2,0,P|475:372|514:361,2,51.999998413086,2|2|2,0:0|0:0|0:0,0:0:0:0:
313,309,12542,6,0,B|239:320|265:345|174:357,1,138.666666666667,6|2,0:0|0:0,0:0:0:0:
57,212,13268,2,0,B|131:223|105:248|196:260,1,138.666666666667,2|2,0:0|0:0,0:0:0:0:
327,124,13993,1,2,0:0:0:0:
242,93,14235,1,2,0:0:0:0:
183,161,14477,1,2,0:0:0:0:
183,161,14961,2,0,P|167:127|151:94,1,69.3333333333333,2|2,0:0|0:0,0:0:0:0:
283,8,15445,6,0,B|344:23|344:23|351:33|351:33|416:51,1,138.666666666667,6|2,0:0|0:0,0:0:0:0:
511,196,16171,2,0,B|450:211|450:211|443:221|443:221|378:239,1,138.666666666667,2|2,0:0|0:0,0:0:0:0:
214,353,16897,1,2,0:0:0:0:
126,332,17139,1,2,0:0:0:0:
38,313,17380,1,2,0:0:0:0:
38,313,17864,2,0,P|60:279|59:240,1,69.3333333333333,2|2,0:0|0:0,0:0:0:0:
0,96,18348,6,0,P|64:97|121:42,1,138.666666666667,6|2,0:0|0:0,0:0:0:0:
288,175,19074,2,0,P|224:176|167:121,1,138.666666666667,2|2,0:0|0:0,0:0:0:0:
326,25,19800,1,2,0:0:0:0:
393,85,20042,1,2,0:0:0:0:
478,56,20284,1,2,0:0:0:0:
478,56,20767,2,0,P|490:93|504:131,1,69.3333333333333,2|2,0:0|0:0,0:0:0:0:
360,229,21251,6,0,P|337:304|317:371,1,138.666666666667,6|2,0:0|0:0,0:0:0:0:
147,252,21977,2,0,P|170:327|190:394,1,138.666666666667,2|2,0:0|0:0,0:0:0:0:
0,293,22703,1,2,0:0:0:0:
62,227,22945,1,0,0:0:0:0:
23,145,23187,1,2,0:0:0:0:
124,46,23429,6,0,P|156:57|202:70,1,69.3333333333333
401,14,23912,1,2,0:0:0:0:
401,14,24033,1,2,0:0:0:0:
401,14,24154,2,0,B|326:29|350:50|263:65,1,138.666666666667,6|2,0:0|0:0,0:0:0:0:
373,195,24880,2,0,B|298:180|322:159|235:144,1,138.666666666667,2|2,0:0|0:0,0:0:0:0:
340,306,25606,1,2,0:0:0:0:
251,324,25848,1,2,0:0:0:0:
162,342,26090,1,2,0:0:0:0:
162,342,26574,2,0,P|130:334|105:304,1,69.3333333333333,2|2,0:0|0:0,0:0:0:0:
219,166,27057,6,0,B|315:194|315:194|322:217|358:223,1,138.666666666667,6|2,0:0|0:0,0:0:0:0:
512,92,27783,2,0,B|416:120|416:120|409:143|373:149,1,138.666666666667,2|2,0:0|0:0,0:0:0:0:
252,11,28509,1,2,0:0:0:0:
179,64,28751,1,2,0:0:0:0:
94,32,28993,1,2,0:0:0:0:
94,32,29477,2,0,P|82:69|70:97,1,69.3333333333333,2|2,0:0|0:0,0:0:0:0:
203,200,29961,6,0,P|130:194|83:239,1,138.666666666667,6|2,0:0|0:0,0:0:0:0:
248,334,30686,2,0,P|321:328|368:373,1,138.666666666667,2|2,0:0|0:0,0:0:0:0:
512,238,31412,1,2,0:0:0:0:
445,176,31654,1,2,0:0:0:0:
487,96,31896,1,2,0:0:0:0:
487,96,32380,2,0,P|455:73|409:71,1,69.3333333333333,2|2,0:0|0:0,0:0:0:0:
291,177,32864,6,0,B|213:163|237:142|162:127,1,138.666666666667,6|2,0:0|0:0,0:0:0:0:
30,274,33589,2,0,B|107:260|83:239|158:224,1,138.666666666667,2|2,0:0|0:0,0:0:0:0:
290,371,34315,2,0,B|212:357|236:336|161:321,1,138.666666666667,2|2,0:0|0:0,0:0:0:0:
294,271,35041,2,0,B|369:286|345:307|422:320,1,138.666666666667,2|2,0:0|0:0,0:0:0:0:
498,381,35767,2,0,P|454:323|497:225,1,173.333333333333,2|0,0:0|0:0,0:0:0:0:
491,226,36493,6,0,P|480:197|466:152,1,60.666664815267,2|0,0:0|0:0,0:0:0:0:
501,94,36976,1,0,0:0:0:0:
349,164,37218,2,0,P|359:135|374:90,1,60.666664815267,2|0,0:0|0:0,0:0:0:0:
339,32,37701,1,0,0:0:0:0:
233,107,37944,1,2,0:0:0:0:
159,67,38186,1,0,0:0:0:0:
62,127,38428,1,0,0:0:0:0:
235,358,39396,6,0,P|253:334|260:284,1,60.666664815267,2|0,0:0|0:0,0:0:0:0:
214,240,39879,1,0,0:0:0:0:
338,167,40121,6,0,P|320:143|313:93,1,60.666664815267,2|0,0:0|0:0,0:0:0:0:
358,50,40604,1,0,0:0:0:0:
482,148,40847,1,2,0:0:0:0:
418,217,41089,1,0,0:0:0:0:
475,314,41331,1,0,0:0:0:0:
475,314,41633,6,0,L|515:324,2,30.3333324076335
410,361,41945,2,0,P|385:367|351:376,1,45.4999986114502
230,242,42299,6,0,P|264:252|301:261,1,60.666664815267,2|0,0:0|0:0,0:0:0:0:
348,205,42783,1,0,0:0:0:0:
235,330,43024,2,0,P|201:340|164:349,1,60.666664815267,2|0,0:0|0:0,0:0:0:0:
117,293,43508,1,0,0:0:0:0:
18,210,43750,1,2,0:0:0:0:
79,138,43992,1,0,0:0:0:0:
9,28,44234,1,0,0:0:0:0:
9,28,44597,2,0,L|66:44,2,45.4999986114502
79,138,45202,6,0,P|109:122|159:124,1,60.666664815267,2|0,0:0|0:0,0:0:0:0:
201,163,45686,1,0,0:0:0:0:
306,253,45928,2,0,P|276:237|226:239,1,60.666664815267,2|0,0:0|0:0,0:0:0:0:
184,278,46412,1,0,0:0:0:0:
50,358,46653,1,2,0:0:0:0:
99,288,46895,1,0,0:0:0:0:
219,377,47137,1,0,0:0:0:0:
297,335,47439,6,0,P|319:343|323:344,1,15.1666662038167
505,172,48105,6,0,B|431:181|454:211|367:221,1,138.666666666667,6|2,0:0|0:0,0:0:0:0:
242,71,48831,2,0,B|316:80|293:110|380:120,1,138.666666666667,2|2,0:0|0:0,0:0:0:0:
216,244,49556,1,2,0:0:0:0:
265,327,49798,1,2,0:0:0:0:
186,384,50040,1,2,0:0:0:0:
186,384,50766,1,2,0:0:0:0:
55,278,51008,6,0,P|75:209|91:141,1,138.666666666667,6|2,0:0|0:0,0:0:0:0:
227,20,51734,2,0,P|243:87|262:154,1,138.666666666667,2|2,0:0|0:0,0:0:0:0:
442,48,52460,1,2,0:0:0:0:
376,119,52702,1,2,0:0:0:0:
423,203,52943,1,2,0:0:0:0:
423,203,53669,1,2,0:0:0:0:
499,345,53911,6,0,B|482:321|451:326|451:326|355:345,1,138.666666666667,6|2,0:0|0:0,0:0:0:0:
207,251,54637,2,0,B|224:227|255:232|255:232|351:251,1,138.666666666667,2|2,0:0|0:0,0:0:0:0:
496,94,55363,1,2,0:0:0:0:
402,119,55605,1,2,0:0:0:0:
307,143,55847,1,2,0:0:0:0:
307,143,56330,2,0,P|311:113|289:80,1,69.3333333333333,2|2,0:0|0:0,0:0:0:0:
128,19,56814,6,0,B|112:85|112:85|104:88|104:88|87:156,1,138.666666666667,6|2,0:0|0:0,0:0:0:0:
38,315,57540,2,0,B|22:254|22:254|14:251|14:251|0:185,1,138.666666666667,2|2,0:0|0:0,0:0:0:0:
178,225,58266,2,0,P|210:232|254:243,1,69.3333333333333,2|0,0:0|0:0,0:0:0:0:
299,298,58750,1,2,0:0:0:0:
436,214,58992,1,0,0:0:0:0:
436,214,59475,2,0,P|427:194|418:168,1,34.6666666666667,2|0,0:0|0:0,0:0:0:0:
512,13,59717,6,0,P|473:15|432:47,1,73.6666680717469,6|0,0:0|0:0,0:0:0:0:
387,100,60201,1,2,0:0:0:0:
185,54,60443,2,0,P|224:56|265:88,1,73.6666680717469,2|0,0:0|0:0,0:0:0:0:
310,141,60927,1,2,0:0:0:0:
129,234,61169,1,2,0:0:0:0:
197,147,61411,1,2,0:0:0:0:
98,36,61653,1,2,0:0:0:0:
98,36,62379,2,0,P|92:62|85:88,1,36.8333340358734,2|0,0:0|0:0,0:0:0:0:
0,245,62620,6,0,P|39:231|81:221,1,73.6666680717469,6|0,0:0|0:0,0:0:0:0:
141,276,63104,1,2,0:0:0:0:
326,171,63346,2,0,P|286:157|245:147,1,73.6666680717469,2|0,0:0|0:0,0:0:0:0:
185,202,63830,1,2,0:0:0:0:
358,258,64072,1,2,0:0:0:0:
291,316,64314,1,2,0:0:0:0:
348,382,64556,1,2,0:0:0:0:
348,382,65282,2,0,P|361:375|383:369,1,36.8333340358734,2|0,0:0|0:0,0:0:0:0:
210,284,65524,6,0,P|177:295|128:309,1,73.6666680717469,6|0,0:0|0:0,0:0:0:0:
66,256,66007,1,2,0:0:0:0:
205,182,66249,2,0,P|238:193|287:207,1,73.6666680717469,2|0,0:0|0:0,0:0:0:0:
349,154,66732,1,2,0:0:0:0:
244,47,66975,1,2,0:0:0:0:
147,111,67217,1,2,0:0:0:0:
17,60,67459,1,2,0:0:0:0:
17,60,68185,2,0,P|26:84|36:115,1,36.8333340358734,2|0,0:0|0:0,0:0:0:0:
173,0,68427,6,0,P|205:24|261:29,1,73.6666680717469,6|0,0:0|0:0,0:0:0:0:
321,4,68911,1,2,0:0:0:0:
453,87,69152,2,0,P|421:111|365:116,1,73.6666680717469,2|0,0:0|0:0,0:0:0:0:
305,91,69636,1,2,0:0:0:0:
153,206,69878,6,0,P|172:276|191:364,1,147.333336143494,2|2,0:0|0:0,0:0:0:0:
410,251,70846,1,2,0:0:0:0:
378,219,70967,1,2,0:0:0:0:
334,213,71088,1,2,0:0:0:0:
294,232,71209,1,2,0:0:0:0:
278,273,71330,6,0,P|258:200|222:92,1,168.999992263794,2|0,0:0|0:0,0:0:0:0:
294,47,72298,2,0,P|323:56|363:67,1,56.3333307545981,2|2,0:0|0:0,0:0:0:0:
171,2,72781,2,0,P|122:16|59:31,1,112.666661509196,2|2,0:0|0:0,0:0:0:0:
9,104,73507,2,0,P|9:133|30:164,1,56.3333307545981,2|2,0:0|0:0,0:0:0:0:
101,200,73991,1,2,0:0:0:0:
4,323,74233,6,0,B|71:331|53:359|122:366,1,112.666661509196,2|0,0:0|0:0,0:0:0:0:
220,283,74959,2,0,P|254:263|301:265,1,84.4999961318971,2|0,0:0|0:0,0:0:0:0:
307,269,75443,1,2,0:0:0:0:
430,334,75684,2,0,P|439:303|452:266,1,56.3333307545981,2|0,0:0|0:0,0:0:0:0:
506,211,76168,2,0,P|490:156|472:86,1,112.666661509196,2|0,0:0|0:0,0:0:0:0:
393,179,76894,2,0,P|375:172|344:164,1,28.1666653772991,2|0,0:0|0:0,0:0:0:0:
237,54,77136,6,0,B|166:59|189:89|109:96,1,121.333329630534,6|0,0:0|0:0,0:0:0:0:
0,159,77862,6,0,B|74:163|55:198|136:202,1,130.000004959107,6|0,0:0|0:0,0:0:0:0:
303,263,78588,6,0,B|223:269|252:304|160:311,1,147.333336143494,6|0,0:0|0:0,0:0:0:0:
321,41,79313,6,0,B|388:52|401:130|401:130|402:191|448:202|505:200|511:142|511:142|508:86|424:65|401:130|401:130|302:207|255:152|207:100|163:121|138:163|138:163|158:150|182:155,1,780,6|0,0:0|0:0,0:0:0:0:
165,153,82216,6,0,P|180:173|185:202,1,43.3333333333333,2|0,0:0|0:0,0:0:0:0:
351,57,82458,1,2,0:0:0:0:
310,81,82579,1,2,0:0:0:0:
262,83,82700,1,2,0:0:0:0:
222,56,82821,1,2,0:0:0:0:
192,16,82942,6,0,B|168:17|149:3|149:3|139:26|112:34,1,95.3333362426759,14|0,3:1|0:0,0:0:0:0:
4,201,83426,2,0,P|34:208|56:215,1,47.6666681213379,2|0,0:0|0:0,0:0:0:0:
123,170,83668,2,0,P|201:188|289:206,1,143.000004364014,8|0,0:0|0:0,0:0:0:0:
268,209,84152,1,2,0:0:0:0:
430,38,84394,6,0,P|400:75|404:121,1,95.3333362426759,6|0,3:2|0:0,0:0:0:0:
512,318,84878,2,0,P|482:325|460:332,1,47.6666681213379,2|0,0:0|0:0,0:0:0:0:
393,287,85120,2,0,P|315:305|227:323,1,143.000004364014,8|0,0:0|0:0,0:0:0:0:
248,326,85604,1,2,0:0:0:0:
54,183,85846,6,0,P|95:212|160:210,1,95.3333362426759,6|0,3:2|0:0,0:0:0:0:
217,181,86329,1,2,0:0:0:0:
375,93,86571,2,0,P|334:122|269:120,1,95.3333362426759,10|0,0:0|0:0,0:0:0:0:
212,91,87054,1,2,0:0:0:0:
57,10,87297,6,0,P|73:60|86:110,1,95.3333362426759,6|0,3:2|0:0,0:0:0:0:
23,165,87781,1,2,0:0:0:0:
130,308,88023,1,10,0:0:0:0:
212,249,88265,1,2,0:0:0:0:
322,330,88507,1,2,0:0:0:0:
482,212,88748,6,0,P|493:258|507:303,1,95.3333362426759,6|0,3:2|0:0,0:0:0:0:
401,187,89232,1,2,0:0:0:0:
494,41,89474,1,10,0:0:0:0:
403,89,89716,1,2,0:0:0:0:
276,20,89958,1,2,0:0:0:0:
116,130,90200,6,0,B|223:152|182:189|297:211,1,190.666672485352,6|0,3:2|0:0,0:0:0:0:
69,354,90926,2,0,P|65:307|35:269,1,95.3333362426759,10|0,0:0|0:0,0:0:0:0:
203,122,91410,1,2,0:0:0:0:
48,0,91652,6,0,B|33:59|-3:196|-3:196|17:176|49:179,1,238.33334060669,6|0,3:2|0:0,0:0:0:0:
50,263,92377,1,8,0:0:0:0:
196,153,92619,1,2,3:2:0:0:
114,178,92861,1,2,3:2:0:0:
261,295,93103,1,2,3:2:0:0:
208,364,93345,1,2,3:2:0:0:
351,287,93587,1,2,3:2:0:0:
351,287,93829,2,0,P|333:218|318:144,1,143.000004364014,8|0,0:0|0:0,0:0:0:0:
327,143,94313,2,0,P|336:117|345:87,1,47.6666681213379,2|0,0:0|0:0,0:0:0:0:
130,1,94555,6,0,B|99:40|99:40|119:85,1,95.3333362426759,14|0,3:1|0:0,0:0:0:0:
0,258,95039,2,0,P|26:247|52:250,1,47.6666681213379,2|0,0:0|0:0,0:0:0:0:
113,193,95280,2,0,P|181:200|232:272,1,143.000004364014,8|0,0:0|0:0,0:0:0:0:
232,265,95764,1,2,0:0:0:0:
414,98,96006,6,0,P|397:145|385:190,1,95.3333362426759,6|0,3:2|0:0,0:0:0:0:
512,365,96490,2,0,P|486:354|460:357,1,47.6666681213379,2|0,0:0|0:0,0:0:0:0:
397,301,96732,2,0,P|329:308|278:380,1,143.000004364014,8|0,0:0|0:0,0:0:0:0:
277,374,97215,1,2,0:0:0:0:
109,277,97458,6,0,P|96:230|80:186,1,95.3333362426759,6|0,3:2|0:0,0:0:0:0:
140,124,97942,1,2,0:0:0:0:
290,224,98184,6,0,P|302:177|318:133,1,95.3333362426759,10|0,0:0|0:0,0:0:0:0:
259,71,98668,1,2,0:0:0:0:
476,13,98910,6,0,P|436:45|390:51,1,95.3333362426759,6|0,3:2|0:0,0:0:0:0:
318,9,99394,1,2,0:0:0:0:
186,108,99636,1,10,0:0:0:0:
258,197,99878,1,2,0:0:0:0:
187,309,100120,1,2,0:0:0:0:
326,384,100361,6,0,P|296:295|265:183,1,190.666672485352,6|0,3:2|0:0,0:0:0:0:
101,315,101087,1,10,0:0:0:0:
166,230,101329,1,2,0:0:0:0:
79,112,101571,1,2,0:0:0:0:
222,3,101813,6,0,B|330:21|283:62|395:80,1,190.666672485352,6|0,3:2|0:0,0:0:0:0:
512,226,102538,1,10,0:0:0:0:
473,325,102780,1,2,0:0:0:0:
345,355,103023,1,2,0:0:0:0:
200,226,103265,6,0,B|114:250|114:250|110:259|110:259|7:287,1,190.666672485352,6|0,3:2|0:0,0:0:0:0:
181,383,103990,1,10,0:0:0:0:
125,281,104232,1,2,0:0:0:0:
225,148,104474,1,2,0:0:0:0:
84,14,104716,2,0,P|125:45|187:43,1,95.3333362426759,2|0,3:2|3:2,0:0:0:0:
325,2,105199,1,0,3:2:0:0:
325,2,105320,1,0,3:2:0:0:
325,2,105441,2,0,P|306:25|296:57,1,47.6666681213379,8|0,0:0|3:2,0:0:0:0:
239,104,105683,2,0,P|249:131|272:156,1,47.6666681213379,2|0,3:2|3:2,0:0:0:0:
325,238,105925,2,0,P|354:242|387:235,1,47.6666681213379,2|0,3:2|3:2,0:0:0:0:
512,99,106167,6,0,P|495:179|479:274,1,155.999995239258,14|2,3:1|0:0,0:0:0:0:
364,339,106893,2,0,B|281:332|308:304|201:296,1,155.999995239258,2|2,0:0|0:0,0:0:0:0:
88,340,107619,2,0,P|58:334|87:330,2,77.999997619629
137,260,108344,1,2,0:0:0:0:
75,189,108586,1,2,0:0:0:0:
146,105,108828,1,2,0:0:0:0:
48,0,109070,6,0,P|91:11|147:23,1,77.999997619629,6|0,0:0|0:0,0:0:0:0:
206,39,109554,1,2,0:0:0:0:
382,0,109796,2,0,P|353:25|344:78,1,77.999997619629,2|0,0:0|0:0,0:0:0:0:
395,127,110159,1,0,0:0:0:0:
395,127,110280,2,0,P|407:164|423:220,1,77.999997619629,6|0,0:0|0:0,0:0:0:0:
471,384,111006,1,2,0:0:0:0:
471,384,111248,2,0,P|432:376|382:368,2,77.999997619629,2|2|2,0:0|0:0|0:0,0:0:0:0:
342,297,111973,5,6,0:0:0:0:
273,349,112215,1,2,0:0:0:0:
194,315,112457,2,0,B|130:322|149:345|61:354,1,116.999996429443,2|0,0:0|0:0,0:0:0:0:
25,301,112941,1,2,0:0:0:0:
144,177,113425,1,2,0:0:0:0:
90,109,113667,2,0,P|89:67|121:27,1,77.999997619629,2|2,0:0|0:0,0:0:0:0:
243,116,114151,1,2,0:0:0:0:
326,94,114393,1,2,0:0:0:0:
409,73,114635,1,2,0:0:0:0:
510,168,114876,6,0,P|495:208|485:244,1,77.999997619629,2|2,0:0|0:0,0:0:0:0:
360,354,115360,2,0,P|334:277|308:203,1,155.999995239258,2|0,0:0|0:0,0:0:0:0:
171,357,116086,1,2,0:0:0:0:
171,357,116328,2,0,P|181:289|249:311,1,155.999995239258,2|2,0:0|0:0,0:0:0:0:
103,247,117054,1,2,0:0:0:0:
159,171,117296,1,2,0:0:0:0:
96,78,117538,1,2,0:0:0:0:
228,0,117780,6,0,P|257:24|313:33,1,73.6666680717469,6|0,3:2|0:0,0:0:0:0:
375,8,118263,1,2,0:0:0:0:
285,148,118505,2,0,P|314:124|370:115,1,73.6666680717469,10|0,0:0|0:0,0:0:0:0:
433,137,118988,1,2,0:0:0:0:
297,276,119231,1,2,3:2:0:0:
436,371,119473,1,0,0:0:0:0:
392,289,119715,1,2,3:2:0:0:
260,384,119957,1,8,0:0:0:0:
260,384,120683,6,0,P|225:373|183:364,1,73.6666680717469,6|0,3:2|0:0,0:0:0:0:
102,383,121167,1,2,0:0:0:0:
0,276,121408,6,0,P|34:265|77:256,1,73.6666680717469,10|0,0:0|0:0,0:0:0:0:
158,275,121892,1,2,0:0:0:0:
282,158,122134,1,2,3:2:0:0:
144,53,122376,1,0,0:0:0:0:
235,24,122618,1,2,3:2:0:0:
108,137,122860,2,0,P|119:171|129:207,1,73.6666680717469,8|0,0:0|0:0,0:0:0:0:
108,137,123343,1,0,3:2:0:0:
10,288,123586,6,0,P|46:291|78:318,1,73.6666680717469,6|0,3:2|0:0,0:0:0:0:
133,380,124070,1,2,0:0:0:0:
240,279,124312,2,0,P|276:282|308:309,1,73.6666680717469,10|0,0:0|0:0,0:0:0:0:
363,371,124796,1,2,0:0:0:0:
512,228,125037,1,2,3:2:0:0:
391,273,125279,1,0,0:0:0:0:
476,314,125521,1,2,3:2:0:0:
413,147,125763,1,8,0:0:0:0:
413,147,126247,1,2,3:2:0:0:
509,55,126489,6,0,P|474:46|434:35,1,73.6666680717469,6|0,3:2|0:0,0:0:0:0:
358,75,126973,1,2,0:0:0:0:
193,47,127215,6,0,P|228:38|268:27,1,73.6666680717469,10|0,0:0|0:0,0:0:0:0:
344,67,127699,1,2,0:0:0:0:
215,185,127940,1,2,3:2:0:0:
355,289,128182,1,0,0:0:0:0:
311,204,128424,1,2,3:2:0:0:
168,301,128666,2,0,B|104:290|104:290|98:294|98:294|12:279,1,147.333336143494,8|2,0:0|0:0,0:0:0:0:
180,308,129392,6,0,P|266:291|354:276,1,164.666662269592,6|2,3:2|0:0,0:0:0:0:
470,384,130118,2,0,B|469:348|429:326|429:326|481:308|481:237,1,164.666662269592,10|2,0:0|0:0,0:0:0:0:
393,142,130844,1,2,3:2:0:0:
473,58,131085,2,0,L|509:67,2,20.5833327836991,2|0|0,0:0|0:0|0:0,0:0:0:0:
412,0,131327,2,0,P|374:10|325:21,1,82.3333311347962,2|8,3:2|0:0,0:0:0:0:
246,84,131811,1,2,0:0:0:0:
246,84,132053,1,2,0:0:0:0:
89,20,132295,6,0,P|118:52|127:109,1,82.3333311347962,6|0,3:2|0:0,0:0:0:0:
70,162,132779,1,2,0:0:0:0:
159,307,133021,2,0,B|228:319|285:331|285:331|261:316|254:290,1,164.666662269592,10|2,0:0|0:0,0:0:0:0:
348,167,133747,1,2,3:2:0:0:
275,106,133989,2,0,P|268:87|262:61,1,41.1666655673981,2|0,0:0|0:0,0:0:0:0:
323,0,134230,2,0,P|367:-5|405:19,1,82.3333311347962,2|8,3:2|0:0,0:0:0:0:
452,74,134714,1,0,0:0:0:0:
368,172,134956,2,0,L|332:163,2,20.5833327836991,2|0|0,3:2|0:0|0:0,0:0:0:0:
471,246,135198,6,0,B|387:264|419:295|322:316,1,164.666662269592,6|2,3:2|0:0,0:0:0:0:
198,381,135924,2,0,B|114:363|146:332|49:311,1,164.666662269592,10|2,0:0|0:0,0:0:0:0:
145,183,136650,1,2,3:2:0:0:
63,97,136892,2,0,L|27:106,2,20.5833327836991,2|0|0,0:0|0:0|0:0,0:0:0:0:
118,29,137134,2,0,P|156:39|205:50,1,82.3333311347962,2|8,3:2|0:0,0:0:0:0:
269,116,137617,1,2,0:0:0:0:
269,116,137859,1,2,0:0:0:0:
172,267,138101,6,0,P|213:256|254:248,1,82.3333311347962,6|0,3:2|0:0,0:0:0:0:
323,301,138585,1,2,0:0:0:0:
489,170,138827,2,0,P|448:161|398:148,1,82.3333311347962,10|0,0:0|0:0,0:0:0:0:
331,201,139311,1,2,0:0:0:0:
192,89,139553,1,2,3:2:0:0:
257,26,139795,2,0,P|252:6|246:-15,2,27.4444437115987
269,37,140037,2,0,P|285:75|280:119,1,82.3333311347962,2|8,3:2|0:0,0:0:0:0:
225,184,140520,1,0,0:0:0:0:
322,300,140762,2,0,P|296:307|260:318,1,41.1666655673981,2|0,3:2|0:0,0:0:0:0:
236,383,141004,6,0,P|223:308|161:349,1,164.666662269592,6|2,3:2|0:0,0:0:0:0:
23,274,141730,2,0,P|36:199|98:240,1,164.666662269592,2|2,3:2|0:0,0:0:0:0:
275,129,142456,1,2,3:2:0:0:
203,73,142698,2,0,L|167:82,2,20.5833327836991,2|0|0,0:0|0:0|0:0,0:0:0:0:
262,5,142940,2,0,P|302:18|360:34,2,82.3333311347962,2|8|0,3:2|0:0|3:2,0:0:0:0:
366,119,143666,2,0,L|357:155,2,20.5833327836991,2|0|0,0:0|0:0|0:0,0:0:0:0:
467,14,143908,6,0,P|491:47|492:106,1,82.3333311347962,6|0,3:2|0:0,0:0:0:0:
445,157,144391,1,2,0:0:0:0:
512,301,144633,2,0,P|442:249|361:284,1,164.666662269592,10|2,0:0|0:0,0:0:0:0:
216,354,145359,1,2,3:2:0:0:
321,384,145601,2,0,P|315:364|311:342,1,41.1666655673981,2|0,0:0|0:0,0:0:0:0:
257,267,145843,1,2,3:2:0:0:
346,148,146085,2,0,P|335:106|324:52,1,82.3333311347962,8|0,0:0|0:0,0:0:0:0:
429,7,146569,2,0,P|423:26|419:49,1,41.1666655673981,2|0,3:2|0:0,0:0:0:0:
249,130,146811,6,0,B|161:116|188:86|96:69,1,164.666662269592,6|2,3:2|0:0,0:0:0:0:
0,228,147536,2,0,B|88:242|61:272|153:289,1,164.666662269592,10|2,0:0|0:0,0:0:0:0:
328,245,148262,1,2,3:2:0:0:
253,314,148504,2,0,L|244:350,2,20.5833327836991,2|0|0,0:0|0:0|0:0,0:0:0:0:
339,366,148746,1,2,3:2:0:0:
239,221,148988,1,8,0:0:0:0:
349,139,149230,2,0,P|391:144|433:174,1,82.3333311347962,2|2,3:2|0:0,0:0:0:0:
221,27,149714,6,0,B|146:44|146:44|142:51|142:51|57:70,1,164.666662269592,6|2,3:2|0:0,0:0:0:0:
0,215,150440,2,0,B|75:232|75:232|79:239|79:239|164:258,1,164.666662269592,2|2,3:2|0:0,0:0:0:0:
300,384,151165,1,2,3:2:0:0:
265,277,151407,2,0,P|270:257|276:236,2,27.4444437115987
262,292,151649,1,2,3:2:0:0:
396,194,151891,2,0,P|388:153|359:124,1,82.3333311347962,8|0,0:0|0:0,0:0:0:0:
408,56,152375,1,2,0:0:0:0:
251,3,152617,6,0,P|172:24|84:45,1,155.999995239258,6|0,0:0|0:0,0:0:0:0:
30,5,153585,2,0,P|7:36|9:66,1,51.999998413086,2|2,0:0|0:0,0:0:0:0:
54,108,154068,2,0,P|77:139|75:169,1,51.999998413086,2|2,0:0|0:0,0:0:0:0:
31,213,154552,1,2,0:0:0:0:
132,331,155036,2,0,P|157:322|199:311,1,51.999998413086,2|2,0:0|0:0,0:0:0:0:
248,355,155520,6,0,P|224:299|290:232,1,155.999995239258,2|2,0:0|0:0,0:0:0:0:
426,300,156730,1,2,0:0:0:0:
426,300,156972,2,0,P|467:269|435:220,1,103.999996826172,2|2,0:0|0:0,0:0:0:0:
450,226,158181,2,0,P|458:199|462:182,1,25.999999206543,2|0,0:0|0:0,0:0:0:0:
321,67,158423,6,0,B|267:81|267:81|267:89|267:89|194:112,1,121.333329630534,6|0,3:1|0:0,0:0:0:0:
72,176,159149,6,0,B|141:197|141:197|144:205|144:205|222:227,1,138.666666666667,6|0,3:1|0:0,0:0:0:0:
384,300,159875,6,0,B|318:321|318:321|315:328|315:328|230:356,1,155.999995239258,6|0,3:1|0:0,0:0:0:0:
36,143,160600,6,0,B|118:168|118:168|120:175|120:175|244:212,1,216.666666666667,6|0,3:1|0:0,0:0:0:0:
246,218,161326,1,8,3:3:0:0:
309,162,161568,1,0,3:2:0:0:
275,77,161810,1,0,3:2:0:0:
271,66,162052,1,8,3:3:0:0:
370,7,162294,1,8,3:3:0:0:
483,75,162536,1,8,3:3:0:0:
377,254,162778,6,0,B|289:245|317:317|218:307|218:307|242:297|249:268,1,216.666666666667,4|0,3:1|0:0,0:0:0:0:
248,269,163504,1,2,0:0:0:0:
248,269,163745,1,2,0:0:0:0:
248,269,163987,2,0,P|237:240|228:207,1,43.3333333333333,2|0,0:0|0:0,0:0:0:0:
64,108,164229,6,0,P|104:139|170:140,1,99.6666685676575,6|0,3:1|0:0,0:0:0:0:
369,124,164713,2,0,P|375:101|383:74,1,49.8333342838288,2|0,0:0|0:0,0:0:0:0:
314,7,164955,2,0,P|295:71|272:162,1,149.500002851486,8|0,0:0|0:0,0:0:0:0:
327,217,165439,1,2,0:0:0:0:
188,365,165681,6,0,P|184:318|217:279,1,99.6666685676575,6|0,3:2|0:0,0:0:0:0:
91,143,166165,2,0,P|84:120|76:92,1,49.8333342838288,2|0,0:0|0:0,0:0:0:0:
146,28,166407,2,0,P|165:92|188:183,1,149.500002851486,8|0,0:0|0:0,0:0:0:0:
133,238,166891,1,2,0:0:0:0:
287,340,167133,6,0,B|327:310|327:310|381:325,1,99.6666685676575,6|0,3:2|0:0,0:0:0:0:
443,279,167616,1,2,0:0:0:0:
510,135,167858,6,0,B|462:148|462:148|422:118,1,99.6666685676575,8|0,0:0|0:0,0:0:0:0:
478,50,168341,1,2,0:0:0:0:
313,177,168584,1,6,3:2:0:0:
221,122,168826,6,0,P|171:138|120:151,1,99.6666685676575,2|0,0:0|0:0,0:0:0:0:
39,313,169310,1,10,0:0:0:0:
135,261,169552,1,2,0:0:0:0:
245,339,169794,1,2,0:0:0:0:
395,255,170035,6,0,P|398:207|370:158,1,99.6666685676575,6|0,3:2|0:0,0:0:0:0:
307,106,170519,1,2,0:0:0:0:
490,5,170761,1,10,0:0:0:0:
417,82,171003,1,2,0:0:0:0:
254,6,171245,1,2,3:2:0:0:
82,138,171487,6,0,P|170:131|248:224,1,199.333337135315,6|2,3:2|0:0,0:0:0:0:
452,77,172213,2,0,P|434:129|420:181,1,99.6666685676575,10|0,0:0|0:0,0:0:0:0:
483,237,172697,1,2,0:0:0:0:
311,358,172939,6,0,B|317:337|341:328|341:328|294:300|223:323|259:363|194:382|146:346,1,249.166671419144,6|0,3:2|0:0,0:0:0:0:
98,285,173664,1,8,0:0:0:0:
211,127,173906,1,2,0:0:0:0:
121,169,174148,1,2,3:2:0:0:
45,31,174390,1,6,3:2:0:0:
132,73,174632,1,2,0:0:0:0:
0,165,174874,1,2,3:2:0:0:
102,284,175116,2,0,P|183:266|255:252,1,149.500002851486,8|0,0:0|0:0,0:0:0:0:
256,258,175600,2,0,P|273:276|303:283,1,49.8333342838288,2|0,3:2|0:0,0:0:0:0:
435,358,175842,6,0,B|441:334|420:310|420:310|443:297|449:260,1,99.6666685676575,6|0,3:1|0:0,0:0:0:0:
321,105,176326,2,0,P|328:127|313:146,1,49.8333342838288,2|0,0:0|0:0,0:0:0:0:
371,207,176567,2,0,P|409:150|391:63,1,149.500002851486,8|0,0:0|0:0,0:0:0:0:
357,2,177051,1,2,0:0:0:0:
176,72,177293,6,0,P|193:115|210:164,1,99.6666685676575,6|0,3:2|0:0,0:0:0:0:
86,286,177777,2,0,P|78:263|93:244,1,49.8333342838288,2|0,0:0|0:0,0:0:0:0:
36,184,178019,2,0,P|-2:240|15:327,1,149.500002851486,8|0,0:0|0:0,0:0:0:0:
57,384,178502,1,2,0:0:0:0:
225,289,178745,6,0,P|273:306|319:319,1,99.6666685676575,6|0,3:2|0:0,0:0:0:0:
384,262,179229,1,2,0:0:0:0:
241,172,179471,2,0,P|193:189|147:202,1,99.6666685676575,10|0,0:0|0:0,0:0:0:0:
82,145,179955,1,2,0:0:0:0:
253,36,180196,6,0,P|293:68|341:72,1,99.6666685676575,6|0,3:2|0:0,0:0:0:0:
414,20,180681,1,2,0:0:0:0:
495,153,180923,1,10,0:0:0:0:
425,233,181165,1,2,0:0:0:0:
504,343,181407,1,2,0:0:0:0:
298,257,181648,6,0,B|194:268|230:322|110:331,1,199.333337135315,6|0,3:2|0:0,0:0:0:0:
0,188,182374,1,10,0:0:0:0:
87,237,182616,1,2,0:0:0:0:
180,122,182858,1,2,3:2:0:0:
12,37,183100,6,0,P|64:24|119:8,1,99.6666685676575,6|0,3:2|0:0,0:0:0:0:
190,37,183583,1,2,0:0:0:0:
84,149,183825,1,10,0:0:0:0:
141,235,184067,1,2,0:0:0:0:
60,346,184310,1,2,0:0:0:0:
241,265,184551,6,0,P|288:278|337:290,1,99.6666685676575,6|0,3:2|0:0,0:0:0:0:
389,355,185035,1,2,0:0:0:0:
502,197,185277,1,10,0:0:0:0:
418,230,185519,1,2,0:0:0:0:
303,79,185761,1,2,3:2:0:0:
512,13,186003,6,0,P|483:147|451:312,1,299.000005702973,6|8,3:2|0:0,0:0:0:0:
375,357,186970,1,2,0:0:0:0:
278,284,187212,1,2,3:2:0:0:
452,139,187454,6,0,B|408:166|408:166|362:150,1,99.6666685676575,6|0,3:1|0:0,0:0:0:0:
305,79,187938,1,2,0:0:0:0:
163,183,188180,2,0,P|178:232|194:298,1,99.6666685676575,10|0,0:0|0:0,0:0:0:0:
116,330,188664,1,2,0:0:0:0:
0,168,188906,2,0,P|35:135|88:129,1,99.6666685676575,4|0,3:2|0:0,0:0:0:0:
145,61,189390,1,2,0:0:0:0:
292,180,189631,1,10,0:0:0:0:
251,99,189873,1,2,0:0:0:0:
315,36,190115,1,2,0:0:0:0:
458,128,190357,6,0,B|456:166|424:180|424:180|453:227|421:264,1,149.500002851486,6|0,3:2|0:0,0:0:0:0:
431,267,190841,1,2,0:0:0:0:
197,375,191083,2,0,B|214:327|214:327|178:272,1,99.6666685676575,10|0,0:0|0:0,0:0:0:0:
71,122,191567,1,2,0:0:0:0:
0,189,191809,2,0,P|53:203|106:221,1,99.6666685676575,4|0,3:2|0:0,0:0:0:0:
175,168,192293,1,2,0:0:0:0:
318,289,192535,1,10,0:0:0:0:
278,207,192777,1,2,0:0:0:0:
344,131,193018,1,2,0:0:0:0:
222,12,193260,5,6,3:2:0:0:
314,40,193502,1,2,0:0:0:0:
171,142,193744,1,2,0:0:0:0:
24,71,193986,2,0,P|11:125|-5:184,1,99.6666685676575,8|0,0:0|3:2,0:0:0:0:
66,224,194470,1,0,3:2:0:0:
1,349,194712,2,0,P|41:320|111:329,1,99.6666685676575,6|2,3:2|0:0,0:0:0:0:
171,353,195196,1,2,0:0:0:0:
305,215,195438,1,10,0:0:0:0:
219,242,195680,1,2,3:2:0:0:
325,128,195922,1,2,3:2:0:0:
176,32,196163,5,6,3:2:0:0:
232,105,196405,1,2,0:0:0:0:
379,8,196647,1,2,0:0:0:0:
512,106,196889,2,0,P|496:164|483:215,1,99.6666685676575,8|0,0:0|3:2,0:0:0:0:
512,285,197373,1,2,3:2:0:0:
302,210,197615,6,0,B|226:221|256:246|169:259,1,138.666666666667,6|2,3:1|0:0,0:0:0:0:
98,308,198341,2,0,P|81:337|80:387,2,69.3333333333333,2|2|2,0:0|0:0|0:0,0:0:0:0:
18,139,199067,6,0,B|12:123|-4:116|-4:116|54:133|121:145,1,155.999995239258,4|0,3:1|0:0,0:0:0:0:
260,66,199792,1,8,0:0:0:0:
201,5,200034,2,0,P|178:38|178:89,1,77.999997619629,2|2,0:0|0:0,0:0:0:0:
287,167,200518,1,2,3:2:0:0:
230,229,200760,2,0,P|219:274|207:320,1,77.999997619629,2|2,0:0|0:0,0:0:0:0:
327,382,201244,1,10,0:0:0:0:
441,300,201486,1,10,3:3:0:0:
364,231,201728,1,10,3:3:0:0:
512,156,201970,6,0,B|419:165|455:210|351:219,1,164.666662269592,4|2,3:2|0:0,0:0:0:0:
213,336,202695,2,0,P|225:293|242:234,1,82.3333311347962,10|0,0:0|0:0,0:0:0:0:
282,184,203179,2,0,P|275:160|269:131,1,41.1666655673981,2|0,0:0|0:0,0:0:0:0:
440,49,203421,2,0,P|379:35|339:24,1,82.3333311347962,2|0,3:2|0:0,0:0:0:0:
283,62,203905,1,2,0:0:0:0:
96,14,204147,2,0,B|129:31|133:68|133:68|87:102|102:168,1,164.666662269592,10|2,0:0|0:0,0:0:0:0:
0,314,204873,5,6,3:2:0:0:
82,277,205115,1,2,0:0:0:0:
147,339,205357,2,0,P|186:326|249:312,1,82.3333311347962,2|8,0:0|0:0,0:0:0:0:
381,381,205841,1,2,0:0:0:0:
324,304,206082,2,0,P|314:280|306:252,1,41.1666655673981,2|0,0:0|0:0,0:0:0:0:
466,145,206324,2,0,B|471:128|485:115|485:115|415:110|436:151|363:146,1,164.666662269592,2|0,3:2|0:0,0:0:0:0:
229,20,207050,2,0,P|270:29|329:41,1,82.3333311347962,10|0,0:0|0:0,0:0:0:0:
183,193,207534,1,0,3:2:0:0:
183,193,207655,1,0,3:2:0:0:
183,193,207776,5,2,3:2:0:0:
99,157,208018,1,2,0:0:0:0:
37,223,208260,2,0,P|48:262|61:316,2,82.3333311347962,2|8|0,0:0|0:0|0:0,0:0:0:0:
259,355,208986,1,0,0:0:0:0:
259,355,209107,1,0,0:0:0:0:
259,355,209227,2,0,P|268:315|280:275,1,82.3333311347962,2|0,3:2|0:0,0:0:0:0:
216,210,209711,1,2,0:0:0:0:
407,117,209953,2,0,P|372:141|312:145,1,82.3333311347962,10|0,0:0|0:0,0:0:0:0:
265,100,210437,2,0,P|238:94|193:85,1,41.1666655673981,2|0,0:0|0:0,0:0:0:0:
58,20,210679,6,0,P|74:68|91:123,1,82.3333311347962,6|0,3:2|0:0,0:0:0:0:
29,169,211163,1,2,0:0:0:0:
173,286,211405,2,0,P|131:284|85:321,1,82.3333311347962,10|0,0:0|0:0,0:0:0:0:
20,350,211889,2,0,P|13:327|3:294,1,41.1666655673981,2|0,0:0|0:0,0:0:0:0:
135,174,212131,2,0,P|170:194|210:191,1,82.3333311347962,2|0,3:2|0:0,0:0:0:0:
283,246,212614,1,0,0:0:0:0:
427,153,212856,1,8,0:0:0:0:
303,114,213098,2,0,P|333:123|373:136,1,41.1666655673981,2|0,0:0|0:0,0:0:0:0:
430,244,213340,2,0,P|399:253|360:266,1,41.1666655673981,2|0,3:2|0:0,0:0:0:0:
231,360,213582,6,0,B|130:347|171:317|57:302,1,173.333333333333,6|0,3:2|0:0,0:0:0:0:
3,161,214308,2,0,B|104:148|63:118|177:103,1,173.333333333333,8|0,0:0|0:0,0:0:0:0:
390,6,215034,2,0,P|330:77|355:148,1,173.333333333333,6|0,3:2|0:0,0:0:0:0:
448,269,215759,2,0,P|419:242|360:235,1,86.6666666666667,8|0,0:0|0:0,0:0:0:0:
181,338,216243,1,0,0:0:0:0:
181,338,216364,1,0,0:0:0:0:
181,338,216485,6,0,P|202:275|234:163,1,173.333333333333,6|0,3:2|0:0,0:0:0:0:
375,233,217211,2,0,P|347:150|324:67,1,173.333333333333,8|0,0:0|0:0,0:0:0:0:
81,12,217937,2,0,B|119:27|116:78|116:78|67:107|80:163,1,173.333333333333,6|0,3:2|0:0,0:0:0:0:
0,297,218663,2,0,P|39:268|94:274,1,86.6666666666667,10|0,0:0|0:0,0:0:0:0:
224,360,219146,1,0,0:0:0:0:
224,360,219267,1,0,0:0:0:0:
224,360,219388,5,6,3:2:0:0:
303,313,219630,2,0,P|345:327|397:342,1,86.6666666666667,2|0,0:0|0:0,0:0:0:0:
508,241,220114,2,0,P|430:217|334:187,1,173.333333333333,8|0,0:0|0:0,0:0:0:0:
222,88,220840,2,0,P|300:64|396:34,1,173.333333333333,6|0,3:2|0:0,0:0:0:0:
512,143,221566,1,8,0:0:0:0:
512,143,221687,1,0,0:0:0:0:
512,143,221808,1,0,0:0:0:0:
423,271,222050,2,0,P|395:261|366:252,1,43.3333333333333
260,194,222291,6,0,B|161:208|200:243|95:255,1,173.333333333333,6|0,3:2|0:0,0:0:0:0:
24,117,223017,2,0,P|66:143|125:140,1,86.6666666666667,8|0,0:0|0:0,0:0:0:0:
217,39,223501,1,0,0:0:0:0:
217,39,223622,1,0,0:0:0:0:
217,39,223743,2,0,P|303:55|403:72,1,173.333333333333,6|0,3:2|0:0,0:0:0:0:
260,194,224469,1,8,0:0:0:0:
378,290,224711,1,0,0:0:0:0:
378,290,224832,1,0,0:0:0:0:
378,290,224953,2,0,L|317:277,1,43.3333333333333
142,362,225195,6,0,B|33:309|-9:205|70:121|137:192|137:192|167:132|237:134|284:235|197:313,1,572.000017456055,4|0,3:1|0:0,0:0:0:0:
433,373,228340,5,10,0:0:0:0:
351,284,228582,1,0,3:2:0:0:
506,163,228823,5,10,0:0:0:0:
462,272,229065,1,8,3:3:0:0:
462,272,229307,1,8,3:3:0:0:
309,81,229549,5,2,3:2:0:0:
244,252,229791,1,10,0:0:0:0:
329,186,230033,1,0,3:2:0:0:
75,44,230275,5,10,0:0:0:0:
203,118,230517,1,2,3:2:0:0:
57,274,230759,1,10,0:0:0:0:
57,274,231727,6,0,P|46:237|31:195,2,69.3333333333333,2|2|2,0:0|0:0|0:0,0:0:0:0:
139,311,232452,6,0,P|168:290|227:293,1,69.3333333333333,2|0,0:0|0:0,0:0:0:0:
279,328,232935,2,0,P|286:308|302:270,1,34.6666666666667,2|0,0:0|0:0,0:0:0:0:
482,146,233177,6,0,B|391:160|429:191|326:206,1,155.999995239258,14|0,0:0|0:0,0:0:0:0:
384,278,233661,1,2,0:0:0:0:
157,372,233903,6,0,P|186:341|194:277,1,103.999996826172,6|0,3:2|0:0,0:0:0:0:
251,218,234387,2,0,P|244:198|228:157,1,51.999998413086,2|0,0:0|0:0,0:0:0:0:
11,34,234629,2,0,B|102:48|64:79|167:94,1,155.999995239258,8|0,0:0|0:0,0:0:0:0:
102,164,235113,1,2,0:0:0:0:
261,30,235355,6,0,P|318:28|371:73,1,103.999996826172,6|0,3:2|0:0,0:0:0:0:
422,114,235838,1,2,0:0:0:0:
278,203,236080,2,0,P|221:201|168:246,1,103.999996826172,8|0,0:0|0:0,0:0:0:0:
120,287,236563,1,2,0:0:0:0:
300,382,236806,6,0,P|311:338|330:272,1,103.999996826172,6|0,3:2|0:0,0:0:0:0:
445,356,237290,2,0,P|439:328|431:295,1,51.999998413086,2|0,0:0|0:0,0:0:0:0:
501,130,237532,2,0,P|475:149|431:152,1,51.999998413086,10|0,0:0|0:0,0:0:0:0:
384,207,237774,2,0,P|354:193|329:157,1,51.999998413086,2|0,0:0|0:0,0:0:0:0:
249,107,238016,2,0,P|245:74|264:35,1,51.999998413086,2|0,0:0|0:0,0:0:0:0:
52,208,238258,6,0,P|106:204|157:237,1,103.999996826172,6|0,3:2|0:0,0:0:0:0:
196,305,238742,2,0,P|170:311|145:318,1,51.999998413086,2|0,0:0|0:0,0:0:0:0:
276,195,238983,2,0,P|305:198|349:221,1,51.999998413086,10|0,0:0|0:0,0:0:0:0:
406,274,239225,2,0,P|435:271|479:248,1,51.999998413086,2|0,0:0|0:0,0:0:0:0:
512,144,239467,2,0,P|487:135|461:133,1,51.999998413086,2|0,3:2|0:0,0:0:0:0:
257,64,239709,6,0,B|237:53|238:30|238:30|299:-4|361:13|392:95,1,207.999993652344,6|0,3:2|0:0,0:0:0:0:
278,233,240435,2,0,P|228:218|160:206,1,103.999996826172,10|0,0:0|0:0,0:0:0:0:
123,135,240919,1,2,0:0:0:0:
0,340,241161,6,0,B|116:322|56:396|180:380|180:380|144:373|124:332,1,259.99999206543,6|0,3:2|0:0,0:0:0:0:
204,301,241887,1,8,0:0:0:0:
363,375,242129,2,0,P|355:352|344:313,1,51.999998413086,2|0,0:0|0:0,0:0:0:0:
436,205,242370,1,2,3:2:0:0:
436,205,242491,1,0,3:2:0:0:
436,205,242612,6,0,P|428:228|417:267,1,51.999998413086,6|0,3:2|0:0,0:0:0:0:
302,138,242854,2,0,P|294:113|286:88,1,51.999998413086,2|0,0:0|0:0,0:0:0:0:
481,48,243096,2,0,P|472:72|465:97,1,51.999998413086,2|0,3:2|0:0,0:0:0:0:
324,222,243338,2,0,P|269:220|229:185,1,103.999996826172,8|0,0:0|0:0,0:0:0:0:
144,264,243822,2,0,P|169:269|197:275,1,51.999998413086,2|0,3:2|0:0,0:0:0:0:
0,48,244064,6,0,B|76:63|76:63|78:70|78:70|177:90,1,155.999995239258,6|0,3:1|0:0,0:0:0:0:
217,44,244548,1,2,0:0:0:0:
45,177,244790,2,0,P|19:230|37:287,1,103.999996826172,8|0,0:0|0:0,0:0:0:0:
127,339,245274,2,0,P|101:344|74:350,1,51.999998413086,2|0,0:0|0:0,0:0:0:0:
279,153,245516,6,0,B|203:168|203:168|201:175|201:175|102:195,1,155.999995239258,6|0,3:2|0:0,0:0:0:0:
45,177,245999,1,2,0:0:0:0:
219,314,246241,2,0,P|269:294|296:235,1,103.999996826172,8|0,0:0|0:0,0:0:0:0:
402,337,246725,2,0,P|392:310|381:277,1,51.999998413086,2|0,0:0|0:0,0:0:0:0:
505,122,246967,6,0,P|446:121|399:85,1,103.999996826172,6|0,3:2|0:0,0:0:0:0:
349,32,247451,1,2,0:0:0:0:
183,193,247693,2,0,P|221:148|279:135,1,103.999996826172,10|0,0:0|0:0,0:0:0:0:
345,163,248177,1,2,0:0:0:0:
196,27,248419,6,0,P|145:42|89:55,1,103.999996826172,6|0,3:2|0:0,0:0:0:0:
5,39,248902,2,0,P|3:71|26:106,1,51.999998413086,2|0,0:0|0:0,0:0:0:0:
118,229,249144,2,0,P|136:233|180:247,1,51.999998413086,10|0,0:0|0:0,0:0:0:0:
247,168,249386,2,0,P|265:164|309:150,1,51.999998413086,2|0,0:0|0:0,0:0:0:0:
393,270,249628,2,0,P|411:274|455:288,1,51.999998413086,2|0,0:0|0:0,0:0:0:0:
512,90,249870,6,0,P|433:74|405:192,1,207.999993652344,6|0,3:2|0:0,0:0:0:0:
318,333,250596,2,0,P|291:354|244:357,1,51.999998413086,10|0,0:0|0:0,0:0:0:0:
184,368,250838,2,0,P|152:355|126:315,1,51.999998413086,2|0,0:0|0:0,0:0:0:0:
82,250,251080,2,0,P|77:216|98:173,1,51.999998413086,2|0,3:2|0:0,0:0:0:0:
221,88,251322,6,0,B|167:108|109:76|148:50|88:16|32:36,1,207.999993652344,6|0,3:2|0:0,0:0:0:0:
179,228,252047,2,0,P|185:202|201:155,1,51.999998413086,10|0,0:0|0:0,0:0:0:0:
301,120,252289,2,0,P|307:145|323:193,1,51.999998413086,2|0,0:0|0:0,0:0:0:0:
420,260,252531,2,0,P|426:234|442:187,1,51.999998413086,2|0,0:0|0:0,0:0:0:0:
512,16,252773,6,0,B|449:30|374:45|374:45|413:39|441:57,1,207.999993652344,6|0,3:2|0:0,0:0:0:0:
510,211,253499,2,0,P|481:202|438:192,1,51.999998413086,10|0,0:0|0:0,0:0:0:0:
391,271,253741,2,0,P|366:278|340:284,1,51.999998413086,2|0,0:0|0:0,0:0:0:0:
253,186,253983,2,0,P|228:178|202:172,1,51.999998413086,2|0,0:0|0:0,0:0:0:0:
37,288,254225,2,0,P|69:252|69:173,2,103.999996826172,6|0|0,3:2|0:0|0:0,0:0:0:0:
187,368,254951,2,0,P|177:338|167:303,1,51.999998413086,8|0,0:0|0:0,0:0:0:0:
330,144,255193,1,2,3:2:0:0:
293,171,255313,1,0,3:2:0:0:
248,181,255434,1,2,3:2:0:0:
202,172,255555,1,0,3:2:0:0:
166,142,255676,6,0,B|191:71|207:25|207:25|206:52|218:68,1,155.999995239258,6|0,3:1|0:0,0:0:0:0:
216,64,256160,1,2,0:0:0:0:
387,0,256402,2,0,P|404:53|421:103,1,103.999996826172,10|0,0:0|0:0,0:0:0:0:
491,300,256886,2,0,P|468:292|431:283,1,51.999998413086,2|0,0:0|0:0,0:0:0:0:
382,229,257128,6,0,P|312:249|176:283,1,207.999993652344,4|0,3:2|0:0,0:0:0:0:
17,366,257854,2,0,P|34:343|40:301,1,51.999998413086,10|0,0:0|0:0,0:0:0:0:
98,253,258096,2,0,P|81:230|75:188,1,51.999998413086,2|0,0:0|0:0,0:0:0:0:
6,120,258338,2,0,P|23:97|29:55,1,51.999998413086,2|0,0:0|0:0,0:0:0:0:
155,7,258579,6,0,B|194:11|209:45|209:45|252:13|310:48,1,155.999995239258,6|0,3:2|0:0,0:0:0:0:
298,43,259063,1,2,0:0:0:0:
447,215,259305,2,0,P|388:209|330:250,1,112.666661509196,10|0,0:0|0:0,0:0:0:0:
176,347,259789,2,0,P|167:312|157:279,1,56.3333307545981,2|0,0:0|0:0,0:0:0:0:
97,237,260031,6,0,P|121:164|136:106,1,103.999996826172,4|0,3:2|0:0,0:0:0:0:
87,65,260515,1,2,0:0:0:0:
253,176,260757,2,0,P|245:150|235:115,1,51.999998413086,10|0,0:0|0:0,0:0:0:0:
409,17,260999,1,2,0:0:0:0:
396,62,261120,1,2,0:0:0:0:
384,107,261241,1,2,0:0:0:0:
372,152,261362,1,2,0:0:0:0:
358,196,261483,5,6,3:2:0:0:
470,159,261725,1,2,0:0:0:0:
378,339,261966,2,0,P|351:328|319:318,1,51.999998413086,2|0,0:0|0:0,0:0:0:0:
233,280,262208,2,0,B|178:290|192:311|127:322,1,103.999996826172,8|0,0:0|3:2,0:0:0:0:
19,173,262692,1,0,3:2:0:0:
19,173,262813,1,0,3:2:0:0:
19,173,262934,5,4,3:2:0:0:
133,48,263176,1,2,0:0:0:0:
57,78,263418,1,2,0:0:0:0:
198,208,263660,1,10,0:0:0:0:
298,180,263902,1,2,3:2:0:0:
418,145,264144,1,2,3:2:0:0:
490,320,264386,5,6,3:2:0:0:
382,244,264628,1,2,0:0:0:0:
508,147,264870,1,2,0:0:0:0:
369,3,265111,2,0,P|354:59|340:112,1,103.999996826172,8|0,0:0|3:2,0:0:0:0:
146,14,265595,2,0,P|156:42|165:72,1,51.999998413086,2|0,3:2|0:0,0:0:0:0:
70,143,265837,6,0,P|132:142|170:189,1,121.333329630534,6|2,3:1|0:0,0:0:0:0:
111,255,266563,1,2,0:0:0:0:
167,325,266805,1,2,0:0:0:0:
99,384,267047,2,0,P|283:338|495:289,1,394.333321299235,2|0,0:0|0:0,0:0:0:0:
482,291,268740,6,0,P|490:262|503:217,1,69.3333333333333,2|0,0:0|0:0,0:0:0:0:
459,150,269224,1,2,0:0:0:0:
330,230,269466,2,0,P|322:200|309:155,1,69.3333333333333,2|0,0:0|0:0,0:0:0:0:
352,87,269950,1,2,0:0:0:0:
225,167,270192,1,2,0:0:0:0:
147,121,270434,1,0,0:0:0:0:
28,193,270676,1,2,0:0:0:0:
187,337,271643,6,0,P|230:328|252:301,1,69.3333333333333,2|0,0:0|0:0,0:0:0:0:
297,240,272127,1,2,0:0:0:0:
428,324,272369,2,0,P|385:315|363:288,1,69.3333333333333,2|0,0:0|0:0,0:0:0:0:
318,227,272853,1,2,0:0:0:0:
433,109,273095,1,2,0:0:0:0:
350,143,273337,1,0,0:0:0:0:
265,51,273579,1,2,0:0:0:0:
40,125,274547,6,0,P|52:159|64:195,1,69.3333333333333,2|0,0:0|0:0,0:0:0:0:
18,262,275030,1,2,0:0:0:0:
184,190,275272,2,0,P|172:224|160:260,1,69.3333333333333,2|0,0:0|0:0,0:0:0:0:
206,327,275756,1,2,0:0:0:0:
340,228,275998,1,2,0:0:0:0:
254,252,276240,1,0,0:0:0:0:
384,347,276482,1,2,0:0:0:0:
495,102,277450,6,0,P|469:121|418:125,1,69.3333333333333,2|0,0:0|0:0,0:0:0:0:
375,71,277934,1,2,0:0:0:0:
265,162,278175,2,0,P|239:143|186:137,1,69.3333333333333,2|0,0:0|0:0,0:0:0:0:
144,192,278659,1,2,0:0:0:0:
37,99,278901,1,2,0:0:0:0:
118,78,279143,1,2,0:0:0:0:
8,178,279385,1,2,0:0:0:0:
67,254,279627,6,0,P|63:270|57:294,2,34.6666666666667,2|2|2,0:0|0:0|0:0,0:0:0:0:
0,340,280111,1,2,0:0:0:0:
140,381,280353,1,2,0:0:0:0:
204,328,280595,2,0,L|253:319,2,34.6666666666667,2|2|2,0:0|0:0|0:0,0:0:0:0:
307,365,281079,1,2,0:0:0:0:
408,279,281320,2,0,P|381:272|341:261,1,69.3333333333333,2|0,0:0|0:0,0:0:0:0:
