osu file format v14

[General]
AudioFilename: audio.mp3
AudioLeadIn: 0
PreviewTime: -1
Countdown: 1
SampleSet: None
StackLeniency: 0.7
Mode: 3
LetterboxInBreaks: 0
SpecialStyle: 0
WidescreenStoryboard: 0

[Editor]
DistanceSpacing: 1.4
BeatDivisor: 2
GridSize: 16
TimelineZoom: 1

[Metadata]
Title:Levan Polka
TitleUnicode:Levan Polka
Artist:Evangelyne
ArtistUnicode:Evangelyne
Creator:Daikyi
Version:Guns
Source:
Tags:
BeatmapID:1770239
BeatmapSetID:846411

[Difficulty]
HPDrainRate:8
CircleSize:4
OverallDifficulty:10
ApproachRate:5
SliderMultiplier:1.4
SliderTickRate:1

[Events]
//Background and Video events
0,0,"hqdefault.jpg",0,0
//Break Periods
2,58383,63537
//Storyboard Layer 0 (Background)
//Storyboard Layer 1 (Fail)
//Storyboard Layer 2 (Pass)
//Storyboard Layer 3 (Foreground)
//Storyboard Sound Samples

[TimingPoints]
200,504.201680672269,4,1,0,100,1,0
15311,-10,4,1,0,100,0,0
15326,-1000,4,1,0,100,0,0
16823,-10,4,1,0,100,0,0
16838,-1000,4,1,0,100,0,0
17832,-10,4,1,0,100,0,0
17847,-1000,4,1,0,100,0,0
18840,-10,4,1,0,100,0,0
18855,-1000,4,1,0,100,0,0
19596,-10,4,1,0,100,0,0
19611,-1000,4,1,0,100,0,0
19848,-10,4,1,0,100,0,0
19863,-1000,4,1,0,100,0,0
20857,-10,4,1,0,100,0,0
20872,-1000,4,1,0,100,0,0
21865,-10,4,1,0,100,0,0
21880,-1000,4,1,0,100,0,0
22874,-10,4,1,0,100,0,0
22889,-1000,4,1,0,100,0,0
24134,-10,4,1,0,100,0,0
24149,-1000,4,1,0,100,0,0
24386,-10,4,1,0,100,0,0
24401,-1000,4,1,0,100,0,0
25142,-10,4,1,0,100,0,0
25157,-1000,4,1,0,100,0,0
25899,-10,4,1,0,100,0,0
25914,-1000,4,1,0,100,0,0
26403,-10,4,1,0,100,0,0
26418,-1000,4,1,0,100,0,0
27916,-10,4,1,0,100,0,0
27931,-1000,4,1,0,100,0,0
28672,-10,4,1,0,100,0,0
28687,-1000,4,1,0,100,0,0
29176,-10,4,1,0,100,0,0
29191,-1000,4,1,0,100,0,0
29680,-10,4,1,0,100,0,0
29695,-1000,4,1,0,100,0,0
30185,-10,4,1,0,100,0,0
30200,-1000,4,1,0,100,0,0
30437,-10,4,1,0,100,0,0
30452,-1000,4,1,0,100,0,0
31445,-10,4,1,0,100,0,0
31460,-1000,4,1,0,100,0,0
32453,-10,4,1,0,100,0,0
32468,-1000,4,1,0,100,0,0
32958,-10,4,1,0,100,0,0
32973,-1000,4,1,0,100,0,0
33714,-10,4,1,0,100,0,0
33729,-1000,4,1,0,100,0,0
33966,-10,4,1,0,100,0,0
33981,-1000,4,1,0,100,0,0
34470,-10,4,1,0,100,0,0
34485,-1000,4,1,0,100,0,0
35227,-10,4,1,0,100,0,0
35242,-1000,4,1,0,100,0,0
35731,-10,4,1,0,100,0,0
35746,-1000,4,1,0,100,0,0
35983,-10,4,1,0,100,0,0
35998,-1000,4,1,0,100,0,0
36487,-10,4,1,0,100,0,0
36502,-1000,4,1,0,100,0,0
36739,-10,4,1,0,100,0,0
36754,-1000,4,1,0,100,0,0
36991,-10,4,1,0,100,0,0
37006,-1000,4,1,0,100,0,0
37748,-10,4,1,0,100,0,0
37763,-1000,4,1,0,100,0,0
38252,-10,4,1,0,100,0,0
38267,-1000,4,1,0,100,0,0
38504,-10,4,1,0,100,0,0
38519,-1000,4,1,0,100,0,0
39260,-10,4,1,0,100,0,0
39275,-1000,4,1,0,100,0,0
39764,-10,4,1,0,100,0,0
39779,-1000,4,1,0,100,0,0
40016,-10,4,1,0,100,0,0
40031,-1000,4,1,0,100,0,0
40521,-10,4,1,0,100,0,0
40536,-1000,4,1,0,100,0,0
41025,-10,4,1,0,100,0,0
41040,-1000,4,1,0,100,0,0
41277,-10,4,1,0,100,0,0
41292,-1000,4,1,0,100,0,0
41781,-10,4,1,0,100,0,0
41796,-1000,4,1,0,100,0,0
42033,-10,4,1,0,100,0,0
42048,-1000,4,1,0,100,0,0
42285,-10,4,1,0,100,0,0
42300,-1000,4,1,0,100,0,0
42537,-10,4,1,0,100,0,0
42552,-1000,4,1,0,100,0,0
43294,-10,4,1,0,100,0,0
43309,-1000,4,1,0,100,0,0
43798,-10,4,1,0,100,0,0
43813,-1000,4,1,0,100,0,0
44050,-10,4,1,0,100,0,0
44065,-1000,4,1,0,100,0,0
44806,-10,4,1,0,100,0,0
44821,-1000,4,1,0,100,0,0
45058,-10,4,1,0,100,0,0
45073,-1000,4,1,0,100,0,0
45311,-10,4,1,0,100,0,0
45326,-1000,4,1,0,100,0,0
45815,-10,4,1,0,100,0,0
45830,-1000,4,1,0,100,0,0
46067,-10,4,1,0,100,0,0
46082,-1000,4,1,0,100,0,0
46319,-10,4,1,0,100,0,0
46334,-1000,4,1,0,100,0,0
46571,-10,4,1,0,100,0,0
46586,-1000,4,1,0,100,0,0
46949,-10,4,1,0,100,0,0
46964,-1000,4,1,0,100,0,0
47327,-10,4,1,0,100,0,0
47342,-1000,4,1,0,100,0,0
47579,-10,4,1,0,100,0,0
47594,-1000,4,1,0,100,0,0
48588,-10,4,1,0,100,0,0
48603,-1000,4,1,0,100,0,0
49092,-10,4,1,0,100,0,0
49107,-1000,4,1,0,100,0,0
49848,-10,4,1,0,100,0,0
49863,-1000,4,1,0,100,0,0
50100,-10,4,1,0,100,0,0
50115,-1000,4,1,0,100,0,0
50605,-10,4,1,0,100,0,0
50620,-1000,4,1,0,100,0,0
51109,-10,4,1,0,100,0,0
51124,-1000,4,1,0,100,0,0
51613,-10,4,1,0,100,0,0
51628,-1000,4,1,0,100,0,0
51865,-10,4,1,0,100,0,0
51880,-1000,4,1,0,100,0,0
52117,-10,4,1,0,100,0,0
52132,-1000,4,1,0,100,0,0
56655,-10,4,1,0,100,0,0
56670,-1000,4,1,0,100,0,0
57159,-10,4,1,0,100,0,0
57174,-1000,4,1,0,100,0,0
57663,-10,4,1,0,100,0,0
57678,-1000,4,1,0,100,0,0
58168,-10,4,1,0,100,0,0
58183,-1000,4,1,0,100,0,0
60704,-10,4,1,0,100,0,0
64233,-10000,4,1,0,100,0,0
64722,-10,4,1,0,100,0,0
64737,-1000,4,1,0,100,0,1

[HitObjects]
64,192,8267,5,0,0:0:0:0:
320,192,8519,128,0,8645:0:0:0:0:
64,192,8771,1,0,0:0:0:0:
448,192,8771,1,0,0:0:0:0:
320,192,9023,128,0,9149:0:0:0:0:
64,192,9275,1,0,0:0:0:0:
320,192,9527,128,0,9653:0:0:0:0:
64,192,9779,1,0,0:0:0:0:
448,192,9779,1,0,0:0:0:0:
320,192,10031,128,0,10157:0:0:0:0:
64,192,10284,1,0,0:0:0:0:
320,192,10536,128,0,10662:0:0:0:0:
64,192,10788,1,0,0:0:0:0:
448,192,10788,1,0,0:0:0:0:
320,192,11040,128,0,11166:0:0:0:0:
64,192,11292,1,0,0:0:0:0:
320,192,11544,128,0,11670:0:0:0:0:
64,192,11796,1,0,0:0:0:0:
448,192,11796,1,0,0:0:0:0:
320,192,12048,128,0,12174:0:0:0:0:
192,192,12174,1,0,0:0:0:0:
448,192,12174,1,0,0:0:0:0:
64,192,12300,1,0,0:0:0:0:
320,192,12552,128,0,12678:0:0:0:0:
64,192,12805,1,0,0:0:0:0:
448,192,12805,1,0,0:0:0:0:
320,192,13057,128,0,13183:0:0:0:0:
64,192,13309,1,0,0:0:0:0:
320,192,13561,128,0,13687:0:0:0:0:
64,192,13813,1,0,0:0:0:0:
448,192,13813,1,0,0:0:0:0:
320,192,14065,128,0,14191:0:0:0:0:
64,192,14317,1,0,0:0:0:0:
320,192,14569,128,0,14695:0:0:0:0:
64,192,14821,1,0,0:0:0:0:
448,192,14821,1,0,0:0:0:0:
320,192,15073,128,0,15200:0:0:0:0:
64,192,15326,1,0,0:0:0:0:
192,192,15326,1,0,0:0:0:0:
320,192,15326,1,0,0:0:0:0:
448,192,15326,1,0,0:0:0:0:
192,192,16838,128,0,17847:0:0:0:0:
448,192,16838,128,0,17847:0:0:0:0:
320,192,17847,1,0,0:0:0:0:
64,192,17847,128,0,18855:0:0:0:0:
192,192,18855,128,0,19611:0:0:0:0:
320,192,18855,128,0,19611:0:0:0:0:
448,192,19611,1,0,0:0:0:0:
64,192,19611,128,0,19863:0:0:0:0:
192,192,19863,1,0,0:0:0:0:
448,192,19863,128,0,20872:0:0:0:0:
192,192,20872,128,0,21880:0:0:0:0:
64,192,20872,128,0,21880:0:0:0:0:
320,192,21880,1,0,0:0:0:0:
448,192,21880,128,0,22889:0:0:0:0:
64,192,22889,1,0,0:0:0:0:
320,192,22889,128,0,24149:0:0:0:0:
64,192,24149,1,0,0:0:0:0:
448,192,24149,1,0,0:0:0:0:
448,192,24401,1,0,0:0:0:0:
64,192,24401,128,0,25157:0:0:0:0:
448,192,25157,1,0,0:0:0:0:
192,192,25157,128,0,25914:0:0:0:0:
320,192,25914,128,0,26418:0:0:0:0:
448,192,25914,128,0,26418:0:0:0:0:
192,192,26418,1,0,0:0:0:0:
64,192,26418,128,0,27931:0:0:0:0:
320,192,27931,1,0,0:0:0:0:
192,192,27931,128,0,28687:0:0:0:0:
320,192,28687,1,0,0:0:0:0:
448,192,28687,1,0,0:0:0:0:
192,192,29191,128,0,29695:0:0:0:0:
64,192,29191,128,0,29695:0:0:0:0:
320,192,29695,128,0,30200:0:0:0:0:
448,192,29695,128,0,30200:0:0:0:0:
64,192,30200,1,0,0:0:0:0:
192,192,30200,128,0,30452:0:0:0:0:
64,192,30452,128,0,31460:0:0:0:0:
448,192,30452,128,0,31460:0:0:0:0:
320,192,31460,1,0,0:0:0:0:
192,192,31460,128,0,32468:0:0:0:0:
320,192,32468,1,0,0:0:0:0:
64,192,32468,128,0,32973:0:0:0:0:
320,192,32973,128,0,33729:0:0:0:0:
448,192,32973,128,0,33729:0:0:0:0:
64,192,33729,1,0,0:0:0:0:
192,192,33729,128,0,33981:0:0:0:0:
64,192,33981,1,0,0:0:0:0:
448,192,33981,128,0,34485:0:0:0:0:
320,192,34485,1,0,0:0:0:0:
64,192,34485,128,0,35242:0:0:0:0:
192,192,35242,1,0,0:0:0:0:
320,192,35242,128,0,35746:0:0:0:0:
192,192,35746,1,0,0:0:0:0:
64,192,35746,128,0,35998:0:0:0:0:
448,192,35998,1,0,0:0:0:0:
192,192,35998,128,0,36502:0:0:0:0:
448,192,36502,1,0,0:0:0:0:
64,192,36502,128,0,36754:0:0:0:0:
320,192,36754,1,0,0:0:0:0:
448,192,36754,1,0,0:0:0:0:
320,192,37006,128,0,37763:0:0:0:0:
448,192,37006,128,0,37763:0:0:0:0:
64,192,37763,1,0,0:0:0:0:
192,192,37763,128,0,38267:0:0:0:0:
64,192,38267,1,0,0:0:0:0:
448,192,38267,128,0,38519:0:0:0:0:
192,192,38519,128,0,39275:0:0:0:0:
64,192,38519,128,0,39275:0:0:0:0:
320,192,39275,128,0,39779:0:0:0:0:
448,192,39275,128,0,39779:0:0:0:0:
192,192,39779,1,0,0:0:0:0:
64,192,39779,128,0,40031:0:0:0:0:
192,192,40031,128,0,40536:0:0:0:0:
320,192,40031,128,0,40536:0:0:0:0:
448,192,40536,1,0,0:0:0:0:
64,192,40536,128,0,41040:0:0:0:0:
320,192,41040,128,0,41292:0:0:0:0:
448,192,41040,128,0,41292:0:0:0:0:
192,192,41292,128,0,41796:0:0:0:0:
64,192,41292,128,0,41796:0:0:0:0:
320,192,41796,128,0,42048:0:0:0:0:
448,192,41796,128,0,42048:0:0:0:0:
192,192,42048,1,0,0:0:0:0:
64,192,42048,128,0,42300:0:0:0:0:
192,192,42300,128,0,42552:0:0:0:0:
448,192,42300,128,0,42552:0:0:0:0:
320,192,42552,128,0,43309:0:0:0:0:
64,192,42552,128,0,43309:0:0:0:0:
192,192,43309,1,0,0:0:0:0:
448,192,43309,128,0,43813:0:0:0:0:
192,192,43813,128,0,44065:0:0:0:0:
64,192,43813,128,0,44065:0:0:0:0:
320,192,44065,1,0,0:0:0:0:
448,192,44065,128,0,44821:0:0:0:0:
320,192,44821,128,0,45073:0:0:0:0:
64,192,44821,128,0,45073:0:0:0:0:
192,192,45073,128,0,45326:0:0:0:0:
448,192,45073,128,0,45326:0:0:0:0:
64,192,45326,1,0,0:0:0:0:
320,192,45326,128,0,45830:0:0:0:0:
192,192,45830,1,0,0:0:0:0:
64,192,45830,128,0,46082:0:0:0:0:
448,192,46082,1,0,0:0:0:0:
192,192,46082,128,0,46334:0:0:0:0:
320,192,46334,128,0,46586:0:0:0:0:
448,192,46334,128,0,46586:0:0:0:0:
64,192,46586,1,0,0:0:0:0:
192,192,46586,1,0,0:0:0:0:
64,192,46964,1,0,0:0:0:0:
192,192,46964,1,0,0:0:0:0:
64,192,47342,128,0,47594:0:0:0:0:
192,192,47342,128,0,47594:0:0:0:0:
320,192,47594,1,0,0:0:0:0:
448,192,47594,128,0,48603:0:0:0:0:
320,192,48603,128,0,49107:0:0:0:0:
64,192,48603,128,0,49107:0:0:0:0:
192,192,49107,128,0,49863:0:0:0:0:
448,192,49107,128,0,49863:0:0:0:0:
320,192,49863,128,0,50115:0:0:0:0:
64,192,49863,128,0,50115:0:0:0:0:
448,192,50115,1,0,0:0:0:0:
192,192,50115,128,0,50620:0:0:0:0:
448,192,50620,1,0,0:0:0:0:
320,192,50620,128,0,51124:0:0:0:0:
448,192,51124,1,0,0:0:0:0:
192,192,51124,128,0,51628:0:0:0:0:
448,192,51628,128,0,51880:0:0:0:0:
64,192,51628,128,0,51880:0:0:0:0:
192,192,51880,128,0,52132:0:0:0:0:
320,192,51880,128,0,52132:0:0:0:0:
64,192,52132,1,0,0:0:0:0:
448,192,52132,128,0,56670:0:0:0:0:
192,192,56670,128,0,57174:0:0:0:0:
64,192,56670,128,0,57174:0:0:0:0:
320,192,57174,128,0,57678:0:0:0:0:
448,192,57174,128,0,57678:0:0:0:0:
192,192,57678,1,0,0:0:0:0:
64,192,57678,128,0,58183:0:0:0:0:
192,192,58183,1,0,0:0:0:0:
448,192,58183,1,0,0:0:0:0:
64,192,64737,5,0,0:0:0:0:
192,192,64737,1,0,0:0:0:0:
320,192,64737,1,0,0:0:0:0:
448,192,64737,1,0,0:0:0:0:
