osu file format v14

[General]
AudioFilename: audio.mp3
AudioLeadIn: 0
PreviewTime: 68087
Countdown: 0
SampleSet: Normal
StackLeniency: 0.7
Mode: 0
LetterboxInBreaks: 0
EpilepsyWarning: 1
WidescreenStoryboard: 1

[Editor]
Bookmarks: 13230,23516,100316,155859,287516
DistanceSpacing: 1.7
BeatDivisor: 8
GridSize: 4
TimelineZoom: 1.7

[Metadata]
Title:Doggo Busters
TitleUnicode:Doggo Busters
Artist:Evangeline & Redeilia
ArtistUnicode:Evangeline & Redeilia
Creator:-Roz
Version:Immensum
Source:
Tags:Starlit Horizons Evangeline Redeilia Doggo Busters
BeatmapID:1232368
BeatmapSetID:582345

[Difficulty]
HPDrainRate:6
CircleSize:3.8
OverallDifficulty:8.4
ApproachRate:9.6
SliderMultiplier:1.4
SliderTickRate:1

[Events]
//Background and Video events
0,0,"bg.jpg",0,0
//Break Periods
2,178002,185521
//Storyboard Layer 0 (Background)
//Storyboard Layer 1 (Fail)
//Storyboard Layer 2 (Pass)
//Storyboard Layer 3 (Foreground)
//Storyboard Sound Samples

[TimingPoints]
2259,342.857142857143,4,1,1,91,1,0
3030,-100,4,1,1,91,0,0
3116,-100,4,1,1,91,0,0
3201,-100,4,1,1,91,0,0
3287,-100,4,1,1,91,0,0
4659,-50,4,1,1,91,0,0
5001,-100,4,1,1,91,0,0
5773,-100,4,1,1,5,0,0
5859,-100,4,1,1,91,0,0
5944,-100,4,1,1,5,0,0
6030,-100,4,1,1,91,0,0
7401,-50,4,1,1,91,0,0
7744,-100,4,1,1,91,0,0
10144,-50,4,1,1,91,0,0
10487,-100,4,1,1,91,0,0
11259,-100,4,1,1,5,0,0
11344,-100,4,1,1,91,0,0
11430,-100,4,1,1,5,0,0
11516,-100,4,1,1,91,0,0
12030,-133.333333333333,4,1,1,91,0,0
12716,-100,4,1,1,91,0,0
15630,-50,4,1,1,91,0,0
15973,-100,4,1,1,91,0,0
18030,-133.333333333333,4,1,1,91,0,0
18373,-50,4,1,1,91,0,0
18716,-100,4,1,1,91,0,0
23001,-200,4,1,1,60,0,0
23516,-333.333333333333,4,1,1,29,0,0
24201,-200,4,1,2,100,0,0
24544,-200,4,1,1,40,0,0
35173,-153.846153846154,4,1,1,78,0,0
35516,-200,4,1,1,78,0,0
46144,-100,4,1,1,48,0,0
57116,-100,4,1,1,79,0,0
63973,-80,4,1,1,79,0,0
66373,-66.6666666666667,4,1,1,79,0,0
66716,-200,4,1,1,79,0,0
68087,-66.6666666666667,4,1,1,97,0,1
73316,-66.6666666666667,4,1,1,5,0,1
73401,-66.6666666666667,4,1,1,97,0,1
73487,-66.6666666666667,4,1,1,5,0,1
73573,-66.6666666666667,4,1,1,97,0,1
79059,-66.6666666666667,4,1,1,97,0,0
79401,-66.6666666666667,4,1,1,97,0,1
89687,-57.1428571428571,4,1,1,92,0,1
90030,-100,4,1,1,50,0,0
100659,-100,4,1,1,87,0,0
108887,-100,4,1,1,56,0,0
109230,-100,4,1,1,71,0,0
109916,-100,4,1,1,83,0,0
110601,-100,4,1,1,100,0,0
111973,-66.6666666666667,4,1,1,98,0,1
122259,-66.6666666666667,4,1,1,98,0,0
122944,-66.6666666666667,4,1,1,98,0,1
132544,-66.6666666666667,4,1,1,64,0,1
133916,-100,4,1,2,90,0,0
134087,-100,4,1,1,85,0,0
134687,-100,4,1,1,5,0,0
134773,-100,4,1,1,85,0,0
134859,-100,4,1,1,5,0,0
134944,-100,4,1,1,85,0,0
136316,-50,4,1,1,85,0,0
136659,-100,4,1,1,85,0,0
137430,-100,4,1,1,5,0,0
137516,-100,4,1,1,85,0,0
137601,-100,4,1,1,5,0,0
137687,-100,4,1,1,85,0,0
139059,-50,4,1,1,85,0,0
139401,-100,4,1,1,85,0,0
140173,-100,4,1,1,5,0,0
140259,-100,4,1,1,85,0,0
140344,-100,4,1,1,5,0,0
140430,-100,4,1,1,85,0,0
141801,-50,4,1,1,85,0,0
142144,-100,4,1,1,85,0,0
142916,-100,4,1,1,5,0,0
143001,-100,4,1,1,85,0,0
143087,-100,4,1,1,5,0,0
143173,-100,4,1,1,85,0,0
143687,-133.333333333333,4,1,1,85,0,0
144373,-100,4,1,1,85,0,0
145659,-100,4,1,1,5,0,0
145744,-100,4,1,1,85,0,0
145830,-100,4,1,1,5,0,0
145916,-100,4,1,1,85,0,0
147287,-50,4,1,1,85,0,0
147630,-100,4,1,1,85,0,0
148401,-100,4,1,1,5,0,0
148487,-100,4,1,1,85,0,0
148573,-100,4,1,1,5,0,0
148659,-100,4,1,1,85,0,0
150030,-50,4,1,1,85,0,0
150373,-100,4,1,1,85,0,0
151144,-100,4,1,1,5,0,0
151230,-100,4,1,1,85,0,0
151316,-100,4,1,1,5,0,0
151401,-100,4,1,1,85,0,0
152773,-50,4,1,1,85,0,0
153116,-100,4,1,1,85,0,0
153887,-100,4,1,1,5,0,0
153973,-100,4,1,1,85,0,0
154059,-100,4,1,1,5,0,0
154144,-100,4,1,1,85,0,0
154487,-133.333333333333,4,1,1,85,0,0
155173,-66.6666666666667,4,1,1,85,0,0
155516,-133.333333333333,4,1,1,85,0,0
155859,-333.333333333333,4,1,1,29,0,0
173001,-200,4,1,1,29,0,0
173687,-333.333333333333,4,1,1,29,0,0
176430,-200,4,1,1,29,0,0
177116,-133.333333333333,4,1,1,29,0,0
177801,-100,4,1,1,29,0,0
186030,-100,4,1,1,84,0,0
198373,-200,4,1,1,60,0,0
199059,-100,4,1,1,60,0,0
199744,-66.6666666666667,4,1,2,90,0,1
200001,-66.6666666666667,4,1,1,98,0,1
201030,-66.6666666666667,4,1,1,5,0,1
201116,-66.6666666666667,4,1,1,98,0,1
202316,-200,4,1,1,98,0,1
202401,-200,4,1,1,5,0,1
202487,-66.6666666666667,4,1,1,98,0,1
206516,-66.6666666666667,4,1,1,5,0,1
206601,-66.6666666666667,4,1,1,98,0,1
207801,-200,4,1,1,98,0,1
207973,-66.6666666666667,4,1,1,98,0,1
209344,-50,4,1,1,98,0,1
210030,-66.6666666666667,4,1,1,98,0,1
210373,-50,4,1,1,98,0,0
210716,-66.6666666666667,4,1,1,98,0,1
212001,-66.6666666666667,4,1,1,5,0,1
212087,-66.6666666666667,4,1,1,98,0,1
213459,-50,4,1,1,98,0,1
213801,-66.6666666666667,4,1,1,98,0,1
216116,-66.6666666666667,4,1,1,5,0,1
216201,-66.6666666666667,4,1,1,98,0,1
217487,-66.6666666666667,4,1,1,5,0,1
217573,-66.6666666666667,4,1,1,98,0,1
218773,-200,4,1,1,98,0,1
218859,-200,4,1,1,5,0,1
218944,-66.6666666666667,4,1,1,98,0,1
220316,-50,4,1,1,98,0,1
220659,-200,4,1,1,98,0,1
221344,-66.6666666666667,4,1,1,98,0,1
221687,-66.6666666666667,4,1,1,98,0,0
223059,-200,4,1,1,98,0,0
223401,-133.333333333333,4,1,1,98,0,0
223744,-100,4,1,1,98,0,0
224087,-80,4,1,1,98,0,0
224430,-66.6666666666667,4,1,1,98,0,1
229916,-100,4,1,1,98,0,1
230430,-66.6666666666667,4,1,1,98,0,1
231287,-100,4,1,1,98,0,1
232144,-100,4,1,1,98,0,0
232659,-100,4,1,1,98,0,1
232830,-66.6666666666667,4,1,1,98,0,1
243630,-66.6666666666667,4,1,1,98,0,0
246373,-100,4,1,1,98,0,0
260087,-80,4,1,1,98,0,0
265573,-66.6666666666667,4,1,1,98,0,1
287173,-100,4,1,1,98,0,1
287516,-100,4,1,1,91,0,0
288287,-100,4,1,1,5,0,0
288373,-100,4,1,1,91,0,0
288459,-100,4,1,1,5,0,0
288544,-100,4,1,1,91,0,0
289916,-50,4,1,1,91,0,0
290259,-100,4,1,1,91,0,0
291030,-100,4,1,1,5,0,0
291116,-100,4,1,1,91,0,0
291201,-100,4,1,1,5,0,0
291287,-100,4,1,1,91,0,0
292659,-50,4,1,1,91,0,0
293001,-100,4,1,1,91,0,0
295401,-50,4,1,1,91,0,0
295744,-100,4,1,1,91,0,0
296516,-100,4,1,1,5,0,0
296601,-100,4,1,1,91,0,0
296687,-100,4,1,1,5,0,0
296773,-100,4,1,1,91,0,0
297287,-200,4,1,1,91,0,0
298487,-100,4,1,1,91,0,0
305001,-200,4,1,1,91,0,0
306716,-100,4,1,1,91,0,0
308259,-200,4,1,1,52,0,0
308773,-333.333333333333,4,1,1,30,0,0
315630,-333.333333333333,4,1,1,5,0,0

[Colours]
Combo1 : 0,242,188
Combo2 : 105,235,241

[HitObjects]
256,192,201,12,0,1916,0:0:0:0:
203,221,2258,6,0,P|211:260|205:297,1,70,2|4,0:0|0:0,0:0:0:0:
146,118,2601,5,10,0:0:0:0:
208,290,2773,1,4,0:0:0:0:
352,144,2945,2,0,L|396:149,1,35,2|0,0:0|0:0,0:0:0:0:
233,69,3116,2,0,L|277:74,1,35,4|0,0:0|0:0,0:0:0:0:
356,0,3288,1,10,0:0:0:0:
241,191,3459,1,4,0:0:0:0:
122,74,3631,6,0,P|72:71|37:78,1,70,2|4,0:0|0:0,0:0:0:0:
241,191,3973,1,10,0:0:0:0:
181,0,4145,1,4,0:0:0:0:
362,54,4316,1,2,0:0:0:0:
115,158,4488,2,0,L|156:160,1,35,4|0,0:0|0:0,0:0:0:0:
282,172,4659,2,0,P|300:200|245:182,1,140,10|4,0:0|0:0,0:0:0:0:
397,168,5002,6,0,P|400:202|396:237,1,70,2|4,0:0|0:0,0:0:0:0:
301,317,5345,1,10,0:0:0:0:
491,293,5516,1,4,0:0:0:0:
246,244,5688,2,0,L|201:246,1,35,2|0,0:0|0:0,0:0:0:0:
377,168,5859,2,0,L|332:170,1,35,4|0,0:0|0:0,0:0:0:0:
250,108,6031,1,10,0:0:0:0:
309,342,6202,1,4,0:0:0:0:
341,91,6373,6,0,P|375:87|410:91,1,70,2|4,0:0|0:0,0:0:0:0:
479,193,6716,1,10,0:0:0:0:
250,108,6888,1,4,0:0:0:0:
502,62,7059,1,2,0:0:0:0:
301,227,7231,1,4,0:0:0:0:
355,0,7402,2,0,P|373:28|318:10,1,140,10|4,0:0|0:0,0:0:0:0:
378,131,7745,6,0,P|328:134|293:127,1,70,2|4,0:0|0:0,0:0:0:0:
485,71,8088,1,10,0:0:0:0:
378,131,8259,1,4,0:0:0:0:
512,161,8431,1,2,0:0:0:0:
323,45,8602,1,4,0:0:0:0:
403,235,8773,1,10,0:0:0:0:
418,11,8945,1,4,0:0:0:0:
307,197,9116,6,0,P|304:247|311:282,1,70,2|4,0:0|0:0,0:0:0:0:
512,155,9459,2,0,P|470:127|436:115,1,70,10|4,0:0|0:0,0:0:0:0:
307,197,9802,1,2,0:0:0:0:
99,122,9973,2,0,L|140:120,1,35,4|0,0:0|0:0,0:0:0:0:
266,108,10145,2,0,P|284:80|229:98,1,140,10|4,0:0|0:0,0:0:0:0:
371,109,10488,6,0,P|374:74|370:39,1,70,2|4,0:0|0:0,0:0:0:0:
307,183,10831,1,10,0:0:0:0:
486,160,11002,1,4,0:0:0:0:
266,108,11173,2,0,L|264:68,1,35,2|0,0:0|0:0,0:0:0:0:
372,4,11345,2,0,L|370:44,1,35,4|0,0:0|0:0,0:0:0:0:
486,160,11516,1,10,0:0:0:0:
266,108,11688,1,4,0:0:0:0:
470,56,11859,5,2,0:0:0:0:
320,180,12031,2,0,L|327:299,1,105.000004005432,4|4,0:0|0:0,0:0:0:0:
147,205,12716,1,2,0:0:0:0:
233,192,12888,1,2,0:0:0:0:
320,180,13059,1,2,0:0:0:0:
108,102,13230,6,0,L|188:107,1,70,2|4,0:0|0:0,0:0:0:0:
390,59,13573,2,0,L|310:64,1,70,10|4,0:0|0:0,0:0:0:0:
211,18,13916,1,2,0:0:0:0:
233,192,14088,1,4,0:0:0:0:
320,63,14259,1,10,0:0:0:0:
71,104,14431,1,4,0:0:0:0:
390,145,14602,6,0,L|310:150,1,70,2|4,0:0|0:0,0:0:0:0:
71,104,14945,2,0,L|151:109,1,70,10|4,0:0|0:0,0:0:0:0:
320,63,15288,1,2,0:0:0:0:
239,180,15459,2,0,L|241:221,1,35,4|0,0:0|0:0,0:0:0:0:
264,295,15631,2,0,L|269:148,1,140,10|4,0:0|0:0,0:0:0:0:
222,2,15973,6,0,L|226:74,1,70,2|4,0:0|0:0,0:0:0:0:
422,122,16316,2,0,L|426:50,1,70,10|4,0:0|0:0,0:0:0:0:
172,137,16659,1,2,0:0:0:0:
342,99,16831,1,4,0:0:0:0:
66,104,17002,1,10,0:0:0:0:
258,135,17173,1,4,0:0:0:0:
112,282,17345,6,0,L|117:201,1,70,2|4,0:0|0:0,0:0:0:0:
258,135,17688,2,0,L|263:216,1,70,10|4,0:0|0:0,0:0:0:0:
482,301,18031,2,0,L|424:305,1,52.5000020027161,2|4,0:0|0:0,0:0:0:0:
262,340,18373,2,0,B|271:284|271:284|255:248|255:248|263:198,1,140,10|4,0:0|0:0,0:0:0:0:
341,36,18716,6,0,L|347:108,1,70,2|4,0:0|0:0,0:0:0:0:
159,71,19059,2,0,L|153:143,1,70,10|4,0:0|0:0,0:0:0:0:
425,110,19402,2,0,L|431:182,1,70,2|4,0:0|0:0,0:0:0:0:
247,52,19745,2,0,L|241:124,1,70,10|4,0:0|0:0,0:0:0:0:
507,18,20088,6,0,L|513:90,1,70,2|4,0:0|0:0,0:0:0:0:
158,71,20431,2,0,L|152:143,1,70,10|4,0:0|0:0,0:0:0:0:
333,27,20773,2,0,L|339:99,1,70,2|4,0:0|0:0,0:0:0:0:
51,15,21116,2,0,L|45:87,1,70,10|4,0:0|0:0,0:0:0:0:
138,268,21459,5,2,0:0:0:0:
158,240,21545,1,0,0:0:0:0:
168,206,21631,1,4,0:0:0:0:
166,171,21716,1,0,0:0:0:0:
152,140,21802,2,0,P|134:134|114:133,3,35,10|0|4|0,0:0|0:0|0:0|0:0,0:0:0:0:
323,88,22144,2,0,P|337:75|348:58,3,35,2|0|4|0,0:0|0:0|0:0|0:0,0:0:0:0:
238,49,22488,5,10,0:0:0:0:
241,101,22573,1,0,0:0:0:0:
244,153,22659,1,0,0:0:0:0:
248,206,22745,1,0,0:0:0:0:
251,258,22831,1,2,0:0:0:0:
424,266,23002,6,0,L|351:258,1,70
297,342,23516,2,0,L|323:339,1,20.9999993591309
469,325,23859,2,0,L|448:327,1,20.9999993591309
420,306,24202,6,0,P|413:264|419:231,1,70,0|0,0:0|0:0,0:0:0:0:
438,207,24716,2,0,L|511:213,2,70
352,166,25573,5,0,0:0:0:0:
361,149,25745,2,0,L|288:155,3,70
209,128,26945,5,0,0:0:0:0:
220,111,27116,2,0,L|147:105,7,70
33,157,29688,5,0,0:0:0:0:
22,176,29859,2,0,L|95:170,3,70
155,122,31059,5,0,0:0:0:0:
144,105,31231,2,0,L|217:111,3,70
290,154,32431,5,0,0:0:0:0:
282,174,32602,2,0,L|355:168,7,70
402,248,35173,6,0,L|405:295,1,45.4999979171754,2|0,0:0|0:0,0:0:0:0:
351,168,35516,2,0,L|354:132,1,35,2|0,0:0|0:0,0:0:0:0:
404,53,35859,1,8,0:0:0:0:
313,321,36373,1,2,0:0:0:0:
313,321,36888,2,0,L|310:285,1,35,2|0,0:0|0:0,0:0:0:0:
256,206,37230,1,8,0:0:0:0:
398,182,37573,1,0,0:0:0:0:
174,157,37916,6,0,L|138:154,1,35,2|0,0:0|0:0,0:0:0:0:
256,206,38259,2,0,L|292:203,1,35,2|0,0:0|0:0,0:0:0:0:
371,153,38601,1,8,0:0:0:0:
64,227,38945,1,0,0:0:0:0:
141,84,39116,2,0,L|138:162,1,70,2|0,0:0|0:0,0:0:0:0:
64,227,39631,2,0,L|61:191,1,35,2|0,0:0|0:0,0:0:0:0:
227,246,39973,2,0,L|224:280,1,35,8|0,0:0|0:0,0:0:0:0:
40,359,40316,2,0,L|37:323,1,35,2|0,0:0|0:0,0:0:0:0:
203,214,40659,6,0,L|200:248,1,35,2|0,0:0|0:0,0:0:0:0:
82,143,41002,2,0,L|79:107,1,35,2|0,0:0|0:0,0:0:0:0:
122,34,41345,1,8,0:0:0:0:
203,214,41688,1,0,0:0:0:0:
266,150,41859,2,0,L|340:146,1,70,2|0,0:0|0:0,0:0:0:0:
451,207,42373,2,0,L|416:203,1,35,2|0,0:0|0:0,0:0:0:0:
414,84,42716,2,0,L|449:80,1,35,8|0,0:0|0:0,0:0:0:0:
335,146,43059,2,0,L|300:142,1,35,2|0,0:0|0:0,0:0:0:0:
229,80,43402,5,2,0:0:0:0:
253,263,43745,1,2,0:0:0:0:
115,179,44088,2,0,L|44:174,1,70,8|0,0:0|0:0,0:0:0:0:
9,257,44602,1,2,0:0:0:0:
9,257,44773,6,0,L|7:296,1,35
54,364,45116,1,8,0:0:0:0:
45,178,45459,1,2,0:0:0:0:
9,257,45630,1,0,0:0:0:0:
54,364,45801,1,0,0:0:0:0:
51,345,45887,1,8,0:0:0:0:
48,328,45973,1,8,0:0:0:0:
45,178,46145,5,2,0:0:0:0:
253,158,46659,6,0,L|180:164,1,70
40,108,47087,2,0,L|45:191,1,70
31,199,47344,2,0,L|104:205,1,70
330,48,48031,2,0,L|257:54,1,70
118,198,48545,1,0,0:0:0:0:
206,214,48716,1,0,0:0:0:0:
174,130,48888,1,0,0:0:0:0:
330,48,49402,6,0,L|257:54,1,70
132,216,49831,2,0,L|137:299,1,70
123,307,50088,2,0,L|196:313,1,70
449,165,50773,2,0,L|376:171,1,70
186,115,51288,1,0,0:0:0:0:
238,48,51459,1,0,0:0:0:0:
269,129,51631,1,0,0:0:0:0:
471,274,52145,6,0,L|398:280,1,70
199,217,52573,2,0,L|204:300,1,70
190,308,52831,2,0,L|263:314,1,70
460,142,53516,2,0,L|387:148,1,70
49,231,54030,5,0,0:0:0:0:
135,195,54201,1,0,0:0:0:0:
225,157,54373,6,0,L|235:247,1,70
170,70,54716,2,0,L|180:-20,1,70
75,131,55059,1,0,0:0:0:0:
299,73,55231,1,0,0:0:0:0:
142,206,55402,2,0,L|146:277,1,70
249,303,55744,2,0,L|259:213,1,70
59,257,56087,2,0,L|69:347,1,70
213,132,56431,1,0,0:0:0:0:
51,123,56602,1,0,0:0:0:0:
267,202,56773,2,0,L|344:197,1,70
219,290,57116,5,2,0:0:0:0:
126,304,57288,1,0,0:0:0:0:
277,217,57459,1,2,0:0:0:0:
183,206,57631,1,0,0:0:0:0:
353,163,57802,1,2,0:0:0:0:
265,128,57973,1,0,0:0:0:0:
438,129,58145,1,2,0:0:0:0:
362,74,58316,1,0,0:0:0:0:
293,290,58488,5,2,0:0:0:0:
386,304,58659,1,0,0:0:0:0:
235,217,58831,1,2,0:0:0:0:
329,206,59002,1,0,0:0:0:0:
159,163,59173,1,2,0:0:0:0:
247,128,59345,1,0,0:0:0:0:
74,129,59516,1,2,0:0:0:0:
150,74,59688,1,0,0:0:0:0:
235,217,59859,6,0,P|229:253|231:297,1,70,2|0,0:0|0:0,0:0:0:0:
303,70,60202,2,0,P|304:30|299:-10,1,70,2|0,0:0|0:0,0:0:0:0:
365,227,60545,2,0,B|401:233|436:228,1,70,2|0,0:0|0:0,0:0:0:0:
140,224,60888,2,0,B|135:257|141:293,1,70,2|0,0:0|0:0,0:0:0:0:
300,101,61231,6,0,P|255:95|197:94,1,70,2|0,0:0|0:0,0:0:0:0:
59,128,61573,2,0,P|103:128|162:121,1,70,2|0,0:0|0:0,0:0:0:0:
357,19,61916,2,0,P|312:12|254:12,1,70,2|0,0:0|0:0,0:0:0:0:
35,211,62259,2,0,P|75:213|138:204,1,70,2|0,0:0|0:0,0:0:0:0:
209,112,62602,5,2,0:0:0:0:
174,249,62773,1,0,0:0:0:0:
125,81,62945,1,2,0:0:0:0:
245,194,63116,1,0,0:0:0:0:
264,17,63288,1,2,0:0:0:0:
104,210,63459,1,0,0:0:0:0:
36,41,63631,1,2,0:0:0:0:
245,194,63802,1,0,0:0:0:0:
351,17,63973,6,0,P|291:15|222:23,1,87.5,2|0,0:0|0:0,0:0:0:0:
34,168,64316,2,0,P|81:175|163:174,1,87.5,2|0,0:0|0:0,0:0:0:0:
420,127,64659,2,0,P|370:132|291:133,1,87.5,2|0,0:0|0:0,0:0:0:0:
103,277,65002,2,0,P|146:285|232:283,1,87.5,2|0,0:0|0:0,0:0:0:0:
34,168,65345,5,2,0:0:0:0:
257,181,65516,1,0,0:0:0:0:
61,75,65688,1,2,0:0:0:0:
190,287,65859,1,0,0:0:0:0:
154,22,66031,1,2,0:0:0:0:
81,307,66202,1,0,0:0:0:0:
276,72,66373,1,2,0:0:0:0:
4,259,66545,1,0,0:0:0:0:
386,152,66716,5,2,0:0:0:0:
256,192,66802,12,0,67745,0:0:0:0:
353,7,68088,6,0,P|363:65|351:121,1,105.000004005432,2|4,0:0|0:0,0:0:0:0:
173,249,68431,2,0,P|218:211|272:193,1,105.000004005432,10|4,0:0|0:0,0:0:0:0:
431,215,68773,1,2,0:0:0:0:
240,62,68945,1,4,0:0:0:0:
259,295,69116,1,10,0:0:0:0:
353,7,69288,1,4,0:0:0:0:
116,161,69459,6,0,L|10:166,1,105.000004005432,2|4,0:0|0:0,0:0:0:0:
382,91,69802,2,0,L|488:96,1,105.000004005432,10|4,0:0|0:0,0:0:0:0:
259,295,70145,1,2,0:0:0:0:
240,62,70316,1,4,0:0:0:0:
402,207,70488,1,10,0:0:0:0:
116,161,70659,1,4,0:0:0:0:
339,0,70831,6,0,L|334:104,1,105.000004005432,2|4,0:0|0:0,0:0:0:0:
266,281,71173,1,10,0:0:0:0:
190,82,71344,2,0,L|185:141,1,52.5000020027161,4|0,0:0|0:0,0:0:0:0:
135,253,71516,1,2,0:0:0:0:
296,154,71688,1,4,0:0:0:0:
58,175,71859,1,10,0:0:0:0:
306,248,72031,1,4,0:0:0:0:
128,96,72202,5,2,0:0:0:0:
221,358,72373,1,4,0:0:0:0:
406,138,72545,2,0,P|415:79|400:26,1,105.000004005432,10|4,0:0|0:0,0:0:0:0:
33,46,72888,2,0,P|23:97|34:148,1,105.000004005432,2|4,0:0|0:0,0:0:0:0:
325,92,73231,2,0,L|262:92,1,52.5000020027161,10|0,0:0|0:0,0:0:0:0:
217,194,73402,2,0,L|170:165,1,52.5000020027161,4|0,0:0|0:0,0:0:0:0:
143,37,73573,5,2,0:0:0:0:
314,189,73745,2,0,L|310:244,1,52.5000020027161,4|0,0:0|0:0,0:0:0:0:
257,326,73916,1,10,0:0:0:0:
326,90,74088,1,4,0:0:0:0:
442,227,74259,1,2,0:0:0:0:
82,173,74431,1,4,0:0:0:0:
420,139,74602,1,10,0:0:0:0:
140,245,74773,1,4,0:0:0:0:
237,20,74945,6,0,L|230:131,1,105.000004005432,2|4,0:0|0:0,0:0:0:0:
29,343,75288,2,0,L|22:232,1,105.000004005432,10|4,0:0|0:0,0:0:0:0:
294,61,75631,1,2,0:0:0:0:
87,128,75802,1,4,0:0:0:0:
418,110,75973,1,10,0:0:0:0:
214,223,76145,1,4,0:0:0:0:
473,19,76316,6,0,L|357:11,1,105.000004005432,2|4,0:0|0:0,0:0:0:0:
87,128,76659,1,10,0:0:0:0:
378,177,76831,1,4,0:0:0:0:
386,145,76916,2,0,P|390:90|377:34,1,105.000004005432
363,17,77173,1,4,0:0:0:0:
426,266,77345,1,10,0:0:0:0:
242,103,77516,1,4,0:0:0:0:
490,136,77688,6,0,L|367:146,1,105.000004005432,2|4,0:0|0:0,0:0:0:0:
107,73,78031,1,10,0:0:0:0:
296,192,78202,1,4,0:0:0:0:
305,223,78287,2,0,P|309:278|296:334,1,105.000004005432
282,351,78545,1,4,0:0:0:0:
158,267,78716,1,10,0:0:0:0:
495,217,78888,1,4,0:0:0:0:
262,6,79059,6,0,L|255:110,1,105.000004005432,2|4,0:0|0:0,0:0:0:0:
312,268,79401,2,0,P|373:281|424:271,1,105.000004005432,10|4,0:0|0:0,0:0:0:0:
128,263,79745,2,0,P|121:314|134:365,1,105.000004005432,2|4,0:0|0:0,0:0:0:0:
254,110,80088,1,10,0:0:0:0:
21,147,80259,1,4,0:0:0:0:
192,25,80431,5,2,0:0:0:0:
124,210,80602,2,0,L|128:264,1,52.5000020027161,4|0,0:0|0:0,0:0:0:0:
183,335,80773,1,10,0:0:0:0:
351,26,80945,2,0,L|355:80,1,52.5000020027161,4|0,0:0|0:0,0:0:0:0:
403,158,81116,1,2,0:0:0:0:
192,25,81288,1,4,0:0:0:0:
467,52,81459,1,10,0:0:0:0:
211,188,81631,1,4,0:0:0:0:
320,0,81801,6,0,L|314:124,1,105.000004005432,2|4,0:0|0:0,0:0:0:0:
383,264,82145,1,10,0:0:0:0:
155,116,82316,2,0,L|102:119,1,52.5000020027161,4|0,0:0|0:0,0:0:0:0:
26,170,82488,1,2,0:0:0:0:
314,104,82659,1,4,0:0:0:0:
9,61,82831,1,10,0:0:0:0:
271,216,83002,1,4,0:0:0:0:
94,2,83173,5,2,0:0:0:0:
171,262,83345,1,4,0:0:0:0:
323,0,83516,2,0,L|312:121,1,105.000004005432,10|4,0:0|0:0,0:0:0:0:
68,315,83859,2,0,L|57:194,1,105.000004005432,2|4,0:0|0:0,0:0:0:0:
219,11,84201,2,0,L|210:103,1,52.5000020027161,10|4,0:0|0:0,0:0:0:0:
296,135,84373,2,0,L|287:42,1,52.5000020027161,2|4,0:0|0:0,0:0:0:0:
323,0,84545,5,2,0:0:0:0:
345,210,84716,2,0,L|352:271,1,52.5000020027161,4|0,0:0|0:0,0:0:0:0:
413,325,84888,1,10,0:0:0:0:
167,270,85059,1,4,0:0:0:0:
478,187,85231,1,2,0:0:0:0:
315,353,85402,1,4,0:0:0:0:
280,105,85573,1,10,0:0:0:0:
413,325,85745,1,4,0:0:0:0:
179,162,85916,6,0,L|73:167,1,105.000004005432,2|4,0:0|0:0,0:0:0:0:
403,74,86259,2,0,L|509:79,1,105.000004005432,10|4,0:0|0:0,0:0:0:0:
208,54,86601,1,2,0:0:0:0:
302,259,86773,1,4,0:0:0:0:
179,162,86944,1,10,0:0:0:0:
210,333,87116,1,4,0:0:0:0:
403,74,87288,6,0,L|287:69,1,105.000004005432,2|4,0:0|0:0,0:0:0:0:
67,36,87631,1,10,0:0:0:0:
319,178,87802,1,4,0:0:0:0:
335,209,87888,2,0,P|341:269|324:329,1,105.000004005432
311,339,88145,1,4,0:0:0:0:
100,227,88316,2,0,P|159:215|95:244,1,210.000008010865,10|0,0:0|0:0,0:0:0:0:
439,205,89002,5,0,0:0:0:0:
308,140,89259,2,0,P|293:193|315:274,1,105.000004005432
401,36,89602,1,0,0:0:0:0:
378,16,89688,2,0,L|191:26,1,183.750001752377,8|0,0:0|0:0,0:0:0:0:
70,93,90030,5,2,0:0:0:0:
87,129,90373,1,2,0:0:0:0:
90,169,90716,1,2,0:0:0:0:
82,208,91059,1,2,0:0:0:0:
208,307,91401,5,2,0:0:0:0:
191,271,91744,1,2,0:0:0:0:
188,231,92087,1,2,0:0:0:0:
196,192,92430,1,2,0:0:0:0:
301,26,92773,5,2,0:0:0:0:
318,62,93116,1,2,0:0:0:0:
321,102,93459,1,2,0:0:0:0:
313,141,93802,1,2,0:0:0:0:
420,314,94144,5,2,0:0:0:0:
403,278,94487,1,2,0:0:0:0:
400,238,94830,1,2,0:0:0:0:
408,199,95173,1,2,0:0:0:0:
470,96,95516,5,2,0:0:0:0:
432,81,95859,1,2,0:0:0:0:
392,81,96202,1,2,0:0:0:0:
354,92,96545,1,2,0:0:0:0:
140,237,96887,5,2,0:0:0:0:
178,252,97230,1,2,0:0:0:0:
218,252,97573,1,2,0:0:0:0:
256,241,97916,1,2,0:0:0:0:
196,128,98259,5,2,0:0:0:0:
200,146,98601,1,2,0:0:0:0:
136,255,98944,1,2,0:0:0:0:
140,237,99286,1,2,0:0:0:0:
196,128,99630,5,2,0:0:0:0:
200,146,99972,1,2,0:0:0:0:
89,75,100316,6,0,L|93:33,3,35
147,144,100659,6,0,L|249:133,1,70,2|0,0:0|0:0,0:0:0:0:
276,70,101002,5,2,0:0:0:0:
301,152,101173,1,0,0:0:0:0:
358,88,101345,1,0,0:0:0:0:
216,136,101516,1,0,0:0:0:0:
389,171,101688,2,0,P|396:204|391:242,1,70,8|0,0:0|0:0,0:0:0:0:
380,336,102031,6,0,P|373:303|378:265,1,70
469,125,102373,5,2,0:0:0:0:
389,171,102545,1,0,0:0:0:0:
296,181,102716,1,0,0:0:0:0:
209,151,102888,1,0,0:0:0:0:
276,92,103059,1,8,0:0:0:0:
227,238,103231,1,0,0:0:0:0:
188,65,103402,1,0,0:0:0:0:
296,181,103573,1,0,0:0:0:0:
123,127,103745,6,0,L|44:132,1,70,2|0,0:0|0:0,0:0:0:0:
276,92,104088,2,0,P|281:48|273:15,1,70
227,238,104431,2,0,L|148:243,1,70,8|0,0:0|0:0,0:0:0:0:
380,203,104773,2,0,P|385:159|377:126,1,70
297,67,105116,5,2,0:0:0:0:
395,47,105288,1,0,0:0:0:0:
299,172,105459,1,0,0:0:0:0:
380,203,105631,1,0,0:0:0:0:
216,124,105802,1,8,0:0:0:0:
297,67,105973,1,0,0:0:0:0:
149,186,106145,1,0,0:0:0:0:
120,93,106316,1,0,0:0:0:0:
299,172,106488,6,2,L|293:255,1,70
149,186,106831,1,2,0:0:0:0:
379,134,107002,1,2,0:0:0:0:
293,241,107173,1,10,0:0:0:0:
319,59,107345,1,2,0:0:0:0:
465,182,107516,1,2,0:0:0:0:
233,139,107688,2,2,L|229:97,1,35
238,14,107859,5,2,0:0:0:0:
351,159,108031,1,2,0:0:0:0:
122,90,108202,1,2,0:0:0:0:
370,49,108373,1,2,0:0:0:0:
196,235,108545,1,10,0:0:0:0:
233,139,108716,1,2,0:0:0:0:
271,278,108888,5,2,0:0:0:0:
272,286,108973,1,0,0:0:0:0:
273,295,109059,1,0,0:0:0:0:
274,303,109145,1,0,0:0:0:0:
276,314,109231,5,2,0:0:0:0:
290,323,109316,1,0,0:0:0:0:
307,328,109402,1,0,0:0:0:0:
324,329,109488,1,0,0:0:0:0:
342,329,109573,1,2,0:0:0:0:
365,316,109659,1,0,0:0:0:0:
390,310,109745,1,0,0:0:0:0:
416,309,109831,1,0,0:0:0:0:
444,317,109916,5,2,0:0:0:0:
426,287,110002,1,0,0:0:0:0:
416,253,110088,1,2,0:0:0:0:
415,218,110173,1,0,0:0:0:0:
427,182,110259,1,2,0:0:0:0:
440,175,110345,1,0,0:0:0:0:
450,184,110429,1,2,0:0:0:0:
443,197,110516,1,0,0:0:0:0:
430,196,110601,1,2,0:0:0:0:
256,192,110687,12,0,111630,0:0:0:0:
63,75,111973,6,0,P|110:66|186:103,1,105.000004005432,2|4,0:0|0:0,0:0:0:0:
295,345,112316,6,0,P|263:308|257:224,1,105.000004005432,10|4,0:0|0:0,0:0:0:0:
411,25,112659,6,0,P|395:70|325:117,1,105.000004005432,2|4,0:0|0:0,0:0:0:0:
245,180,112916,1,0,0:0:0:0:
171,135,113001,6,0,P|212:103|263:96,1,105.000004005432,10|4,0:0|0:0,0:0:0:0:
364,217,113345,5,2,0:0:0:0:
313,9,113516,1,4,0:0:0:0:
286,294,113688,1,10,0:0:0:0:
393,90,113859,1,4,0:0:0:0:
417,340,114031,1,2,0:0:0:0:
261,134,114202,1,4,0:0:0:0:
286,294,114373,1,10,0:0:0:0:
320,51,114545,1,4,0:0:0:0:
395,232,114716,6,0,L|501:237,1,105.000004005432,2|4,0:0|0:0,0:0:0:0:
178,107,115059,6,0,L|72:112,1,105.000004005432,10|4,0:0|0:0,0:0:0:0:
14,175,115316,1,0,0:0:0:0:
30,224,115402,1,2,0:0:0:0:
73,252,115488,1,0,0:0:0:0:
125,248,115573,1,4,0:0:0:0:
255,28,115745,2,0,L|361:33,1,105.000004005432,10|4,0:0|0:0,0:0:0:0:
178,107,116088,5,2,0:0:0:0:
446,83,116259,1,4,0:0:0:0:
112,196,116431,1,10,0:0:0:0:
380,262,116602,1,4,0:0:0:0:
89,291,116773,1,2,0:0:0:0:
339,166,116945,1,4,0:0:0:0:
28,167,117116,1,10,0:0:0:0:
301,74,117288,1,4,0:0:0:0:
92,100,117459,6,0,P|83:53|120:-23,1,105.000004005432,2|4,0:0|0:0,0:0:0:0:
288,258,117802,6,0,P|251:289|167:295,1,105.000004005432,10|4,0:0|0:0,0:0:0:0:
320,0,118145,6,0,P|365:15|412:85,1,105.000004005432,2|4,0:0|0:0,0:0:0:0:
364,164,118402,1,0,0:0:0:0:
274,176,118488,6,0,P|287:118|327:82,1,105.000004005432,10|4,0:0|0:0,0:0:0:0:
485,152,118831,5,2,0:0:0:0:
208,51,119002,1,4,0:0:0:0:
262,324,119173,1,10,0:0:0:0:
364,164,119345,1,4,0:0:0:0:
108,187,119516,1,2,0:0:0:0:
361,271,119688,1,4,0:0:0:0:
7,251,119859,1,10,0:0:0:0:
278,215,120031,1,4,0:0:0:0:
36,128,120202,6,0,L|31:17,1,105.000004005432,2|4,0:0|0:0,0:0:0:0:
361,20,120545,6,0,L|356:131,1,105.000004005432,10|4,0:0|0:0,0:0:0:0:
314,202,120802,1,0,0:0:0:0:
278,215,120888,1,2,0:0:0:0:
239,213,120973,1,0,0:0:0:0:
203,197,121059,1,4,0:0:0:0:
449,95,121231,2,0,L|444:206,1,105.000004005432,10|4,0:0|0:0,0:0:0:0:
361,20,121573,5,2,0:0:0:0:
444,199,121745,1,4,0:0:0:0:
269,90,121916,1,10,0:0:0:0:
280,273,122088,1,4,0:0:0:0:
188,166,122259,1,2,0:0:0:0:
444,199,122431,1,4,0:0:0:0:
188,264,122602,1,10,0:0:0:0:
269,38,122773,1,4,0:0:0:0:
232,338,122945,2,0,P|185:347|109:310,1,105.000004005432,2|4,0:0|0:0,0:0:0:0:
352,234,123288,6,0,P|383:270|389:354,1,105.000004005432,10|4,0:0|0:0,0:0:0:0:
194,175,123631,6,0,P|209:129|279:82,1,105.000004005432,2|4,0:0|0:0,0:0:0:0:
392,53,123888,1,0,0:0:0:0:
479,59,123973,6,0,L|491:169,1,105.000004005432,10|4,0:0|0:0,0:0:0:0:
437,334,124316,5,2,0:0:0:0:
389,165,124488,1,4,0:0:0:0:
286,284,124659,1,10,0:0:0:0:
505,222,124831,1,4,0:0:0:0:
260,162,125002,1,2,0:0:0:0:
510,97,125173,1,4,0:0:0:0:
281,291,125345,1,10,0:0:0:0:
206,72,125516,1,4,0:0:0:0:
288,300,125688,6,0,L|395:294,1,105.000004005432,2|4,0:0|0:0,0:0:0:0:
178,44,126031,6,0,L|74:39,1,105.000004005432,10|4,0:0|0:0,0:0:0:0:
18,106,126288,1,0,0:0:0:0:
37,134,126373,1,2,0:0:0:0:
43,168,126459,1,0,0:0:0:0:
34,201,126545,1,4,0:0:0:0:
235,108,126716,2,0,L|339:103,1,105.000004005432,10|4,0:0|0:0,0:0:0:0:
178,44,127059,5,2,0:0:0:0:
295,205,127231,1,4,0:0:0:0:
418,40,127402,1,10,0:0:0:0:
295,221,127573,1,4,0:0:0:0:
177,34,127745,1,2,0:0:0:0:
294,235,127916,1,4,0:0:0:0:
421,19,128088,1,10,0:0:0:0:
295,256,128259,1,4,0:0:0:0:
168,20,128431,6,0,P|115:14|69:36,1,105.000004005432,2|4,0:0|0:0,0:0:0:0:
291,107,128773,6,0,P|322:64|326:13,1,105.000004005432,10|4,0:0|0:0,0:0:0:0:
148,178,129116,6,0,P|169:226|211:255,1,105.000004005432,2|4,0:0|0:0,0:0:0:0:
354,255,129373,1,0,0:0:0:0:
386,178,129459,6,0,P|332:177|289:204,1,105.000004005432,10|4,0:0|0:0,0:0:0:0:
234,354,129802,5,2,0:0:0:0:
234,354,130145,1,10,0:0:0:0:
253,122,130316,1,4,0:0:0:0:
354,255,130488,1,2,0:0:0:0:
111,187,130659,1,4,0:0:0:0:
111,187,130745,1,0,0:0:0:0:
111,187,130831,1,10,0:0:0:0:
388,113,131002,1,4,0:0:0:0:
151,280,131173,6,0,L|93:285,3,52.5000020027161,2|0|4|0,0:0|0:0|0:0|0:0,0:0:0:0:
388,113,131516,2,0,L|446:108,3,52.5000020027161,10|0|4|0,0:0|0:0|0:0|0:0,0:0:0:0:
111,187,131859,2,0,L|53:192,3,52.5000020027161,2|0|4|0,0:0|0:0|0:0|0:0,0:0:0:0:
298,42,132202,5,10,0:0:0:0:
350,37,132288,1,0,0:0:0:0:
402,32,132373,1,4,0:0:0:0:
454,27,132459,1,0,0:0:0:0:
507,22,132545,2,2,L|491:152,1,105.000004005432,2|4,0:0|0:0,0:0:0:0:
402,332,132888,2,2,L|386:202,1,105.000004005432,10|4,0:0|0:0,0:0:0:0:
298,42,133231,5,2,0:0:0:0:
298,55,133316,1,0,0:0:0:0:
299,68,133402,1,0,0:0:0:0:
300,81,133488,1,0,0:0:0:0:
301,94,133573,1,2,0:0:0:0:
493,125,133916,6,0,P|443:122|408:129,1,70,4|4,0:0|0:0,0:0:0:0:
372,218,134259,1,10,0:0:0:0:
399,44,134431,1,4,0:0:0:0:
445,291,134602,2,0,L|449:333,1,35,2|0,0:0|0:0,0:0:0:0:
372,218,134773,2,0,L|376:176,1,35,4|0,0:0|0:0,0:0:0:0:
300,286,134945,1,10,0:0:0:0:
469,198,135116,1,4,0:0:0:0:
286,95,135287,6,0,P|236:92|201:99,1,70,2|4,0:0|0:0,0:0:0:0:
365,35,135631,1,10,0:0:0:0:
252,175,135802,1,4,0:0:0:0:
140,40,135973,1,2,0:0:0:0:
339,133,136145,2,0,L|380:135,1,35,4|0,0:0|0:0,0:0:0:0:
506,147,136316,2,0,P|524:175|469:157,1,140,10|4,0:0|0:0,0:0:0:0:
379,21,136659,6,0,P|329:18|294:25,1,70,2|4,0:0|0:0,0:0:0:0:
456,82,137002,1,10,0:0:0:0:
241,88,137173,1,4,0:0:0:0:
342,182,137345,2,0,L|382:178,1,35,2|0,0:0|0:0,0:0:0:0:
197,216,137516,2,0,L|157:212,1,35,4|0,0:0|0:0,0:0:0:0:
241,88,137688,1,10,0:0:0:0:
282,278,137859,1,4,0:0:0:0:
241,88,138031,6,0,P|291:85|326:92,1,70,2|4,0:0|0:0,0:0:0:0:
406,174,138373,1,10,0:0:0:0:
197,216,138545,1,4,0:0:0:0:
402,282,138716,1,2,0:0:0:0:
310,87,138888,1,4,0:0:0:0:
242,288,139059,2,0,P|263:313|262:255,1,140,10|4,0:0|0:0,0:0:0:0:
95,259,139402,6,0,P|92:309|99:344,1,70,2|4,0:0|0:0,0:0:0:0:
147,179,139745,1,10,0:0:0:0:
13,195,139916,1,4,0:0:0:0:
180,63,140088,2,0,L|141:60,1,35,2|0,0:0|0:0,0:0:0:0:
35,92,140259,2,0,L|74:89,1,35,4|0,0:0|0:0,0:0:0:0:
147,179,140431,1,10,0:0:0:0:
79,7,140602,1,4,0:0:0:0:
13,195,140773,6,0,P|10:245|17:280,1,70,2|4,0:0|0:0,0:0:0:0:
71,121,141116,1,10,0:0:0:0:
98,303,141288,1,4,0:0:0:0:
13,195,141459,1,2,0:0:0:0:
162,211,141631,2,0,L|203:209,1,35,4|0,0:0|0:0,0:0:0:0:
329,197,141802,2,0,P|347:169|292:187,1,140,10|4,0:0|0:0,0:0:0:0:
443,203,142145,6,0,P|446:153|439:118,1,70,2|4,0:0|0:0,0:0:0:0:
357,55,142488,1,10,0:0:0:0:
512,35,142659,1,4,0:0:0:0:
329,197,142831,2,0,L|332:233,1,35,2|0,0:0|0:0,0:0:0:0:
258,139,143002,2,0,L|261:103,1,35,4|0,0:0|0:0,0:0:0:0:
181,198,143173,1,10,0:0:0:0:
414,161,143345,1,4,0:0:0:0:
331,231,143516,1,2,0:0:0:0:
258,139,143688,2,0,L|267:26,1,105.000004005432,4|4,0:0|0:0,0:0:0:0:
431,164,144373,5,2,0:0:0:0:
345,151,144545,1,2,0:0:0:0:
258,139,144716,1,2,0:0:0:0:
165,222,144888,6,0,P|161:256|165:291,1,70,2|4,0:0|0:0,0:0:0:0:
256,335,145231,1,10,0:0:0:0:
80,305,145402,1,4,0:0:0:0:
223,141,145573,2,0,L|273:138,1,35,2|0,0:0|0:0,0:0:0:0:
140,101,145745,2,0,L|90:98,1,35,4|0,0:0|0:0,0:0:0:0:
202,28,145916,1,10,0:0:0:0:
165,222,146088,1,4,0:0:0:0:
324,108,146259,6,0,P|328:142|324:177,1,70,2|4,0:0|0:0,0:0:0:0:
165,222,146602,1,10,0:0:0:0:
140,101,146773,1,4,0:0:0:0:
257,273,146945,1,2,0:0:0:0:
324,108,147116,2,0,L|283:106,1,35,4|0,0:0|0:0,0:0:0:0:
140,101,147288,2,0,P|122:73|177:91,1,140,10|4,0:0|0:0,0:0:0:0:
18,109,147631,6,0,P|13:74|17:39,1,70,2|4,0:0|0:0,0:0:0:0:
78,186,147973,1,10,0:0:0:0:
140,18,148145,1,4,0:0:0:0:
216,159,148316,2,0,L|256:162,1,35,2|0,0:0|0:0,0:0:0:0:
367,214,148488,2,0,L|327:217,1,35,4|0,0:0|0:0,0:0:0:0:
256,285,148659,1,10,0:0:0:0:
453,239,148831,1,4,0:0:0:0:
335,57,149002,6,0,P|330:91|335:126,1,70,2|4,0:0|0:0,0:0:0:0:
453,239,149345,1,10,0:0:0:0:
263,194,149516,1,4,0:0:0:0:
449,146,149688,1,2,0:0:0:0:
256,285,149859,1,4,0:0:0:0:
335,57,150031,2,0,P|310:35|320:92,1,140,10|4,0:0|0:0,0:0:0:0:
482,17,150373,6,0,P|447:13|412:18,1,70,2|4,0:0|0:0,0:0:0:0:
263,194,150716,1,10,0:0:0:0:
449,146,150888,1,4,0:0:0:0:
208,127,151059,2,0,L|156:122,1,35,2|0,0:0|0:0,0:0:0:0:
35,100,151231,2,0,L|87:95,1,35,4|0,0:0|0:0,0:0:0:0:
148,13,151402,1,10,0:0:0:0:
112,205,151573,1,4,0:0:0:0:
240,39,151745,6,0,P|275:35|310:40,1,70,2|4,0:0|0:0,0:0:0:0:
177,124,152088,1,10,0:0:0:0:
148,13,152259,1,4,0:0:0:0:
112,205,152431,1,2,0:0:0:0:
275,118,152602,2,0,L|316:116,1,35,4|0,0:0|0:0,0:0:0:0:
442,104,152773,2,0,P|460:76|405:94,1,140,10|4,0:0|0:0,0:0:0:0:
404,243,153116,6,0,P|438:247|473:243,1,70,2|4,0:0|0:0,0:0:0:0:
321,195,153459,1,10,0:0:0:0:
350,343,153631,1,4,0:0:0:0:
402,150,153802,2,0,L|398:113,1,35,2|0,0:0|0:0,0:0:0:0:
320,40,153973,2,0,L|317:75,1,35,4|0,0:0|0:0,0:0:0:0:
407,0,154145,1,10,0:0:0:0:
222,17,154316,1,4,0:0:0:0:
487,108,154488,6,0,P|496:147|489:187,2,78.7500030040742,2|0|0,0:0|0:0|0:0,0:0:0:0:
377,153,155173,2,0,L|425:150,6,26.2500010013581,2|0|0|0|0|0|0,0:0|0:0|0:0|0:0|0:0|0:0|0:0,0:0:0:0:
240,102,155516,2,0,L|302:98,1,52.5000020027161,10|0,0:0|0:0,0:0:0:0:
240,102,155859,6,0,B|193:113|167:140|167:140|123:128|82:145|82:145|129:142|168:165|178:205,1,293.999991027832
99,225,158430,1,0,0:0:0:0:
86,92,158602,6,0,B|130:75|173:94|173:94|208:63|257:68|257:68|224:45|180:56|180:56|156:39|121:41,1,314.999990386963
117,48,161345,6,0,P|124:78|117:135,1,83.9999974365235
212,294,162716,6,0,P|205:264|212:207,1,83.9999974365235
223,203,163573,1,0,0:0:0:0:
239,197,163745,1,0,0:0:0:0:
253,197,163916,1,0,0:0:0:0:
271,202,164088,6,0,P|297:207|317:203,1,41.9999987182618
381,46,164773,2,0,P|363:66|357:85,1,41.9999987182618
447,235,165459,2,0,P|438:209|424:194,1,41.9999987182618
271,202,166145,5,0,0:0:0:0:
280,205,166316,1,0,0:0:0:0:
291,206,166488,1,0,0:0:0:0:
301,206,166659,1,0,0:0:0:0:
330,191,166831,6,0,P|322:146|331:84,1,104.999996795654
270,259,168202,6,0,P|276:295|269:346,1,83.9999974365235
257,349,169059,1,0,0:0:0:0:
244,351,169231,1,0,0:0:0:0:
231,349,169402,1,0,0:0:0:0:
208,336,169573,6,0,L|206:308,1,20.9999993591309
230,237,169916,1,0,0:0:0:0:
366,188,170259,2,0,L|368:160,1,20.9999993591309
344,89,170602,1,0,0:0:0:0:
85,266,170945,6,0,L|83:238,1,20.9999993591309
107,167,171288,1,0,0:0:0:0:
243,118,171631,2,0,L|245:90,1,20.9999993591309
221,19,171973,1,0,0:0:0:0:
221,19,172316,6,0,L|172:23,1,41.9999987182618
358,58,173002,2,0,L|310:61,2,35
200,121,173688,2,0,L|151:125,1,41.9999987182618
349,152,174373,2,0,L|300:156,1,41.9999987182618
245,221,174888,1,0,0:0:0:0:
246,238,175059,6,0,L|249:280,1,41.9999987182618
132,166,175745,2,0,L|135:208,1,41.9999987182618
337,141,176431,2,0,L|342:215,1,70
211,2,177116,2,0,L|215:69,2,52.5000020027161
221,140,177802,5,0,0:0:0:0:
372,224,186030,5,2,0:0:0:0:
372,224,186201,1,2,0:0:0:0:
97,168,186373,1,8,0:0:0:0:
260,109,186544,1,2,0:0:0:0:
251,115,186630,2,0,P|215:82|258:77,1,105
260,109,187059,1,8,0:0:0:0:
102,173,187573,5,2,0:0:0:0:
102,173,187745,6,0,L|199:166,1,70,10|0,0:0|0:0,0:0:0:0:
374,121,188088,6,0,L|277:114,1,70,10|0,0:0|0:0,0:0:0:0:
128,59,188431,6,0,L|225:52,1,70,10|0,0:0|0:0,0:0:0:0:
221,36,188687,1,0,0:0:0:0:
249,14,188773,5,2,0:0:0:0:
183,168,188945,1,2,0:0:0:0:
374,121,189116,1,8,0:0:0:0:
67,151,189287,1,0,0:0:0:0:
78,159,189373,2,0,L|175:168,1,70,2|0,0:0|0:0,0:0:0:0:
183,168,189630,1,2,0:0:0:0:
374,121,189802,1,8,0:0:0:0:
78,159,190316,5,2,0:0:0:0:
372,129,190488,1,8,0:0:0:0:
147,60,190831,1,2,0:0:0:0:
254,33,191002,1,2,0:0:0:0:
219,132,191173,1,8,0:0:0:0:
219,132,191345,1,2,0:0:0:0:
147,60,191516,5,2,0:0:0:0:
254,33,191688,1,2,0:0:0:0:
215,233,191859,2,0,P|204:200|210:136,1,70,8|0,0:0|0:0,0:0:0:0:
219,132,192116,1,2,0:0:0:0:
428,66,192373,1,2,0:0:0:0:
218,131,192545,1,8,0:0:0:0:
100,70,193059,5,2,0:0:0:0:
310,135,193231,1,8,0:0:0:0:
255,29,193573,1,2,0:0:0:0:
310,135,193745,1,2,0:0:0:0:
253,239,193916,2,0,L|154:232,1,70,8|0,0:0|0:0,0:0:0:0:
310,135,194259,5,2,0:0:0:0:
325,304,194431,1,0,0:0:0:0:
464,217,194602,1,2,0:0:0:0:
370,216,194773,1,0,0:0:0:0:
370,216,194859,1,0,0:0:0:0:
370,216,194945,1,2,0:0:0:0:
442,54,195116,1,0,0:0:0:0:
254,70,195288,1,2,0:0:0:0:
354,113,195459,1,0,0:0:0:0:
156,83,195631,5,2,0:0:0:0:
185,245,195802,1,0,0:0:0:0:
254,70,195973,1,2,0:0:0:0:
56,168,196145,1,0,0:0:0:0:
278,198,196316,1,2,0:0:0:0:
197,1,196488,1,0,0:0:0:0:
185,245,196659,1,2,0:0:0:0:
254,70,196831,1,0,0:0:0:0:
229,324,197002,6,0,P|195:334|159:332,1,70,2|0,0:0|0:0,0:0:0:0:
383,149,197345,2,0,P|409:173|425:206,1,70,2|0,0:0|0:0,0:0:0:0:
155,102,197688,2,0,P|163:68|183:37,1,70,2|0,0:0|0:0,0:0:0:0:
229,324,198031,2,0,P|195:334|159:332,1,70,2|0,0:0|0:0,0:0:0:0:
355,29,198373,6,0,P|385:50|342:53,1,105
351,8,199059,6,0,P|410:49|325:55,1,210
221,89,199745,6,0,P|164:75|62:106,1,157.500006008148,4|0,0:0|0:0,0:0:0:0:
13,166,200088,1,10,0:0:0:0:
160,299,200259,1,4,0:0:0:0:
156,247,200345,1,0,0:0:0:0:
152,195,200431,1,2,0:0:0:0:
411,61,200602,1,4,0:0:0:0:
405,139,200688,1,0,0:0:0:0:
400,218,200773,1,10,0:0:0:0:
93,66,200945,2,0,L|147:69,1,52.5000020027161,4|0,0:0|0:0,0:0:0:0:
260,49,201116,6,0,P|317:35|419:66,1,157.500006008148,2|0,0:0|0:0,0:0:0:0:
463,145,201459,1,10,0:0:0:0:
151,173,201631,1,4,0:0:0:0:
148,120,201716,1,0,0:0:0:0:
145,68,201802,1,2,0:0:0:0:
405,139,201973,1,4,0:0:0:0:
401,217,202059,1,0,0:0:0:0:
397,296,202145,1,10,0:0:0:0:
85,317,202316,2,0,L|118:315,1,17.5,4|0,0:0|0:0,0:0:0:0:
292,302,202488,6,0,L|397:295,1,105.000004005432,2|4,0:0|0:0,0:0:0:0:
92,135,202831,1,10,0:0:0:0:
157,139,202916,1,0,0:0:0:0:
222,143,203002,1,4,0:0:0:0:
288,147,203088,1,0,0:0:0:0:
353,151,203173,5,2,0:0:0:0:
352,165,203259,1,0,0:0:0:0:
350,178,203345,1,4,0:0:0:0:
349,191,203431,1,0,0:0:0:0:
363,227,203516,2,0,L|493:215,1,105.000004005432,10|4,0:0|0:0,0:0:0:0:
233,59,203859,5,2,0:0:0:0:
206,56,203945,1,0,0:0:0:0:
180,54,204031,1,4,0:0:0:0:
154,51,204116,1,0,0:0:0:0:
126,48,204202,5,10,0:0:0:0:
134,99,204288,1,0,0:0:0:0:
142,151,204373,1,4,0:0:0:0:
150,203,204459,1,0,0:0:0:0:
158,255,204545,5,2,0:0:0:0:
171,253,204631,1,0,0:0:0:0:
184,250,204716,1,4,0:0:0:0:
197,248,204802,1,0,0:0:0:0:
236,219,204888,2,0,L|225:324,1,105.000004005432,10|4,0:0|0:0,0:0:0:0:
156,149,205231,6,0,P|229:124|306:137,1,157.500006008148,2|0,0:0|0:0,0:0:0:0:
370,208,205573,1,10,0:0:0:0:
69,124,205745,1,4,0:0:0:0:
64,71,205831,1,0,0:0:0:0:
59,19,205916,1,2,0:0:0:0:
383,51,206088,1,4,0:0:0:0:
376,129,206173,1,0,0:0:0:0:
369,207,206259,1,10,0:0:0:0:
69,124,206431,2,0,L|138:118,1,52.5000020027161,4|0,0:0|0:0,0:0:0:0:
228,110,206602,5,2,0:0:0:0:
226,123,206688,1,0,0:0:0:0:
224,136,206773,1,4,0:0:0:0:
222,149,206859,1,0,0:0:0:0:
221,162,206945,6,0,L|225:216,1,52.5000020027161,10|0,0:0|0:0,0:0:0:0:
306,354,207116,2,0,L|310:300,1,52.5000020027161,4|0,0:0|0:0,0:0:0:0:
103,237,207288,2,0,L|107:291,1,52.5000020027161,2|0,0:0|0:0,0:0:0:0:
409,221,207459,2,0,L|413:167,1,52.5000020027161,4|0,0:0|0:0,0:0:0:0:
135,97,207631,2,0,L|139:151,1,52.5000020027161,10|0,0:0|0:0,0:0:0:0:
378,14,207802,2,0,L|359:13,1,17.5,4|0,0:0|0:0,0:0:0:0:
149,78,207973,6,0,L|31:71,1,105.000004005432,2|4,0:0|0:0,0:0:0:0:
365,236,208316,2,0,L|417:232,1,52.5000020027161,10|0,0:0|0:0,0:0:0:0:
479,169,208488,1,4,0:0:0:0:
164,315,208659,2,0,L|112:311,1,52.5000020027161,2|0,0:0|0:0,0:0:0:0:
50,248,208831,1,4,0:0:0:0:
271,152,209002,1,10,0:0:0:0:
1,47,209173,2,0,L|53:51,1,52.5000020027161,4|0,0:0|0:0,0:0:0:0:
198,60,209345,6,0,P|216:22|191:60,1,140,2|4,0:0|0:0,0:0:0:0:
479,169,209688,1,10,0:0:0:0:
481,134,209773,1,0,0:0:0:0:
484,99,209859,1,4,0:0:0:0:
160,217,210031,1,2,0:0:0:0:
163,269,210116,1,0,0:0:0:0:
167,321,210202,1,4,0:0:0:0:
484,99,210373,2,0,L|330:104,1,140,10|4,0:0|0:0,0:0:0:0:
136,180,210716,6,0,P|193:194|295:163,1,157.500006008148,2|0,0:0|0:0,0:0:0:0:
344,103,211059,1,10,0:0:0:0:
31,37,211231,1,4,0:0:0:0:
34,89,211316,1,0,0:0:0:0:
37,141,211402,1,2,0:0:0:0:
341,182,211573,1,4,0:0:0:0:
344,103,211659,1,0,0:0:0:0:
347,24,211745,1,10,0:0:0:0:
37,141,211916,2,0,L|90:138,1,52.5000020027161,4|0,0:0|0:0,0:0:0:0:
214,130,212088,6,0,B|258:90|243:35|243:35|241:66|226:94,1,157.500006008148,2|0,0:0|0:0,0:0:0:0:
89,138,212431,1,10,0:0:0:0:
402,204,212602,1,4,0:0:0:0:
398,151,212688,1,0,0:0:0:0:
395,99,212773,1,2,0:0:0:0:
92,59,212945,1,4,0:0:0:0:
89,138,213031,1,0,0:0:0:0:
86,217,213116,1,10,0:0:0:0:
198,20,213287,1,4,0:0:0:0:
86,217,213459,6,0,P|53:198|99:207,1,140,2|0,0:0|0:0,0:0:0:0:
62,314,213802,5,10,0:0:0:0:
127,312,213888,1,0,0:0:0:0:
193,310,213973,1,4,0:0:0:0:
258,308,214059,1,0,0:0:0:0:
324,307,214145,5,2,0:0:0:0:
322,294,214231,1,0,0:0:0:0:
320,281,214316,1,4,0:0:0:0:
318,268,214402,1,0,0:0:0:0:
306,236,214488,2,0,L|317:121,1,105.000004005432,10|4,0:0|0:0,0:0:0:0:
509,36,214831,5,2,0:0:0:0:
482,38,214916,1,0,0:0:0:0:
456,40,215002,1,4,0:0:0:0:
430,43,215088,1,0,0:0:0:0:
402,45,215173,5,10,0:0:0:0:
408,97,215259,1,0,0:0:0:0:
414,149,215345,1,4,0:0:0:0:
420,201,215431,1,0,0:0:0:0:
427,253,215516,5,2,0:0:0:0:
428,240,215602,1,0,0:0:0:0:
428,227,215688,1,4,0:0:0:0:
429,214,215773,1,0,0:0:0:0:
429,207,215859,2,0,L|371:209,1,52.5000020027161,10|0,0:0|0:0,0:0:0:0:
260,268,216031,2,0,L|202:265,1,52.5000020027161,4|0,0:0|0:0,0:0:0:0:
0,189,216202,6,0,P|57:175|159:206,1,157.500006008148,2|0,0:0|0:0,0:0:0:0:
208,266,216545,1,10,0:0:0:0:
57,65,216716,1,4,0:0:0:0:
109,61,216802,1,0,0:0:0:0:
161,58,216888,1,2,0:0:0:0:
440,211,217059,1,4,0:0:0:0:
361,207,217145,1,0,0:0:0:0:
282,203,217231,1,10,0:0:0:0:
35,295,217402,2,0,L|39:347,1,52.5000020027161,4|0,0:0|0:0,0:0:0:0:
101,217,217573,5,2,0:0:0:0:
102,203,217659,1,0,0:0:0:0:
103,190,217745,1,4,0:0:0:0:
104,177,217831,1,0,0:0:0:0:
105,164,217916,6,0,L|101:109,1,52.5000020027161,10|0,0:0|0:0,0:0:0:0:
237,49,218088,2,0,L|233:104,1,52.5000020027161,4|0,0:0|0:0,0:0:0:0:
13,129,218259,2,0,L|9:74,1,52.5000020027161,2|0,0:0|0:0,0:0:0:0:
319,125,218431,2,0,L|315:180,1,52.5000020027161,4|0,0:0|0:0,0:0:0:0:
44,282,218602,2,0,L|40:227,1,52.5000020027161,10|0,0:0|0:0,0:0:0:0:
136,13,218773,2,0,L|134:44,1,17.5,4|0,0:0|0:0,0:0:0:0:
157,210,218945,6,0,L|147:351,1,105.000004005432,2|4,0:0|0:0,0:0:0:0:
281,41,219288,2,0,L|334:38,1,52.5000020027161,10|0,0:0|0:0,0:0:0:0:
404,93,219459,1,4,0:0:0:0:
150,314,219631,2,0,L|97:317,1,52.5000020027161,2|0,0:0|0:0,0:0:0:0:
30,263,219802,1,4,0:0:0:0:
310,203,219973,1,10,0:0:0:0:
45,68,220145,2,0,L|105:62,1,52.5000020027161,4|0,0:0|0:0,0:0:0:0:
216,102,220316,6,0,B|232:65|223:30|223:30|235:65|266:84,1,140,2|4,0:0|0:0,0:0:0:0:
379,80,220659,1,10,0:0:0:0:
396,77,220745,1,0,0:0:0:0:
413,75,220831,1,4,0:0:0:0:
310,203,221002,2,0,L|279:200,2,23.3333333333333,2|0|0,0:0|0:0|0:0,0:0:0:0:
424,243,221345,2,0,B|473:268|473:268|427:296|427:296|422:243,1,157.500006008148,10|0,0:0|0:0,0:0:0:0:
443,268,221688,5,2,0:0:0:0:
443,268,223059,6,0,L|393:272,1,35,2|0,0:0|0:0,0:0:0:0:
207,204,223401,6,0,L|264:208,1,52.5000020027161,10|0,0:0|0:0,0:0:0:0:
453,132,223744,6,0,L|381:137,1,70,2|0,0:0|0:0,0:0:0:0:
152,83,224087,6,0,L|243:90,1,87.5,10|0,0:0|0:0,0:0:0:0:
405,332,224431,6,0,L|396:219,1,105.000004005432,2|4,0:0|0:0,0:0:0:0:
418,71,224773,1,10,0:0:0:0:
258,205,224945,2,0,L|253:259,1,52.5000020027161,4|0,0:0|0:0,0:0:0:0:
288,339,225116,1,2,0:0:0:0:
86,278,225288,1,4,0:0:0:0:
255,106,225459,1,10,0:0:0:0:
175,346,225631,1,4,0:0:0:0:
150,58,225802,5,2,0:0:0:0:
337,183,225973,1,4,0:0:0:0:
35,206,226145,2,0,P|3:257|2:309,1,105.000004005432,10|4,0:0|0:0,0:0:0:0:
337,183,226488,2,0,P|317:125|278:91,1,105.000004005432,2|4,0:0|0:0,0:0:0:0:
175,346,226831,2,0,L|182:282,1,52.5000020027161,10|0,0:0|0:0,0:0:0:0:
259,248,227002,2,0,L|218:197,1,52.5000020027161,4|0,0:0|0:0,0:0:0:0:
127,176,227173,5,2,0:0:0:0:
175,346,227345,2,0,L|182:282,1,52.5000020027161,4|0,0:0|0:0,0:0:0:0:
259,248,227516,1,10,0:0:0:0:
28,204,227688,1,4,0:0:0:0:
294,139,227859,1,2,0:0:0:0:
27,302,228031,1,4,0:0:0:0:
139,71,228202,1,10,0:0:0:0:
175,346,228373,1,4,0:0:0:0:
139,71,228545,6,0,L|20:67,1,105.000004005432,2|4,0:0|0:0,0:0:0:0:
369,213,228888,2,0,L|488:209,1,105.000004005432,10|4,0:0|0:0,0:0:0:0:
222,133,229231,1,2,0:0:0:0:
272,327,229402,1,4,0:0:0:0:
493,126,229573,1,10,0:0:0:0:
441,356,229745,1,4,0:0:0:0:
390,78,229916,6,0,L|310:82,1,70,2|4,0:0|0:0,0:0:0:0:
115,58,230259,1,10,0:0:0:0:
354,172,230431,1,4,0:0:0:0:
368,194,230516,2,0,P|379:246|364:305,1,105.000004005432
353,316,230773,1,4,0:0:0:0:
419,102,230945,1,10,0:0:0:0:
193,249,231116,1,4,0:0:0:0:
512,332,231288,6,0,L|428:325,1,70,2|4,0:0|0:0,0:0:0:0:
353,316,231545,1,0,0:0:0:0:
419,102,231716,1,0,0:0:0:0:
248,0,231888,2,0,L|252:40,1,35
401,223,232145,1,6,0:0:0:0:
296,217,232316,1,10,0:0:0:0:
191,212,232488,1,6,0:0:0:0:
84,309,232659,5,2,0:0:0:0:
133,116,232831,2,0,L|127:57,1,52.5000020027161,4|0,0:0|0:0,0:0:0:0:
73,2,233002,1,10,0:0:0:0:
303,40,233173,1,4,0:0:0:0:
36,158,233345,1,2,0:0:0:0:
236,256,233516,1,4,0:0:0:0:
190,7,233688,1,10,0:0:0:0:
99,272,233859,1,4,0:0:0:0:
337,145,234031,5,2,0:0:0:0:
297,149,234116,1,0,0:0:0:0:
258,154,234202,1,4,0:0:0:0:
219,158,234288,1,0,0:0:0:0:
180,163,234373,6,0,L|125:155,1,52.5000020027161,10|0,0:0|0:0,0:0:0:0:
0,54,234545,2,0,L|55:62,1,52.5000020027161,4|0,0:0|0:0,0:0:0:0:
157,16,234716,5,2,0:0:0:0:
99,272,234888,1,4,0:0:0:0:
311,68,235059,1,10,0:0:0:0:
6,161,235231,1,4,0:0:0:0:
281,239,235402,6,0,P|302:206|254:237,1,157.500006008148,2|0,0:0|0:0,0:0:0:0:
378,287,235745,1,10,0:0:0:0:
163,129,235916,2,0,L|167:74,1,52.5000020027161,4|0,0:0|0:0,0:0:0:0:
209,3,236088,1,2,0:0:0:0:
42,71,236259,1,4,0:0:0:0:
189,262,236431,1,10,0:0:0:0:
166,76,236602,1,4,0:0:0:0:
11,251,236773,5,2,0:0:0:0:
285,197,236945,1,4,0:0:0:0:
42,71,237116,1,10,0:0:0:0:
81,338,237288,1,4,0:0:0:0:
282,60,237459,2,0,L|400:53,1,105.000004005432,2|4,0:0|0:0,0:0:0:0:
504,348,237802,2,0,L|386:341,1,105.000004005432,10|4,0:0|0:0,0:0:0:0:
159,242,238145,5,2,0:0:0:0:
282,60,238316,2,0,L|290:122,1,52.5000020027161,4|0,0:0|0:0,0:0:0:0:
358,184,238488,1,10,0:0:0:0:
98,161,238659,1,4,0:0:0:0:
400,89,238831,1,2,0:0:0:0:
63,55,239002,1,4,0:0:0:0:
276,240,239173,1,10,0:0:0:0:
251,6,239345,1,4,0:0:0:0:
159,242,239516,6,0,L|167:348,1,105.000004005432,2|4,0:0|0:0,0:0:0:0:
431,167,239859,2,0,L|439:61,1,105.000004005432,10|4,0:0|0:0,0:0:0:0:
276,240,240202,1,2,0:0:0:0:
505,213,240373,1,4,0:0:0:0:
308,59,240545,1,10,0:0:0:0:
378,327,240716,1,4,0:0:0:0:
467,48,240888,5,2,0:0:0:0:
443,94,240973,1,0,0:0:0:0:
406,130,241059,1,4,0:0:0:0:
358,152,241145,1,0,0:0:0:0:
306,156,241231,1,10,0:0:0:0:
255,143,241316,1,0,0:0:0:0:
212,114,241402,1,4,0:0:0:0:
181,72,241488,1,0,0:0:0:0:
166,21,241573,5,2,0:0:0:0:
159,73,241659,1,0,0:0:0:0:
177,106,241745,1,4,0:0:0:0:
169,157,241831,1,0,0:0:0:0:
186,188,241916,1,10,0:0:0:0:
178,239,242002,1,0,0:0:0:0:
196,272,242088,1,4,0:0:0:0:
188,323,242173,1,0,0:0:0:0:
209,356,242259,1,2,0:0:0:0:
376,6,243116,5,2,0:0:0:0:
271,13,243288,1,10,0:0:0:0:
166,21,243459,1,2,0:0:0:0:
84,165,243631,5,2,0:0:0:0:
68,67,243802,1,4,0:0:0:0:
206,203,243973,1,2,0:0:0:0:
216,102,244145,1,4,0:0:0:0:
100,263,244316,1,2,0:0:0:0:
84,165,244488,1,4,0:0:0:0:
222,301,244659,1,2,0:0:0:0:
232,200,244831,1,4,0:0:0:0:
392,102,245002,5,2,0:0:0:0:
290,120,245173,1,4,0:0:0:0:
117,25,245345,1,2,0:0:0:0:
219,43,245516,1,4,0:0:0:0:
451,180,245688,1,2,0:0:0:0:
349,198,245859,1,4,0:0:0:0:
49,97,246031,1,2,0:0:0:0:
151,115,246202,1,4,0:0:0:0:
206,286,246373,6,0,L|214:208,1,70,2|4,0:0|0:0,0:0:0:0:
290,100,246716,2,0,P|328:92|363:98,1,70,2|4,0:0|0:0,0:0:0:0:
66,231,247059,2,0,L|74:153,1,70,2|4,0:0|0:0,0:0:0:0:
150,45,247402,2,0,P|187:37|223:43,1,70,2|4,0:0|0:0,0:0:0:0:
329,183,247745,5,2,0:0:0:0:
407,18,247916,1,4,0:0:0:0:
436,260,248088,1,2,0:0:0:0:
363,99,248259,1,4,0:0:0:0:
368,338,248431,1,2,0:0:0:0:
420,169,248602,1,4,0:0:0:0:
241,238,248773,1,2,0:0:0:0:
436,260,248945,1,4,0:0:0:0:
335,91,249116,6,0,L|330:189,1,70,2|4,0:0|0:0,0:0:0:0:
148,330,249459,2,0,L|143:232,1,70,2|4,0:0|0:0,0:0:0:0:
419,258,249802,2,0,L|414:356,1,70,2|4,0:0|0:0,0:0:0:0:
78,187,250145,2,0,L|73:89,1,70,2|4,0:0|0:0,0:0:0:0:
150,55,250488,5,2,0:0:0:0:
115,271,250659,1,4,0:0:0:0:
245,70,250831,1,2,0:0:0:0:
78,187,251002,1,4,0:0:0:0:
312,142,251173,1,2,0:0:0:0:
150,55,251345,1,4,0:0:0:0:
273,260,251516,1,2,0:0:0:0:
245,70,251688,1,4,0:0:0:0:
179,307,251859,6,0,L|100:301,1,70,2|4,0:0|0:0,0:0:0:0:
348,221,252202,2,0,P|359:258|352:298,1,70,2|4,0:0|0:0,0:0:0:0:
76,156,252545,2,0,L|-3:150,1,70,2|4,0:0|0:0,0:0:0:0:
245,70,252888,2,0,P|256:107|249:147,1,70,2|4,0:0|0:0,0:0:0:0:
140,7,253231,5,2,0:0:0:0:
345,54,253402,1,4,0:0:0:0:
69,87,253573,1,2,0:0:0:0:
245,70,253744,1,4,0:0:0:0:
65,211,253916,1,2,0:0:0:0:
233,254,254087,1,4,0:0:0:0:
69,87,254259,1,2,0:0:0:0:
233,254,254602,6,0,P|248:281|240:337,1,70,2|4,0:0|0:0,0:0:0:0:
107,169,254945,6,0,P|123:141|175:120,1,70,10|4,0:0|0:0,0:0:0:0:
377,189,255288,6,0,P|345:188|301:153,1,70,2|4,0:0|0:0,0:0:0:0:
255,65,255545,1,0,0:0:0:0:
261,46,255631,6,0,P|292:42|340:71,1,70,10|4,0:0|0:0,0:0:0:0:
377,189,255973,5,2,0:0:0:0:
426,96,256145,1,4,0:0:0:0:
282,196,256316,1,10,0:0:0:0:
472,177,256488,1,4,0:0:0:0:
327,56,256659,1,2,0:0:0:0:
384,274,256831,1,4,0:0:0:0:
426,96,257002,1,10,0:0:0:0:
282,196,257173,1,4,0:0:0:0:
442,346,257345,6,0,L|517:343,1,70,2|4,0:0|0:0,0:0:0:0:
282,196,257688,6,0,L|207:193,1,70,10|4,0:0|0:0,0:0:0:0:
186,213,257945,1,0,0:0:0:0:
185,236,258031,1,2,0:0:0:0:
194,257,258116,1,0,0:0:0:0:
211,273,258202,1,4,0:0:0:0:
277,126,258373,2,0,L|282:203,1,70,10|4,0:0|0:0,0:0:0:0:
127,249,258716,5,2,0:0:0:0:
283,235,258888,1,4,0:0:0:0:
119,262,259059,1,10,0:0:0:0:
291,223,259231,1,4,0:0:0:0:
195,339,259402,1,2,0:0:0:0:
171,169,259573,1,4,0:0:0:0:
199,350,259745,1,10,0:0:0:0:
165,158,259916,1,4,0:0:0:0:
307,190,260088,6,0,P|315:146|281:76,1,87.5,2|4,0:0|0:0,0:0:0:0:
385,314,260431,6,0,P|418:342|495:348,1,87.5,10|4,0:0|0:0,0:0:0:0:
224,308,260773,6,0,P|182:322|138:386,1,87.5,2|4,0:0|0:0,0:0:0:0:
41,334,261031,1,0,0:0:0:0:
22,316,261116,6,0,P|16:272|53:204,1,87.5,10|4,0:0|0:0,0:0:0:0:
182,151,261459,5,2,0:0:0:0:
182,151,261802,1,10,0:0:0:0:
27,99,261973,1,4,0:0:0:0:
174,0,262145,1,2,0:0:0:0:
91,179,262316,1,4,0:0:0:0:
91,179,262402,1,0,0:0:0:0:
91,179,262488,1,10,0:0:0:0:
63,9,262659,1,4,0:0:0:0:
233,86,262831,6,0,L|332:91,1,87.5,2|4,0:0|0:0,0:0:0:0:
148,215,263173,6,0,L|49:220,1,87.5,10|4,0:0|0:0,0:0:0:0:
42,241,263431,1,0,0:0:0:0:
59,264,263516,1,2,0:0:0:0:
68,291,263602,1,0,0:0:0:0:
68,320,263688,1,4,0:0:0:0:
228,152,263859,2,0,L|315:147,1,87.5,10|4,0:0|0:0,0:0:0:0:
144,182,264202,6,0,L|289:174,1,131.25,2|0,0:0|0:0,0:0:0:0:
440,300,264716,1,4,0:0:0:0:
341,72,264888,2,0,L|343:22,2,43.75,2|0|4,0:0|0:0|0:0,0:0:0:0:
412,147,265145,2,0,L|414:197,2,43.75,2|0|0,0:0|0:0|0:0,0:0:0:0:
322,88,265402,2,0,L|269:84,1,43.75,6|0,0:0|0:0,0:0:0:0:
219,4,265573,6,0,P|187:45|180:96,1,105.000004005432,2|4,0:0|0:0,0:0:0:0:
328,277,265916,6,0,P|308:228|267:197,1,105.000004005432,10|4,0:0|0:0,0:0:0:0:
50,229,266259,6,0,P|101:236|149:216,1,105.000004005432,2|4,0:0|0:0,0:0:0:0:
180,96,266516,1,0,0:0:0:0:
155,13,266602,6,0,P|113:44|93:91,1,105.000004005432,10|4,0:0|0:0,0:0:0:0:
128,322,266945,5,2,0:0:0:0:
180,96,267116,1,4,0:0:0:0:
246,296,267288,1,10,0:0:0:0:
237,173,267459,1,4,0:0:0:0:
352,333,267631,1,2,0:0:0:0:
385,104,267802,1,4,0:0:0:0:
427,270,267973,1,10,0:0:0:0:
280,80,268145,1,4,0:0:0:0:
352,333,268316,6,0,L|458:328,1,105.000004005432,2|4,0:0|0:0,0:0:0:0:
209,145,268659,6,0,L|103:140,1,105.000004005432,10|4,0:0|0:0,0:0:0:0:
68,107,268916,1,0,0:0:0:0:
77,82,269002,1,2,0:0:0:0:
79,56,269088,1,0,0:0:0:0:
73,31,269173,1,4,0:0:0:0:
39,281,269345,2,0,P|21:219|32:166,1,105.000004005432,10|4,0:0|0:0,0:0:0:0:
249,240,269688,5,2,0:0:0:0:
109,221,269859,1,4,0:0:0:0:
348,194,270031,1,10,0:0:0:0:
167,295,270202,1,4,0:0:0:0:
422,282,270373,1,2,0:0:0:0:
185,168,270545,1,4,0:0:0:0:
495,150,270716,1,10,0:0:0:0:
257,312,270888,1,4,0:0:0:0:
204,41,271059,6,0,P|254:27|304:40,1,105.000004005432,2|4,0:0|0:0,0:0:0:0:
257,312,271402,6,0,P|220:275|206:225,1,105.000004005432,10|4,0:0|0:0,0:0:0:0:
464,63,271745,6,0,P|450:113|414:149,1,105.000004005432,2|4,0:0|0:0,0:0:0:0:
254,113,272002,1,0,0:0:0:0:
204,41,272088,6,0,P|254:27|304:40,1,105.000004005432,10|4,0:0|0:0,0:0:0:0:
123,108,272431,5,2,0:0:0:0:
414,149,272602,1,4,0:0:0:0:
196,199,272773,1,10,0:0:0:0:
304,40,272945,1,4,0:0:0:0:
312,252,273116,1,2,0:0:0:0:
204,41,273288,1,4,0:0:0:0:
200,309,273459,1,10,0:0:0:0:
325,130,273631,1,4,0:0:0:0:
115,257,273802,6,0,L|5:250,1,105.000004005432,2|4,0:0|0:0,0:0:0:0:
295,42,274145,6,0,L|405:35,1,105.000004005432,10|4,0:0|0:0,0:0:0:0:
437,60,274402,1,0,0:0:0:0:
421,80,274488,1,2,0:0:0:0:
415,106,274573,1,0,0:0:0:0:
419,131,274659,1,4,0:0:0:0:
226,126,274831,2,0,L|116:119,1,105.000004005432,10|4,0:0|0:0,0:0:0:0:
276,224,275173,5,2,0:0:0:0:
295,42,275345,1,4,0:0:0:0:
387,222,275516,1,10,0:0:0:0:
166,235,275688,1,4,0:0:0:0:
380,116,275859,1,2,0:0:0:0:
389,328,276031,1,4,0:0:0:0:
259,122,276202,1,10,0:0:0:0:
511,117,276373,1,4,0:0:0:0:
176,219,276545,6,0,P|136:174|133:109,1,105.000004005432,2|4,0:0|0:0,0:0:0:0:
337,265,276888,6,0,P|318:322|263:357,1,105.000004005432,10|4,0:0|0:0,0:0:0:0:
289,92,277231,6,0,P|347:79|405:109,1,105.000004005432,2|4,0:0|0:0,0:0:0:0:
504,241,277488,1,0,0:0:0:0:
452,307,277573,6,0,P|423:254|434:190,1,105.000004005432,10|4,0:0|0:0,0:0:0:0:
507,76,277916,5,2,0:0:0:0:
289,92,278088,1,4,0:0:0:0:
425,210,278259,1,10,0:0:0:0:
384,8,278431,1,4,0:0:0:0:
212,159,278602,1,2,0:0:0:0:
403,110,278773,1,4,0:0:0:0:
161,41,278945,1,10,0:0:0:0:
275,244,279116,1,4,0:0:0:0:
365,19,279288,6,0,L|486:12,1,105.000004005432,2|4,0:0|0:0,0:0:0:0:
125,209,279631,6,0,L|4:202,1,105.000004005432,10|4,0:0|0:0,0:0:0:0:
0,227,279888,1,0,0:0:0:0:
15,248,279973,1,2,0:0:0:0:
21,273,280059,1,0,0:0:0:0:
18,299,280145,1,4,0:0:0:0:
214,121,280316,2,0,L|93:114,1,105.000004005432,10|4,0:0|0:0,0:0:0:0:
288,190,280659,5,2,0:0:0:0:
314,20,280831,1,4,0:0:0:0:
381,212,281002,1,10,0:0:0:0:
191,203,281173,1,4,0:0:0:0:
403,98,281345,1,2,0:0:0:0:
361,318,281516,1,4,0:0:0:0:
247,80,281688,1,10,0:0:0:0:
489,69,281859,1,4,0:0:0:0:
361,318,282031,6,0,P|332:265|343:201,1,105.000004005432,2|4,0:0|0:0,0:0:0:0:
489,69,282373,6,0,P|457:120|396:143,1,105.000004005432,10|4,0:0|0:0,0:0:0:0:
206,87,282716,6,0,P|266:88|316:129,1,105.000004005432,2|4,0:0|0:0,0:0:0:0:
324,243,282973,1,0,0:0:0:0:
280,320,283059,6,0,P|243:272|243:207,1,105.000004005432,10|4,0:0|0:0,0:0:0:0:
419,140,283402,5,2,0:0:0:0:
419,140,283745,1,10,0:0:0:0:
357,0,283916,1,4,0:0:0:0:
419,140,284088,1,2,0:0:0:0:
239,4,284259,1,4,0:0:0:0:
239,4,284345,1,0,0:0:0:0:
239,4,284431,1,10,0:0:0:0:
467,50,284602,1,4,0:0:0:0:
298,181,284773,6,0,L|240:186,3,52.5000020027161,2|0|4|0,0:0|0:0|0:0|0:0,0:0:0:0:
444,229,285116,2,0,L|496:224,3,52.5000020027161,10|0|4|0,0:0|0:0|0:0|0:0,0:0:0:0:
186,123,285459,5,2,0:0:0:0:
165,156,285545,1,0,0:0:0:0:
161,195,285631,1,4,0:0:0:0:
174,232,285716,1,0,0:0:0:0:
201,260,285802,5,10,0:0:0:0:
153,240,285888,1,0,0:0:0:0:
101,238,285973,1,4,0:0:0:0:
51,255,286059,1,0,0:0:0:0:
11,287,286145,5,6,0:0:0:0:
337,245,286402,1,0,0:0:0:0:
22,130,286659,1,0,0:0:0:0:
378,51,286916,1,0,0:0:0:0:
176,333,287173,6,0,L|171:258,1,70
197,160,287516,6,0,P|200:122|190:85,1,70,2|4,0:0|0:0,0:0:0:0:
104,35,287859,1,10,0:0:0:0:
306,106,288031,1,4,0:0:0:0:
119,191,288202,2,0,L|82:196,1,35,2|0,0:0|0:0,0:0:0:0:
222,249,288373,2,0,L|185:254,1,35,4|0,0:0|0:0,0:0:0:0:
307,198,288545,1,10,0:0:0:0:
279,14,288716,1,4,0:0:0:0:
450,138,288888,6,0,L|378:141,1,70,2|4,0:0|0:0,0:0:0:0:
512,72,289231,1,10,0:0:0:0:
481,244,289402,1,4,0:0:0:0:
305,114,289573,1,2,0:0:0:0:
488,258,289745,2,0,L|486:294,1,35,4|0,0:0|0:0,0:0:0:0:
429,350,289916,2,0,B|383:338|383:338|339:350|339:350|292:336,1,140,10|4,0:0|0:0,0:0:0:0:
193,207,290259,6,0,P|190:169|200:132,1,70,2|4,0:0|0:0,0:0:0:0:
234,284,290602,1,10,0:0:0:0:
66,258,290773,1,4,0:0:0:0:
274,179,290945,2,0,L|313:183,1,35,2|0,0:0|0:0,0:0:0:0:
180,105,291116,2,0,L|219:109,1,35,4|0,0:0|0:0,0:0:0:0:
294,63,291288,1,10,0:0:0:0:
100,152,291459,1,4,0:0:0:0:
234,284,291631,6,0,L|237:202,1,70,2|4,0:0|0:0,0:0:0:0:
180,77,291973,1,10,0:0:0:0:
374,135,292145,1,4,0:0:0:0:
100,152,292316,1,2,0:0:0:0:
288,65,292488,1,4,0:0:0:0:
234,284,292659,2,0,P|248:314|262:257,1,140,10|4,0:0|0:0,0:0:0:0:
110,259,293002,6,0,P|105:294|119:342,1,70,2|4,0:0|0:0,0:0:0:0:
182,187,293345,1,10,0:0:0:0:
6,167,293516,1,4,0:0:0:0:
236,99,293687,2,0,L|240:56,1,35,2|0,0:0|0:0,0:0:0:0:
182,187,293859,2,0,L|186:230,1,35,4|0,0:0|0:0,0:0:0:0:
340,197,294031,1,10,0:0:0:0:
236,99,294202,1,4,0:0:0:0:
408,146,294373,6,0,P|425:193|421:219,1,70,2|4,0:0|0:0,0:0:0:0:
101,176,294716,2,0,P|120:130|141:113,1,70,10|4,0:0|0:0,0:0:0:0:
282,295,295059,1,2,0:0:0:0:
408,146,295231,2,0,L|406:110,1,35,4|0,0:0|0:0,0:0:0:0:
349,54,295402,2,0,B|303:66|303:66|259:54|259:54|212:68,1,140,10|4,0:0|0:0,0:0:0:0:
101,176,295745,6,0,P|98:214|108:251,1,70,2|4,0:0|0:0,0:0:0:0:
61,93,296088,1,10,0:0:0:0:
190,209,296259,1,4,0:0:0:0:
349,54,296431,2,0,L|346:95,1,35,2|0,0:0|0:0,0:0:0:0:
374,189,296602,2,0,L|371:230,1,35,4|0,0:0|0:0,0:0:0:0:
330,320,296773,1,10,0:0:0:0:
440,117,296945,1,4,0:0:0:0:
195,90,297116,5,2,0:0:0:0:
382,35,297288,2,2,L|311:40,1,70,4|4,0:0|0:0,0:0:0:0:
470,78,297802,1,0,0:0:0:0:
185,109,297973,1,2,0:0:0:0:
272,117,298145,1,2,0:0:0:0:
359,126,298316,1,2,0:0:0:0:
311,230,298488,6,0,L|319:316,1,70,2|4,0:0|0:0,0:0:0:0:
386,345,298831,1,10,0:0:0:0:
237,328,299002,1,4,0:0:0:0:
424,210,299173,1,2,0:0:0:0:
210,190,299344,1,6,0:0:0:0:
227,184,299430,1,0,0:0:0:0:
244,178,299516,1,10,0:0:0:0:
424,210,299688,1,6,0:0:0:0:
276,36,299859,6,0,L|283:115,1,70,2|4,0:0|0:0,0:0:0:0:
349,183,300202,1,10,0:0:0:0:
130,157,300373,1,4,0:0:0:0:
223,349,300545,1,2,0:0:0:0:
245,108,300716,1,6,0:0:0:0:
245,108,300802,1,2,0:0:0:0:
245,108,300888,1,10,0:0:0:0:
108,277,301059,1,6,0:0:0:0:
108,277,301145,1,2,0:0:0:0:
108,277,301231,6,0,L|196:273,1,70,2|4,0:0|0:0,0:0:0:0:
439,200,301573,2,0,L|351:196,1,70,10|4,0:0|0:0,0:0:0:0:
155,196,301916,2,0,L|243:192,1,70,2|4,0:0|0:0,0:0:0:0:
282,105,302173,1,0,0:0:0:0:
276,96,302259,2,0,L|188:92,1,70,10|4,0:0|0:0,0:0:0:0:
434,268,302602,6,0,P|443:227|434:189,1,70,2|4,0:0|0:0,0:0:0:0:
207,0,302945,2,0,P|198:41|207:79,1,70,10|4,0:0|0:0,0:0:0:0:
362,229,303288,1,2,0:0:0:0:
486,125,303459,1,4,0:0:0:0:
486,125,303544,1,0,0:0:0:0:
486,125,303630,1,10,0:0:0:0:
394,8,303802,5,2,0:0:0:0:
394,8,303888,1,2,0:0:0:0:
394,8,303973,1,6,0:0:0:0:
466,230,304145,1,0,0:0:0:0:
273,39,304316,1,10,0:0:0:0:
305,270,304488,1,0,0:0:0:0:
153,36,304659,1,6,0:0:0:0:
144,269,304831,1,0,0:0:0:0:
358,160,305002,2,0,L|292:165,1,52.5,10|0,0:0|0:0,0:0:0:0:
292,165,305345,5,6,0:0:0:0:
438,79,305516,1,0,0:0:0:0:
278,287,305688,1,10,0:0:0:0:
201,78,305859,1,0,0:0:0:0:
403,242,306031,1,6,0:0:0:0:
151,225,306202,1,0,0:0:0:0:
333,20,306373,2,0,L|331:56,1,35,10|0,0:0|0:0,0:0:0:0:
278,287,306716,5,6,0:0:0:0:
268,272,306802,1,0,0:0:0:0:
263,255,306888,1,0,0:0:0:0:
261,238,306973,1,0,0:0:0:0:
274,198,307059,5,14,0:0:0:0:
281,172,307145,1,0,0:0:0:0:
282,146,307231,1,0,0:0:0:0:
277,121,307316,1,0,0:0:0:0:
211,61,307402,5,6,0:0:0:0:
185,96,307488,1,0,0:0:0:0:
169,138,307573,1,0,0:0:0:0:
167,180,307659,1,0,0:0:0:0:
256,249,307745,5,14,0:0:0:0:
271,199,307831,1,0,0:0:0:0:
268,147,307916,1,4,0:0:0:0:
247,99,308002,1,0,0:0:0:0:
211,61,308088,1,6,0:0:0:0:
435,79,308259,6,0,L|356:84,1,70
125,177,308773,6,0,L|170:179,1,41.9999987182618
256,192,309201,12,0,315630,0:0:0:0:
