osu file format v14

[General]
AudioFilename: Together Again.mp3
AudioLeadIn: 0
PreviewTime: 59599
Countdown: 0
SampleSet: Soft
StackLeniency: 0.7
Mode: 0
LetterboxInBreaks: 0
WidescreenStoryboard: 1

[Editor]
DistanceSpacing: 1.3
BeatDivisor: 4
GridSize: 32
TimelineZoom: 1

[Metadata]
Title:Together Again
TitleUnicode:Together Again
Artist:Evanescence
ArtistUnicode:Evanescence
Creator:ByBy13
Version:Together
Source:
Tags:choir violin piano single chronicles of narnia collab collaboration ByBy_ChAn ZLOdeuka-
BeatmapID:772708
BeatmapSetID:350495

[Difficulty]
HPDrainRate:5
CircleSize:4
OverallDifficulty:6
ApproachRate:6
SliderMultiplier:3.2
SliderTickRate:1

[Events]
//Background and Video events
0,0,"Hq-and-hdtv-wallpapers-collections-flowers-a-cool-rose-56-1366x768.jpg",0,0
//Break Periods
//Storyboard Layer 0 (Background)
//Storyboard Layer 1 (Fail)
//Storyboard Layer 2 (Pass)
//Storyboard Layer 3 (Foreground)
Sprite,Foreground,Centre,"byby13.png",320,240 S,0,8282,,1.140387 M,0,8282,8859,519,399,519,425 F,0,8282,8859,0,1 M,0,8859,26736,519,425 F,0,8859,26736,1 M,0,26736,27313,519,425,517,453 F,0,26736,27313,1,0
Sprite,Foreground,Centre,"byby13.png",320,240 S,0,63645,,1.140387 M,0,63645,64222,519,399,519,425 F,0,63645,64222,0,1 M,0,64222,82099,519,425 F,0,64222,82099,1 M,0,82099,,519,425 F,0,82099,82676,1 M,0,82099,100554,519,425 F,0,82676,100554,1,0.8873484 M,0,100554,101131,519,425,520,448 F,0,100554,101131,0.8873484,0
Sprite,Foreground,Centre,"byby13.png",320,240 S,0,155917,,1.140387 M,0,155917,156494,519,399,519,425 F,0,155917,156494,0,1 F,0,156494,174371,1 M,0,156494,193403,519,425 F,0,174371,174948,1 F,0,174948,174949,1 F,0,174949,193403,1 M,0,193403,195710,519,425,519,458 F,0,193403,195710,1,0
Sprite,Foreground,Centre,"byby13.png",320,240 S,0,119008,,1.140387 M,0,119008,119585,519,399,519,425 F,0,119008,119585,0,1 M,0,119585,137462,519,425 F,0,119585,137462,1 M,0,137462,,519,425 F,0,137462,138039,1,0 M,0,137462,138040,519,425,518,458 F,0,138039,138040,0
Sprite,Foreground,Centre,"zlodeuka.png",320,240 S,0,100554,,0.8843869 M,0,100554,101131,520,382,520,425 F,0,100554,101131,0,1 M,0,101131,119008,520,425 F,0,101131,119008,1 M,0,119008,119585,520,425,520,454 F,0,119008,119585,1,0
Sprite,Foreground,Centre,"zlodeuka.png",320,240 S,0,137463,,0.8843869 M,0,137463,138040,520,382,520,425 F,0,137463,138040,0,1 M,0,138040,155917,520,425 F,0,138040,155917,1 M,0,155917,156494,520,425,520,454 F,0,155917,156494,1,0
Sprite,Foreground,Centre,"zlodeuka.png",320,240 S,0,26736,,0.8843869 M,0,26736,27313,520,382,520,425 F,0,26736,27313,0,1 M,0,27313,63645,520,425 F,0,27313,63645,1 M,0,63645,64222,520,425,519,458 F,0,63645,64222,1,0
//Storyboard Sound Samples

[TimingPoints]
8850,1153.40253748558,4,2,1,50,1,0
27304,-100,4,2,2,50,0,0
64213,-100,4,2,1,50,0,0
73441,-100,4,2,2,50,0,0
73729,-100,4,2,1,50,0,0
82668,-100,4,2,2,50,0,0
82957,-100,4,2,1,50,0,0
91895,-100,4,2,2,50,0,0
92184,-100,4,2,1,50,0,0
101123,-100,4,2,2,50,0,0
119577,-100,4,2,2,50,0,0
119865,-100,4,2,1,50,0,0
138032,-100,4,2,2,50,0,0
156486,-100,4,2,1,50,0,0
165713,-100,4,2,2,50,0,0
166002,-100,4,2,1,50,0,0
174940,-100,4,2,2,50,0,0
175229,-100,4,2,1,50,0,0
184168,-100,4,2,2,50,0,0
184456,-100,4,2,1,50,0,0
193395,-100,4,2,2,25,0,0
193972,-100,4,2,2,20,0,0
194548,-100,4,2,2,15,0,0
195125,-100,4,2,2,10,0,0
195702,-100,4,2,2,5,0,0

[Colours]
Combo1 : 192,192,192
Combo2 : 217,0,108

[HitObjects]
121,323,8850,6,0,P|147:294|172:237,1,80,4|0,0:0|0:0,0:0:0:0:
192,157,9426,1,0,0:0:0:0:
266,84,9715,1,2,0:0:0:0:
368,146,10003,2,0,B|326:203|339:250|339:250|271:254|298:323|231:323,1,240,8|2,0:0|0:0,0:0:0:0:
138,309,11156,6,0,P|101:276|87:216,1,80,0|0,0:0|0:0,0:0:0:0:
44,154,11733,1,2,0:0:0:0:
44,154,12310,2,0,P|95:71|168:72,1,160,8|2,0:0|0:0,0:0:0:0:
245,107,13175,1,0,0:0:0:0:
182,209,13463,6,0,P|152:237|112:251,1,80,0|0,0:0|0:0,0:0:0:0:
26,330,14040,1,2,0:0:0:0:
128,347,14328,1,0,0:0:0:0:
230,330,14617,1,8,0:0:0:0:
230,330,14905,2,0,P|307:272|286:199,1,160,0|0,0:0|0:0,0:0:0:0:
240,113,15770,6,0,P|197:172|192:201,1,80,0|0,0:0|0:0,0:0:0:0:
91,178,16347,2,0,P|57:122|54:98,1,80,2|0,0:0|0:0,0:0:0:0:
105,17,16923,1,8,0:0:0:0:
105,17,17500,1,2,0:0:0:0:
206,234,18077,6,0,P|284:282|292:295,1,80,0|0,0:0|0:0,0:0:0:0:
353,339,18653,1,0,0:0:0:0:
438,277,18942,1,2,0:0:0:0:
367,179,19230,2,0,B|299:158|290:91|290:91|243:56|164:93,1,240,8|2,0:0|0:0,0:0:0:0:
83,126,20384,6,0,P|99:170|101:213,1,80,0|0,0:0|0:0,0:0:0:0:
76,303,20960,1,0,0:0:0:0:
175,337,21249,1,2,0:0:0:0:
175,337,21537,2,0,L|228:250,1,80,8|0,0:0|0:0,0:0:0:0:
264,179,22114,1,0,0:0:0:0:
331,99,22402,1,2,0:0:0:0:
387,204,22690,6,0,P|411:267|428:286,1,80,0|0,0:0|0:0,0:0:0:0:
321,313,23267,2,0,P|275:241|265:234,1,80,0|2,0:0|0:0,0:0:0:0:
230,153,23844,1,8,0:0:0:0:
230,153,24132,2,0,P|137:149|91:101,1,160,0|2,0:0|0:0,0:0:0:0:
5,24,24997,5,0,0:0:0:0:
15,127,25285,1,0,0:0:0:0:
83,205,25574,2,0,P|137:233|176:233,1,80,0|0,0:0|0:0,0:0:0:0:
258,244,26151,1,8,0:0:0:0:
258,244,26727,1,2,0:0:0:0:
258,244,27304,6,0,P|296:247|340:243,1,80,4|0,0:0|0:0,0:0:0:0:
439,204,27881,1,0,0:0:0:0:
471,105,28169,1,0,0:0:0:0:
374,65,28457,2,0,B|317:53|279:87|279:87|246:87|221:100,1,160,2|0,0:0|0:0,0:0:0:0:
134,154,29322,1,0,0:0:0:0:
233,180,29611,6,0,P|268:167|311:166,1,80
375,247,30187,2,0,P|368:283|348:321,1,80,0|2,0:0|0:0,0:0:0:0:
229,301,30764,1,0,0:0:0:0:
62,93,31341,1,0,0:0:0:0:
164,78,31629,1,0,0:0:0:0:
264,106,31918,5,2,0:0:0:0:
362,139,32206,2,0,P|401:146|448:139,1,80,0|0,0:0|0:0,0:0:0:0:
483,236,32783,2,0,P|448:254|401:262,1,80,2|0,0:0|0:0,0:0:0:0:
304,258,33359,1,0,0:0:0:0:
198,78,33936,1,0,0:0:0:0:
137,162,34224,6,0,P|130:203|126:242,1,80,2|0,0:0|0:0,0:0:0:0:
211,301,34801,2,0,P|217:261|221:221,1,80,0|0,0:0|0:0,0:0:0:0:
216,117,35378,1,2,0:0:0:0:
216,117,35954,1,0,0:0:0:0:
216,117,36531,5,4,0:0:0:0:
317,142,36820,1,0,0:0:0:0:
416,113,37108,1,0,0:0:0:0:
463,20,37396,1,0,0:0:0:0:
510,113,37685,2,0,B|506:162|468:191|468:191|485:227|472:259,1,160,2|0,0:0|0:0,0:0:0:0:
369,240,38550,1,2,0:0:0:0:
369,240,38838,5,0,0:0:0:0:
267,218,39126,1,0,0:0:0:0:
163,231,39415,1,0,0:0:0:0:
74,285,39703,1,2,0:0:0:0:
26,192,39991,2,0,P|19:151|23:110,2,80
119,146,40856,1,0,0:0:0:0:
202,84,41145,6,0,B|237:60|286:67|286:67|319:88|356:78,1,160,2|0,0:0|0:0,0:0:0:0:
455,50,42010,1,2,0:0:0:0:
471,152,42298,2,0,P|477:191|474:233,2,80
377,197,43163,1,0,0:0:0:0:
280,237,43452,2,0,B|237:249|194:217|194:217|157:204|121:219,1,160,2|0,0:0|0:0,0:0:0:0:
256,379,44605,1,2,0:0:0:0:
385,216,45182,1,0,0:0:0:0:
385,216,45758,5,4,0:0:0:0:
281,201,46047,1,0,0:0:0:0:
178,216,46335,1,0,0:0:0:0:
97,281,46623,1,2,0:0:0:0:
44,190,46912,2,0,P|32:150|36:113,1,80,8|0,0:0|0:0,0:0:0:0:
111,41,47488,1,0,0:0:0:0:
109,145,47777,1,2,0:0:0:0:
189,55,48065,6,0,B|223:27|278:34|278:34|303:59|336:64,2,160,0|2|8,0:0|0:0|0:0,0:0:0:0:
252,137,49507,1,0,0:0:0:0:
287,234,49795,1,0,0:0:0:0:
281,338,50084,1,0,0:0:0:0:
156,309,50372,6,0,P|112:252|121:168,1,160,2|0,0:0|0:0,0:0:0:0:
235,111,51237,2,8,P|275:124|306:149,1,80,10|8,0:0|0:0,0:0:0:0:
317,250,51814,1,0,0:0:0:0:
217,221,52102,1,0,0:0:0:0:
168,85,52390,6,0,P|194:54|235:38,1,80,2|0,0:0|0:0,0:0:0:0:
326,78,52967,2,0,P|347:109|352:148,1,80,0|2,0:0|0:0,0:0:0:0:
317,250,53544,1,0,0:0:0:0:
216,277,53832,1,8,0:0:0:0:
113,259,54121,2,0,P|58:210|36:128,1,160
150,92,54986,6,0,B|191:41|268:52|268:52|339:65|371:17,1,240
367,23,56139,2,0,P|381:102|447:140,1,160,8|0,0:0|0:0,0:0:0:0:
486,26,57004,1,2,0:0:0:0:
426,210,57292,6,0,B|398:243|348:240|348:240|303:253|272:231,1,160
317,137,58157,1,0,0:0:0:0:
214,153,58446,2,0,P|173:161|138:175,1,80,8|0,0:0|0:0,0:0:0:0:
80,266,59023,2,0,P|121:274|156:288,1,80
246,340,59599,5,0,0:0:0:0:
256,192,59888,12,8,63059,0:0:0:0:
60,278,64213,6,0,B|121:287|121:287|173:284|200:236,1,160,4|0,0:0|0:0,0:0:0:0:
226,135,65078,1,2,0:0:0:0:
323,98,65366,2,0,L|406:61,1,80,8|0,0:0|0:0,0:0:0:0:
350,176,65943,2,0,L|269:216,1,80,0|2,0:0|0:0,0:0:0:0:
186,289,66520,6,0,P|118:347|57:325,1,160,0|0,0:0|0:0,0:0:0:0:
21,228,67385,1,2,0:0:0:0:
98,158,67673,2,0,B|151:117|212:128|212:128|259:94,1,160,8|0,0:0|0:0,0:0:0:0:
328,46,68538,1,2,0:0:0:0:
407,135,68826,6,0,P|433:221|385:286,1,160
312,334,69691,1,2,0:0:0:0:
222,280,69980,2,0,L|165:212,1,80,8|0,0:0|0:0,0:0:0:0:
101,140,70557,1,2,0:0:0:0:
199,71,70845,6,0,P|289:45|349:74,1,160,0|2,0:0|0:0,0:0:0:0:
431,129,71710,1,0,0:0:0:0:
439,245,71998,2,0,B|399:284|339:281|339:281|324:303|283:319,1,160,0|2,0:0|0:0,0:0:0:0:
201,345,72863,1,0,0:0:0:0:
119,280,73152,1,2,0:0:0:0:
170,171,73440,6,0,P|195:135|239:107,1,80,4|0,0:0|0:0,0:0:0:0:
315,64,74017,1,0,0:0:0:0:
407,111,74305,1,2,0:0:0:0:
365,223,74593,2,0,B|333:305|242:316|242:316|217:344|168:351,1,240,8|2,0:0|0:0,0:0:0:0:
76,313,75747,6,0,P|61:225|70:204,1,80
72,134,76324,1,0,0:0:0:0:
32,37,76612,1,2,0:0:0:0:
133,59,76900,2,0,P|171:55|228:62,1,80,8|0,0:0|0:0,0:0:0:0:
288,130,77477,2,0,P|326:133|378:127,1,80,0|2,0:0|0:0,0:0:0:0:
474,74,78054,6,0,B|488:137|529:156|529:156|505:188|507:223,1,160
438,286,78919,1,2,0:0:0:0:
337,260,79207,2,0,L|276:207,1,80,8|0,0:0|0:0,0:0:0:0:
199,138,79784,1,2,0:0:0:0:
259,34,80072,6,0,P|352:49|397:102,1,160
388,199,80937,1,2,0:0:0:0:
316,274,81226,2,0,B|267:298|214:281|214:281|194:302|148:304,1,160,0|2,0:0|0:0,0:0:0:0:
65,335,82091,1,0,0:0:0:0:
18,243,82379,1,2,0:0:0:0:
69,134,82667,6,0,B|100:94|170:83|170:83|216:61,1,160,4|0,0:0|0:0,0:0:0:0:
309,32,83532,1,2,0:0:0:0:
366,118,83821,2,0,L|402:204,1,80,8|0,0:0|0:0,0:0:0:0:
349,283,84397,2,0,L|308:189,1,80,0|2,0:0|0:0,0:0:0:0:
251,108,84974,6,0,P|161:126|130:202,1,160
107,285,85839,1,2,0:0:0:0:
209,304,86127,2,0,P|284:352|288:357,1,80,8|0,0:0|0:0,0:0:0:0:
378,321,86704,2,0,P|377:282|388:243,1,80,0|2,0:0|0:0,0:0:0:0:
396,122,87281,6,0,P|320:80|239:110,1,160
158,141,88146,1,2,0:0:0:0:
173,243,88434,2,0,L|225:314,1,80,8|0,0:0|0:0,0:0:0:0:
317,346,89011,1,2,0:0:0:0:
405,265,89299,6,0,P|444:200|391:141,1,160,0|2,0:0|0:0,0:0:0:0:
296,115,90164,1,0,0:0:0:0:
211,176,90453,2,0,B|202:225|177:247|177:247|172:283|137:313,1,160
41,356,91318,1,2,0:0:0:0:
41,356,91894,6,0,L|70:183,1,160,4|0,0:0|0:0,0:0:0:0:
109,102,92760,1,2,0:0:0:0:
195,44,93048,2,0,P|294:40|318:178,1,240,8|2,0:0|0:0,0:0:0:0:
303,258,94201,5,0,0:0:0:0:
218,319,94490,1,0,0:0:0:0:
135,255,94778,2,0,P|92:216|46:201,1,80,0|2,0:0|0:0,0:0:0:0:
72,87,95355,2,0,B|153:73|153:73|243:89,1,160,8|0,0:0|0:0,0:0:0:0:
325,126,96220,1,2,0:0:0:0:
346,243,96508,6,0,P|238:303|203:281,1,160,0|0,0:0|0:0,0:0:0:0:
125,246,97373,1,2,0:0:0:0:
60,164,97661,2,0,P|30:122|21:75,1,80,8|0,0:0|0:0,0:0:0:0:
138,127,98238,2,0,P|169:159|188:201,1,80,2|0,0:0|0:0,0:0:0:0:
234,299,98815,6,0,P|332:324|364:279,1,160,0|0,0:0|0:0,0:0:0:0:
377,185,99680,1,2,0:0:0:0:
308,106,99968,2,0,B|258:91|227:100|227:100|199:126|201:185,1,160,8|2,0:0|0:0,0:0:0:0:
150,348,101122,6,4,B|155:258|62:236|62:236|-2:166|48:86,1,320,0|6,0:0|0:0,0:0:0:0:
136,155,102563,2,0,P|210:181|290:162,1,160,0|0,0:0|0:0,0:0:0:0:
391,119,103429,1,0,0:0:0:0:
404,230,103717,2,0,P|414:270|433:303,1,80,0|0,0:0|0:0,0:0:0:0:
342,368,104294,2,0,P|270:332|192:344,1,160,2|0,0:0|0:0,0:0:0:0:
84,369,105159,1,0,0:0:0:0:
103,234,105447,6,0,P|104:195|122:157,1,80,2|0,0:0|0:0,0:0:0:0:
187,77,106024,1,0,0:0:0:0:
288,51,106312,1,0,0:0:0:0:
390,69,106600,2,0,P|388:107|370:145,1,80,2|0,0:0|0:0,0:0:0:0:
307,226,107177,1,0,0:0:0:0:
235,300,107465,1,0,0:0:0:0:
360,352,107754,6,0,P|400:345|435:327,1,80,2|0,0:0|0:0,0:0:0:0:
473,230,108330,1,0,0:0:0:0:
452,127,108619,1,0,0:0:0:0:
381,50,108907,2,0,B|313:31|257:70|257:70|199:58|148:89,1,240,2|0,0:0|0:0,0:0:0:0:
98,177,110061,1,0,0:0:0:0:
70,277,110349,6,0,B|116:361|226:319|226:319|269:255|356:275,1,320,4|2,0:0|0:0,0:0:0:0:
313,371,111791,1,0,0:0:0:0:
257,170,112367,1,0,0:0:0:0:
228,69,112656,6,0,P|158:38|74:54,1,160,0|0,0:0|0:0,0:0:0:0:
29,170,113521,2,0,P|99:201|183:185,1,160,2|0,0:0|0:0,0:0:0:0:
280,165,114386,1,0,0:0:0:0:
374,207,114674,1,2,0:0:0:0:
463,261,114963,6,0,B|392:340|303:284|303:284|235:236|166:271,1,320
170,269,116981,1,2,0:0:0:0:
256,192,117269,12,0,118999,0:0:0:0:
70,271,119576,6,0,P|158:263|167:181,1,160,4|0,0:0|0:0,0:0:0:0:
160,101,120441,1,2,0:0:0:0:
257,63,120730,2,0,L|353:31,1,80,8|0,0:0|0:0,0:0:0:0:
283,148,121306,2,0,L|203:178,1,80,0|2,0:0|0:0,0:0:0:0:
118,256,121883,6,0,B|169:289|182:334|182:334|209:317|247:319,1,160
339,305,122748,1,2,0:0:0:0:
393,216,123036,2,0,P|398:162|381:123,1,80,8|0,0:0|0:0,0:0:0:0:
296,91,123613,1,2,0:0:0:0:
210,150,123901,1,0,0:0:0:0:
136,54,124190,6,0,P|52:51|5:112,1,160,0|0,0:0|0:0,0:0:0:0:
18,209,125055,1,2,0:0:0:0:
89,284,125343,2,0,B|126:304|126:304|174:305,1,80,8|0,0:0|0:0,0:0:0:0:
265,281,125920,1,0,0:0:0:0:
309,187,126208,1,2,0:0:0:0:
230,95,126497,6,0,L|143:72,1,80,0|0,0:0|0:0,0:0:0:0:
59,121,127073,2,0,L|35:213,1,80,0|2,0:0|0:0,0:0:0:0:
39,318,127650,1,8,0:0:0:0:
138,346,127938,1,0,0:0:0:0:
215,276,128227,1,2,0:0:0:0:
219,172,128515,1,0,0:0:0:0:
284,71,128803,6,0,B|327:63|356:30|356:30|390:61|438:59,1,160,0|0,0:0|0:0,0:0:0:0:
503,126,129668,1,2,0:0:0:0:
480,227,129957,2,0,P|449:287|423:307,1,80,8|0,0:0|0:0,0:0:0:0:
410,178,130533,2,0,P|379:118|376:87,1,80,0|2,0:0|0:0,0:0:0:0:
293,20,131110,6,0,L|122:62,1,160
38,88,131975,1,2,0:0:0:0:
56,190,132264,2,0,P|87:250|113:270,1,80,8|0,0:0|0:0,0:0:0:0:
124,141,132840,2,0,P|155:81|158:50,1,80,0|2,0:0|0:0,0:0:0:0:
267,21,133417,6,0,P|361:44|395:101,1,160
436,187,134282,1,2,0:0:0:0:
368,265,134570,2,0,P|335:290|283:305,1,80,8|0,0:0|0:0,0:0:0:0:
195,291,135147,1,0,0:0:0:0:
128,211,135435,1,2,0:0:0:0:
22,153,135724,6,0,B|35:90|74:63|74:63|103:81|148:76,1,160,0|0,0:0|0:0,0:0:0:0:
228,86,136589,1,2,0:0:0:0:
263,183,136877,2,0,P|279:223|282:278,1,80,8|0,0:0|0:0,0:0:0:0:
296,362,137454,1,0,0:0:0:0:
296,362,137742,1,2,0:0:0:0:
395,267,138031,6,0,B|430:233|422:171|422:171|400:150|398:121,1,160,4|0,0:0|0:0,0:0:0:0:
505,97,138896,1,2,0:0:0:0:
398,121,139184,2,0,B|361:150|303:133|303:133|275:145|244:141,1,160,8|0,0:0|0:0,0:0:0:0:
258,30,140049,1,2,0:0:0:0:
244,141,140337,5,0,0:0:0:0:
226,243,140626,1,0,0:0:0:0:
162,325,140914,2,0,L|81:302,1,80
88,199,141491,2,0,P|132:140|128:57,1,160,8|0,0:0|0:0,0:0:0:0:
36,107,142356,1,2,0:0:0:0:
199,178,142644,6,0,B|252:183|289:160|289:160|326:148|356:160,1,160,0|0,0:0|0:0,0:0:0:0:
422,237,143509,1,2,0:0:0:0:
383,333,143798,2,0,P|352:311|329:277,1,80,8|0,0:0|0:0,0:0:0:0:
227,299,144374,2,0,P|223:336|205:373,1,80,0|0,0:0|0:0,0:0:0:0:
123,309,144951,5,0,0:0:0:0:
60,226,145239,2,0,L|51:146,1,80,2|0,0:0|0:0,0:0:0:0:
162,83,145816,2,0,L|171:163,1,80,0|8,0:0|0:0,0:0:0:0:
293,199,146393,1,2,0:0:0:0:
393,119,146681,2,0,L|384:39,1,80
453,170,147258,6,0,B|461:218|440:251|440:251|458:293|445:326,1,160
344,299,148123,1,2,0:0:0:0:
243,273,148411,2,0,P|204:266|161:266,2,80,8|0|0,0:0|0:0|0:0,0:0:0:0:
299,360,149276,1,2,0:0:0:0:
287,208,149565,6,0,B|290:155|250:126|250:126|221:104|221:69,1,160,0|0,0:0|0:0,0:0:0:0:
323,49,150430,1,2,0:0:0:0:
395,123,150718,1,8,0:0:0:0:
458,205,151006,1,0,0:0:0:0:
423,303,151295,1,0,0:0:0:0:
358,221,151583,1,0,0:0:0:0:
320,317,151871,6,0,P|278:331|238:330,1,80
140,310,152448,1,0,0:0:0:0:
81,224,152736,2,0,P|74:180|82:140,1,80,2|8,0:0|0:0,0:0:0:0:
157,80,153313,1,0,0:0:0:0:
250,116,153602,1,0,0:0:0:0:
172,184,153890,1,2,0:0:0:0:
157,80,154178,6,0,B|316:55,1,160,0|2,0:0|0:0,0:0:0:0:
419,115,155043,1,0,0:0:0:0:
478,219,155332,2,0,B|485:281|425:312|425:312|421:341|401:358,1,160,8|2,0:0|0:0,0:0:0:0:
182,267,156485,6,0,P|104:212|125:142,1,160,4|0,0:0|0:0,0:0:0:0:
161,66,157350,1,2,0:0:0:0:
260,95,157638,2,0,P|334:122|411:82,1,160,8|0,0:0|0:0,0:0:0:0:
478,17,158503,1,2,0:0:0:0:
480,137,158792,6,0,P|442:222|432:229,1,80,0|0,0:0|0:0,0:0:0:0:
387,290,159369,1,2,0:0:0:0:
387,290,159945,2,0,B|296:267|296:267|218:283,1,160,8|0,0:0|0:0,0:0:0:0:
130,308,160810,1,2,0:0:0:0:
75,200,161099,6,0,B|62:159|76:118|76:118|140:70,1,160,0|0,0:0|0:0,0:0:0:0:
226,19,161964,1,2,0:0:0:0:
212,122,162252,2,0,P|225:173|254:202,1,80,8|0,0:0|0:0,0:0:0:0:
292,101,162829,2,0,P|305:50|334:21,1,80,0|2,0:0|0:0,0:0:0:0:
441,19,163405,5,0,0:0:0:0:
475,117,163694,1,0,0:0:0:0:
430,210,163982,1,2,0:0:0:0:
326,206,164270,1,0,0:0:0:0:
228,243,164559,2,0,P|258:288|296:306,1,80,8|0,0:0|0:0,0:0:0:0:
202,370,165136,2,0,P|159:326|125:315,1,80,2|0,0:0|0:0,0:0:0:0:
40,257,165712,5,4,0:0:0:0:
93,167,166001,1,0,0:0:0:0:
194,187,166289,2,0,B|234:188|234:188|292:170,1,80,0|2,0:0|0:0,0:0:0:0:
331,90,166866,2,0,P|408:72|472:145,1,160,8|0,0:0|0:0,0:0:0:0:
503,217,167731,1,2,0:0:0:0:
414,297,168019,6,0,B|321:336|321:336|262:317,1,160,0|0,0:0|0:0,0:0:0:0:
170,274,168884,1,2,0:0:0:0:
125,180,169172,2,0,P|99:94|99:80,1,80,8|0,0:0|0:0,0:0:0:0:
207,158,169749,2,0,P|234:224|238:240,1,80,0|2,0:0|0:0,0:0:0:0:
285,341,170326,6,0,B|321:317|365:325|365:325|384:289|439:273,1,160,0|0,0:0|0:0,0:0:0:0:
509,219,171191,1,2,0:0:0:0:
451,132,171479,2,0,B|413:105|413:105|371:95,1,80,8|0,0:0|0:0,0:0:0:0:
276,105,172056,1,0,0:0:0:0:
194,169,172344,1,2,0:0:0:0:
254,273,172633,6,0,P|341:301|381:158,1,240,0|2,0:0|0:0,0:0:0:0:
349,97,173786,2,0,B|269:87|269:87|178:98,1,160,8|2,0:0|0:0,0:0:0:0:
199,304,174939,6,0,L|292:331,1,80,4|0,0:0|0:0,0:0:0:0:
362,268,175516,2,0,L|265:237,1,80,0|2,0:0|0:0,0:0:0:0:
192,197,176093,2,0,P|255:142|391:206,1,240,0|2,0:0|0:0,0:0:0:0:
390,300,177246,6,0,B|364:312|334:304|334:304|291:272|288:216,1,160
266,114,178111,1,2,0:0:0:0:
369,104,178400,2,0,B|361:63|361:63|372:3,1,80
471,28,178976,2,0,B|480:70|480:70|468:118,1,80,0|2,0:0|0:0,0:0:0:0:
401,204,179553,6,0,P|308:174|283:99,1,160
298,19,180418,1,2,0:0:0:0:
213,80,180706,2,0,P|157:130|134:136,1,80
65,76,181283,1,2,0:0:0:0:
39,193,181572,6,0,B|80:235|78:281|78:281|117:285|143:305,1,160
228,345,182437,1,2,0:0:0:0:
331,346,182725,2,0,P|410:304|397:233,1,160
368,146,183590,1,2,0:0:0:0:
276,97,183878,1,0,0:0:0:0:
158,70,184167,6,0,B|112:139|112:139|111:220,1,160,4|0,0:0|0:0,0:0:0:0:
109,320,185032,1,2,0:0:0:0:
209,346,185320,2,0,P|300:327|321:189,1,240,0|2,0:0|0:0,0:0:0:0:
260,116,186473,6,0,B|210:121|176:81|176:81|107:134|31:115,1,240,0|2,0:0|0:0,0:0:0:0:
11,217,187627,2,0,P|52:309|183:277,1,240,0|2,0:0|0:0,0:0:0:0:
249,198,188780,6,0,B|297:163|293:89|293:89|363:105|413:69,1,240,0|2,0:0|0:0,0:0:0:0:
502,35,189934,1,0,0:0:0:0:
492,138,190222,1,0,0:0:0:0:
474,240,190510,1,2,0:0:0:0:
443,356,190799,6,0,P|358:326|348:263,1,160
359,161,191664,1,2,0:0:0:0:
277,97,191952,2,0,P|171:84|120:114,1,160,0|2,0:0|0:0,0:0:0:0:
52,180,192817,1,0,0:0:0:0:
105,269,193106,1,0,0:0:0:0:
256,192,193394,12,0,195701,0:0:0:0:
