osu file format v14

[General]
AudioFilename: audio.mp3
AudioLeadIn: 0
PreviewTime: -1
Countdown: 0
SampleSet: Soft
StackLeniency: 0.3
Mode: 0
LetterboxInBreaks: 0
WidescreenStoryboard: 0

[Editor]
Bookmarks: 19323,22523,51323,56123,57723,75323,84923,88123,116923,121723,123323,144123,145723,156923,158523,160123,161323,164123,166323,168123,177723,187323,196923,201723,203323
DistanceSpacing: 0.4
BeatDivisor: 4
GridSize: 32
TimelineZoom: 2.799999

[Metadata]
Title:The Change
TitleUnicode:The Change
Artist:Evanescence
ArtistUnicode:Evanescence
Creator:Net0
Version:Extra
Source:
Tags:rock gothic dark
BeatmapID:1245944
BeatmapSetID:588534

[Difficulty]
HPDrainRate:7
CircleSize:4
OverallDifficulty:8
ApproachRate:9
SliderMultiplier:1.8
SliderTickRate:1

[Events]
//Background and Video events
0,0,"BG fate.jpg",0,0
//Break Periods
2,69123,73923
//Storyboard Layer 0 (Background)
//Storyboard Layer 1 (Fail)
//Storyboard Layer 2 (Pass)
//Storyboard Layer 3 (Foreground)
//Storyboard Layer 4 (Overlay)
//Storyboard Sound Samples

[TimingPoints]
3323,400,4,2,0,100,1,0
9723,-100,4,2,0,100,0,0
10023,-100,4,2,0,5,0,0
10123,-133.333333333333,4,2,0,100,0,0
14523,-100,4,2,0,100,0,0
14823,-100,4,2,0,5,0,0
14923,-133.333333333333,4,2,0,100,0,0
17623,-133.333333333333,4,2,0,5,0,0
17723,-133.333333333333,4,2,0,100,0,0
19223,-133.333333333333,4,2,0,5,0,0
19323,-200,4,2,2,100,0,0
20923,-133.333333333333,4,2,3,100,0,0
22523,-100,4,2,0,100,0,0
22823,-100,4,2,0,5,0,0
22923,-133.333333333333,4,2,0,100,0,0
27323,-100,4,2,0,100,0,0
27623,-100,4,2,0,5,0,0
27723,-133.333333333333,4,2,0,100,0,0
30423,-133.333333333333,4,2,0,5,0,0
30523,-133.333333333333,4,2,0,100,0,0
32023,-133.333333333333,4,2,0,5,0,0
32123,-200,4,2,2,100,0,0
34523,-100,4,2,3,100,0,0
35323,-76.9230769230769,4,1,0,100,0,0
43723,-71.4285714285714,4,3,0,100,0,0
43923,-66.6666666666667,4,3,0,100,0,0
44123,-62.5,4,3,0,100,0,0
44323,-58.8235294117647,4,3,0,100,0,0
44523,-55.5555555555556,4,3,0,100,0,0
44723,-52.6315789473684,4,3,0,100,0,0
44923,-50,4,1,2,100,0,1
49323,-50,4,1,0,100,0,1
50523,-50,4,1,3,100,0,1
51323,-50,4,1,2,100,0,1
56123,-50,4,1,3,100,0,1
57723,-50,4,1,0,100,0,1
65523,-50,4,1,3,100,0,1
65823,-50,4,2,0,5,0,1
65923,-50,4,1,3,100,0,1
66223,-50,4,2,0,5,0,1
66323,-50,4,2,0,100,0,1
68923,-100,4,2,0,100,0,0
74523,-200,4,2,0,100,0,0
75323,-80,4,2,0,100,0,0
75623,-80,4,2,0,5,0,0
75723,-100,4,2,0,100,0,0
80123,-80,4,2,0,100,0,0
80423,-80,4,2,0,5,0,0
80523,-100,4,2,0,100,0,0
83223,-100,4,2,0,5,0,0
83323,-100,4,2,0,100,0,0
84023,-100,4,2,0,5,0,0
84123,-100,4,2,0,100,0,0
84823,-100,4,2,0,5,0,0
84923,-133.333333333333,4,2,2,100,0,0
86523,-100,4,2,3,100,0,0
88123,-80,4,2,0,100,0,0
88423,-80,4,2,0,5,0,0
88523,-100,4,2,0,100,0,0
92923,-80,4,2,0,100,0,0
93223,-80,4,2,0,5,0,0
93323,-100,4,2,0,100,0,0
96023,-100,4,2,0,5,0,0
96123,-100,4,2,0,100,0,0
96823,-100,4,2,0,5,0,0
96923,-100,4,2,0,100,0,0
97623,-100,4,2,0,5,0,0
97723,-133.333333333333,4,2,2,100,0,0
99323,-100,4,2,2,100,0,0
100123,-83.3333333333333,4,2,3,100,0,0
100923,-68.9655172413793,4,1,0,100,0,0
109323,-68.9655172413793,4,3,0,100,0,0
109623,-68.9655172413793,4,3,0,100,0,0
109723,-62.5,4,3,0,100,0,0
109923,-58.8235294117647,4,3,0,100,0,0
110123,-55.5555555555556,4,3,0,100,0,0
110323,-52.6315789473684,4,3,0,100,0,0
110523,-50,4,1,2,100,0,1
114923,-50,4,1,0,100,0,1
116123,-50,4,1,3,100,0,1
116923,-50,4,1,2,100,0,1
121723,-50,4,1,3,100,0,1
123323,-50,4,1,0,100,0,1
132223,-50,4,2,0,5,0,1
132323,-50,4,1,0,100,0,1
132623,-50,4,2,0,5,0,1
132723,-50,4,1,0,100,0,1
132923,-100,4,2,2,100,0,0
139223,-100,4,2,0,5,0,0
139323,-74.0740740740741,4,2,3,100,0,0
139623,-74.0740740740741,4,2,0,5,0,0
139723,-74.0740740740741,4,2,3,100,0,0
140123,-100,4,2,2,100,0,0
140523,-74.0740740740741,4,2,3,100,0,0
140823,-74.0740740740741,4,2,0,5,0,0
140923,-74.0740740740741,4,2,3,100,0,0
141323,-100,4,2,2,100,0,0
142123,-74.0740740740741,4,2,3,100,0,0
143323,-100,4,2,3,100,0,0
143723,-74.0740740740741,4,2,3,100,0,0
144323,-74.0740740740741,4,3,0,100,0,0
145723,-100,4,2,2,100,0,0
148023,-100,4,2,0,5,0,0
148123,-100,4,2,0,100,0,0
148223,-100,4,2,0,5,0,0
148323,-100,4,2,0,100,0,0
148423,-100,4,2,0,5,0,0
148523,-100,4,2,0,100,0,0
148823,-100,4,2,0,5,0,0
148923,-100,4,2,0,100,0,0
152023,-100,4,2,0,5,0,0
152123,-76.9230769230769,4,2,3,100,0,0
156923,-200,4,2,0,100,0,0
157623,-200,4,2,0,5,0,0
157723,-200,4,2,0,100,0,0
158423,-200,4,2,0,5,0,0
158523,-100,4,1,0,100,0,0
160123,-66.6666666666667,4,1,2,100,0,0
161723,-50,4,1,3,100,0,0
163923,-50,4,3,3,100,0,0
164923,-100,4,1,2,100,0,0
168123,-66.6666666666667,4,2,0,100,0,0
168123,-66.6666666666667,4,1,0,100,0,0
190523,-45.4545454545455,4,1,3,100,0,1
203323,-45.4545454545455,4,1,2,100,0,1
215723,-100,4,2,0,100,0,0

[HitObjects]
257,35,9723,6,0,B|233:98|282:98|257:175,1,135
249,189,10123,1,0,0:0:0:0:
177,289,10323,2,0,L|224:336,1,67.5000025749208
389,336,10723,2,0,L|342:289,1,67.5000025749208
177,289,11123,2,0,B|129:336|129:336|75:288,1,135.000005149842
5,218,11723,1,0,0:0:0:0:
5,338,11923,1,0,0:0:0:0:
126,219,12123,5,0,0:0:0:0:
175,138,12323,1,0,0:0:0:0:
268,150,12523,1,0,0:0:0:0:
317,69,12723,1,0,0:0:0:0:
434,216,12923,6,0,L|469:274,1,67.5000025749208
413,381,13323,1,0,0:0:0:0:
364,300,13523,1,0,0:0:0:0:
271,312,13723,1,0,0:0:0:0:
222,231,13923,1,0,0:0:0:0:
177,314,14123,1,0,0:0:0:0:
316,229,14323,1,0,0:0:0:0:
94,44,14523,6,0,B|124:76|124:76|140:116|140:116|173:152,1,135
189,165,14923,1,0,0:0:0:0:
139,244,15123,2,0,L|90:189,1,67.5000025749208
224,82,15523,2,0,L|268:132,1,67.5000025749208
366,256,15923,2,0,B|337:252|309:224|309:224|279:239|241:230,1,135.000005149842
139,114,16523,1,0,0:0:0:0:
94,193,16723,1,0,0:0:0:0:
268,132,16923,5,0,0:0:0:0:
342,73,17123,1,0,0:0:0:0:
386,157,17323,2,0,L|363:267,1,101.250003862381
363,269,17723,1,0,0:0:0:0:
174,299,17923,1,0,0:0:0:0:
238,185,18123,2,0,L|207:36,1,135.000005149842
100,11,18723,1,0,0:0:0:0:
16,100,18923,2,0,L|38:207,1,101.250003862381
47,238,19323,6,0,L|83:260,1,22.5
151,215,19523,2,0,L|187:193,2,22.5
0,307,19923,1,0,0:0:0:0:
148,369,20123,1,0,0:0:0:0:
85,261,20323,2,0,L|49:239,2,22.5
236,353,20723,1,0,0:0:0:0:
151,215,20923,1,0,0:0:0:0:
255,247,21123,6,0,L|291:269,1,33.7500012874604
359,224,21323,2,0,L|395:202,1,33.7500012874604
432,120,21523,1,0,0:0:0:0:
335,116,21723,2,0,L|306:133,2,33.7500012874604
432,120,22123,1,0,0:0:0:0:
463,247,22323,1,0,0:0:0:0:
255,349,22523,6,0,B|279:286|230:286|255:209,1,135
263,195,22923,1,0,0:0:0:0:
335,95,23123,2,0,L|288:48,1,67.5000025749208
123,48,23523,2,0,L|170:95,1,67.5000025749208
335,95,23923,2,0,B|383:48|383:48|437:96,1,135.000005149842
507,166,24523,1,0,0:0:0:0:
507,46,24723,1,0,0:0:0:0:
386,165,24923,5,0,0:0:0:0:
337,246,25123,1,0,0:0:0:0:
244,234,25323,1,0,0:0:0:0:
195,315,25523,1,0,0:0:0:0:
78,168,25723,6,0,L|43:110,1,67.5000025749208
99,3,26123,1,0,0:0:0:0:
148,84,26323,1,0,0:0:0:0:
241,72,26523,1,0,0:0:0:0:
290,153,26723,1,0,0:0:0:0:
335,70,26923,1,0,0:0:0:0:
196,155,27123,1,0,0:0:0:0:
418,340,27323,6,0,B|388:308|388:308|372:268|372:268|339:232,1,135
323,219,27723,1,0,0:0:0:0:
373,140,27923,2,0,L|422:195,1,67.5000025749208
288,302,28323,2,0,L|244:252,1,67.5000025749208
146,128,28723,2,0,B|175:132|203:160|203:160|233:145|271:154,1,135.000005149842
373,270,29323,1,0,0:0:0:0:
418,191,29523,1,0,0:0:0:0:
244,252,29723,5,0,0:0:0:0:
170,311,29923,1,0,0:0:0:0:
126,227,30123,2,0,L|149:117,1,101.250003862381
149,115,30523,1,0,0:0:0:0:
315,77,30723,1,0,0:0:0:0:
274,199,30923,2,0,L|305:348,1,135.000005149842
412,373,31523,1,0,0:0:0:0:
496,284,31723,2,0,L|474:177,1,101.250003862381
465,146,32123,6,0,L|429:124,1,22.5
361,169,32323,2,0,L|325:191,2,22.5
512,77,32723,1,0,0:0:0:0:
364,15,32923,1,0,0:0:0:0:
427,123,33123,2,0,L|463:145,2,22.5
276,31,33523,1,0,0:0:0:0:
361,169,33723,1,0,0:0:0:0:
278,125,33923,1,0,0:0:0:0:
260,299,34123,1,0,0:0:0:0:
167,258,34323,1,0,0:0:0:0:
344,313,34523,6,0,P|334:343|313:367,1,45
204,365,34723,2,0,P|189:349|178:329,1,45
228,217,34923,2,0,P|259:211|290:217,1,45
388,231,35123,2,0,P|366:237|344:237,1,45
101,230,35323,6,0,B|116:201|143:192|143:192|156:132,1,116.999994644165
167,37,35723,1,0,0:0:0:0:
33,221,35923,1,0,0:0:0:0:
249,151,36123,1,0,0:0:0:0:
33,81,36323,1,0,0:0:0:0:
167,265,36523,1,0,0:0:0:0:
167,37,36723,2,0,L|166:123,1,58.4999973220826
167,265,36923,6,0,B|182:236|209:227|209:227|222:167,1,116.999994644165
233,72,37323,1,0,0:0:0:0:
99,256,37523,1,0,0:0:0:0:
315,186,37723,1,0,0:0:0:0:
99,116,37923,1,0,0:0:0:0:
233,300,38123,1,0,0:0:0:0:
233,72,38323,2,0,L|282:115,1,58.4999973220826
411,230,38523,6,0,B|395:201|368:192|368:192|356:132,1,116.999994644165
345,37,38923,1,0,0:0:0:0:
479,221,39123,1,0,0:0:0:0:
263,151,39323,1,0,0:0:0:0:
479,81,39523,1,0,0:0:0:0:
345,265,39723,1,0,0:0:0:0:
345,37,39923,2,0,L|345:104,1,58.4999973220826
345,265,40123,6,0,B|329:236|302:227|302:227|290:167,1,116.999994644165
279,72,40523,1,0,0:0:0:0:
413,256,40723,1,0,0:0:0:0:
197,186,40923,1,0,0:0:0:0:
413,116,41123,1,0,0:0:0:0:
279,300,41323,1,0,0:0:0:0:
279,72,41523,2,0,L|224:103,1,58.4999973220826
82,186,41723,6,0,P|56:213|108:212,2,116.999994644165
211,72,42323,1,0,0:0:0:0:
293,186,42523,1,0,0:0:0:0:
77,116,42723,1,0,0:0:0:0:
211,300,42923,1,0,0:0:0:0:
211,72,43123,2,0,P|214:34|247:75,2,116.999994644165
308,236,43723,5,0,0:0:0:0:
308,236,43823,1,0,0:0:0:0:
308,236,43923,2,0,L|361:194,1,67.5000025749208
211,72,44123,2,0,L|164:136,1,72
329,221,44323,2,0,L|373:159,1,76.5000014591217
194,90,44523,2,0,L|159:179,1,80.9999975280763
345,204,44723,2,0,L|380:115,1,85.4999977169037
63,18,44923,6,0,B|-33:196|107:367,1,360
337,229,45523,1,0,0:0:0:0:
108,82,45723,2,0,B|70:173|118:262,1,180
382,293,46123,1,0,0:0:0:0:
140,11,46323,6,0,B|22:197|191:355,1,360
427,357,46923,1,0,0:0:0:0:
444,146,47123,1,0,0:0:0:0:
179,75,47323,6,0,B|159:295|381:359,1,360
449,74,47923,1,0,0:0:0:0:
106,78,48123,6,0,B|96:296|270:389,1,360
508,114,48723,1,0,0:0:0:0:
212,79,48923,2,0,B|159:168|228:262,1,180
428,358,49323,1,0,0:0:0:0:
412,182,49523,1,0,0:0:0:0:
326,159,49723,1,0,0:0:0:0:
205,347,49923,2,0,P|111:340|26:286,1,180
159,175,50323,1,0,0:0:0:0:
326,159,50523,5,0,0:0:0:0:
419,361,50723,1,0,0:0:0:0:
479,295,50923,1,0,0:0:0:0:
205,347,51123,1,0,0:0:0:0:
290,92,51323,6,0,B|480:160|490:380,1,360
245,285,51923,1,0,0:0:0:0:
330,30,52123,2,0,B|417:63|478:134,1,180
172,282,52523,1,0,0:0:0:0:
257,27,52723,6,0,P|394:77|511:254,1,360
278,350,53323,1,0,0:0:0:0:
75,200,53523,1,0,0:0:0:0:
257,27,53723,2,0,P|350:138|363:350,1,360
42,135,54323,1,0,0:0:0:0:
384,0,54523,6,0,B|462:184|361:355,1,360
108,265,55123,1,0,0:0:0:0:
307,82,55323,2,0,B|362:167|297:265,1,180
277,359,55723,2,0,L|388:342,1,90
428,104,55923,2,0,L|411:-7,1,90
114,138,56123,6,0,P|62:205|48:302,1,180
172,238,56523,2,0,P|260:234|339:275,1,180
470,161,56923,2,0,P|390:200|338:273,1,180
351,35,57323,2,0,P|427:82|469:160,1,180
174,339,57723,6,0,P|98:291|56:213,1,180
149,51,58123,1,0,0:0:0:0:
76,59,58323,1,0,0:0:0:0:
336,180,58523,2,0,P|387:253|402:342,1,180
120,120,58923,1,0,0:0:0:0:
267,191,59123,6,0,P|359:244|281:135,1,360
63,271,59723,2,0,P|30:181|76:76,1,180
336,180,60123,1,0,0:0:0:0:
226,292,60323,2,0,P|139:308|60:269,1,180
162,150,60723,1,0,0:0:0:0:
453,103,60923,6,0,P|475:188|442:270,1,180
270,286,61323,1,0,0:0:0:0:
203,37,61523,2,0,P|123:38|47:118,2,180
378,82,62123,1,0,0:0:0:0:
250,212,62323,2,0,B|171:266|82:267,1,180
303,9,62723,1,0,0:0:0:0:
303,9,62823,1,0,0:0:0:0:
303,9,62923,6,0,P|335:97|356:198,1,180
175,138,63323,1,0,0:0:0:0:
270,294,63523,1,0,0:0:0:0:
85,192,63723,1,0,0:0:0:0:
180,348,63923,1,0,0:0:0:0:
267,189,64123,6,0,P|268:92|205:37,1,180
87,297,64523,1,0,0:0:0:0:
13,94,64723,2,0,P|94:115|147:195,1,180
0,384,65123,1,0,0:0:0:0:
85,224,65323,1,0,0:0:0:0:
348,358,65523,2,0,P|446:206|432:120,1,270
256,73,65923,2,0,L|256:344,1,270
256,192,66323,12,0,68123,0:0:0:0:
202,98,68323,5,0,0:0:0:0:
288,247,68523,1,0,0:0:0:0:
126,153,68723,1,0,0:0:0:0:
320,264,68923,5,2,0:0:0:0:
256,127,74523,6,0,L|256:271,1,135
363,351,75323,6,0,B|362:291|362:291|381:240|381:240|380:185,1,168.75
378,154,75723,1,0,0:0:0:0:
323,69,75923,2,0,B|279:98|279:98|250:133,1,90
201,35,76323,2,0,B|177:82|177:82|169:126,1,90
76,80,76723,2,0,B|55:126|82:169|82:169|41:189|30:238,1,180
105,357,77323,1,0,0:0:0:0:
6,332,77523,1,0,0:0:0:0:
130,260,77723,5,0,0:0:0:0:
204,194,77923,1,0,0:0:0:0:
302,191,78123,1,0,0:0:0:0:
376,125,78323,1,0,0:0:0:0:
231,11,78523,2,0,L|256:74,1,45
187,152,78723,2,0,L|204:194,2,45
82,56,79123,1,0,0:0:0:0:
80,248,79323,1,0,0:0:0:0:
148,319,79523,1,0,0:0:0:0:
244,296,79723,1,0,0:0:0:0:
312,367,79923,1,0,0:0:0:0:
273,202,80123,6,0,B|303:115|234:115|277:36,1,168.75
288,10,80523,1,0,0:0:0:0:
439,83,80723,2,0,L|349:83,1,90
105,161,81123,2,0,L|195:161,1,90
345,152,81523,2,0,P|268:115|195:160,1,180
149,264,82123,5,0,0:0:0:0:
71,187,82323,1,0,0:0:0:0:
273,202,82523,1,0,0:0:0:0:
264,340,82723,1,0,0:0:0:0:
194,161,82923,2,0,P|267:115|315:125,1,135
336,142,83323,1,0,0:0:0:0:
411,211,83523,1,0,0:0:0:0:
356,71,83723,2,0,P|280:47|223:55,1,135
113,75,84123,2,0,L|203:75,1,90
273,202,84523,2,0,P|275:268|273:338,1,135
257,354,84923,6,0,L|221:376,1,33.7500012874604
102,371,85123,2,0,L|66:349,2,33.7500012874604
277,269,85523,1,0,0:0:0:0:
167,297,85723,1,0,0:0:0:0:
57,269,85923,2,0,L|21:247,2,33.7500012874604
233,326,86323,1,0,0:0:0:0:
100,329,86523,1,0,0:0:0:0:
167,191,86723,6,0,L|167:237,1,45
33,149,86923,2,0,L|75:126,1,45
167,88,87123,1,0,0:0:0:0:
262,127,87323,2,0,L|301:148,2,45
167,88,87723,1,0,0:0:0:0:
276,213,87923,1,0,0:0:0:0:
436,33,88123,6,0,B|435:93|435:93|454:144|454:144|453:199,1,168.75
451,230,88523,1,0,0:0:0:0:
396,315,88723,2,0,B|352:286|352:286|323:251,1,90
274,349,89123,2,0,B|250:302|250:302|242:258,1,90
149,304,89523,2,0,B|128:258|155:215|155:215|114:195|103:146,1,180
178,27,90123,1,0,0:0:0:0:
79,52,90323,1,0,0:0:0:0:
203,124,90523,5,0,0:0:0:0:
277,190,90723,1,0,0:0:0:0:
375,193,90923,1,0,0:0:0:0:
449,259,91123,1,0,0:0:0:0:
304,373,91323,2,0,L|329:310,1,45
260,232,91523,2,0,L|277:190,2,45
155,328,91923,1,0,0:0:0:0:
153,136,92123,1,0,0:0:0:0:
221,65,92323,1,0,0:0:0:0:
317,88,92523,1,0,0:0:0:0:
385,17,92723,1,0,0:0:0:0:
346,182,92923,6,0,B|376:269|307:269|350:348,1,168.75
361,374,93323,1,0,0:0:0:0:
512,301,93523,2,0,L|422:301,1,90
178,223,93923,2,0,L|268:223,1,90
418,232,94323,2,0,P|341:269|268:224,1,180
222,120,94923,5,0,0:0:0:0:
144,197,95123,1,0,0:0:0:0:
346,182,95323,1,0,0:0:0:0:
337,44,95523,1,0,0:0:0:0:
268,223,95723,2,0,P|340:269|388:259,1,135
409,242,96123,1,0,0:0:0:0:
484,173,96323,1,0,0:0:0:0:
429,313,96523,2,0,P|353:337|296:329,1,135
186,309,96923,2,0,L|276:309,1,90
346,182,97323,2,0,P|348:116|346:46,1,135
330,30,97723,6,0,L|294:8,1,33.7500012874604
175,13,97923,2,0,L|139:35,2,33.7500012874604
350,115,98323,1,0,0:0:0:0:
240,87,98523,1,0,0:0:0:0:
130,115,98723,2,0,L|94:137,2,33.7500012874604
306,58,99123,1,0,0:0:0:0:
173,55,99323,1,0,0:0:0:0:
240,193,99523,6,0,L|240:147,1,45
106,235,99723,2,0,L|148:257,1,45
240,296,99923,1,0,0:0:0:0:
333,89,100123,6,0,L|286:63,1,53.9999983520508
174,126,100323,2,0,L|172:179,1,53.9999983520508
286,245,100523,2,0,L|333:219,1,53.9999983520508
62,61,100723,2,0,L|15:88,1,53.9999983520508
167,310,100923,6,0,L|172:160,1,130.500003982544
171,58,101323,1,0,0:0:0:0:
49,224,101523,2,0,P|104:251|199:229,1,130.500003982544
294,153,101923,1,0,0:0:0:0:
133,41,102123,1,0,0:0:0:0:
92,319,102323,1,0,0:0:0:0:
92,319,102423,1,0,0:0:0:0:
92,319,102523,6,0,L|242:314,1,130.500003982544
348,254,102923,1,0,0:0:0:0:
178,196,103123,2,0,P|151:251|173:346,1,130.500003982544
377,285,103523,1,0,0:0:0:0:
311,90,103723,1,0,0:0:0:0:
406,316,103923,1,0,0:0:0:0:
406,316,104023,1,0,0:0:0:0:
406,316,104123,6,0,L|362:172,1,130.500003982544
336,73,104523,1,0,0:0:0:0:
497,202,104723,2,0,P|450:242|353:245,1,130.500003982544
242,197,105123,1,0,0:0:0:0:
369,47,105323,1,0,0:0:0:0:
480,305,105523,1,0,0:0:0:0:
480,305,105623,1,0,0:0:0:0:
480,305,105723,6,0,L|333:338,1,130.500003982544
216,308,106123,1,0,0:0:0:0:
365,208,106323,2,0,P|405:254|408:351,1,130.500003982544
187,346,106723,5,0,0:0:0:0:
256,150,106923,1,0,0:0:0:0:
67,192,107123,1,0,0:0:0:0:
67,192,107223,1,0,0:0:0:0:
67,192,107323,6,0,P|13:168|65:141,2,130.500003982544
187,346,107923,1,0,0:0:0:0:
256,150,108123,1,0,0:0:0:0:
324,346,108323,1,0,0:0:0:0:
256,150,108523,1,0,0:0:0:0:
444,191,108723,2,0,P|496:174|459:135,2,130.500003982544
342,99,109323,5,0,0:0:0:0:
342,99,109423,2,0,L|342:33,1,65.250001991272
248,204,109623,1,0,0:0:0:0:
248,204,109723,2,0,L|248:284,1,72
405,348,109923,1,0,0:0:0:0:
418,286,110023,1,0,0:0:0:0:
374,245,110123,1,0,0:0:0:0:
315,261,110223,1,0,0:0:0:0:
300,322,110323,1,0,0:0:0:0:
345,364,110423,1,0,0:0:0:0:
470,331,110523,6,0,B|523:135|348:0,1,360
155,187,111123,1,0,0:0:0:0:
411,278,111323,2,0,B|427:180|360:104,1,180
97,134,111723,1,0,0:0:0:0:
396,355,111923,6,0,B|469:147|268:31,1,360
39,82,112523,1,0,0:0:0:0:
69,291,112723,1,0,0:0:0:0:
344,301,112923,6,0,B|313:82|83:69,1,360
81,363,113523,1,0,0:0:0:0:
414,282,113723,6,0,B|374:67|184:15,1,360
14,337,114323,1,0,0:0:0:0:
325,296,114523,2,0,P|310:205|230:143,1,180
39,82,114923,1,0,0:0:0:0:
107,256,115123,1,0,0:0:0:0:
193,272,115323,1,0,0:0:0:0:
281,44,115523,2,0,P|375:51|460:105,1,180
327,216,115923,1,0,0:0:0:0:
162,200,116123,5,0,0:0:0:0:
100,4,116323,1,0,0:0:0:0:
40,80,116523,1,0,0:0:0:0:
281,44,116723,1,0,0:0:0:0:
221,290,116923,6,0,B|33:215|31:-4,1,360
272,97,117523,1,0,0:0:0:0:
177,350,117723,2,0,B|91:313|32:240,1,180
345,104,118123,1,0,0:0:0:0:
250,355,118323,6,0,P|114:300|4:119,1,360
241,32,118923,1,0,0:0:0:0:
438,188,119123,1,0,0:0:0:0:
250,355,119323,2,0,P|160:240|155:28,1,360
469,255,119923,1,0,0:0:0:0:
123,378,120123,6,0,B|51:191|158:24,1,360
407,123,120723,1,0,0:0:0:0:
202,298,120923,2,0,B|149:211|218:115,1,180
242,23,121323,2,0,L|130:36,1,90
83,272,121523,2,0,L|96:383,1,90
396,250,121723,6,0,P|452:180|468:92,1,180
325,250,122123,2,0,P|339:161|309:78,1,180
154,109,122523,2,0,P|222:167|255:250,1,180
27,178,122923,2,0,P|115:194|185:250,1,180
512,2,123323,6,0,P|423:-11|340:18,1,180
223,108,123723,1,0,0:0:0:0:
308,143,123923,1,0,0:0:0:0:
111,190,124123,2,0,P|41:246|3:326,1,180
289,68,124523,1,0,0:0:0:0:
176,219,124723,2,0,P|51:228|172:153,1,360
424,264,125323,2,0,P|444:178|409:96,1,180
111,190,125723,1,0,0:0:0:0:
256,278,125923,2,0,P|341:298|423:263,1,180
409,96,126323,2,0,L|319:96,1,90
12,96,126523,6,0,P|-23:177|-2:263,1,180
190,328,126923,1,0,0:0:0:0:
282,199,127123,2,0,P|191:170|109:190,2,180
423,263,127723,1,0,0:0:0:0:
275,359,127923,2,0,P|189:361|89:333,1,180
330,112,128323,1,0,0:0:0:0:
330,112,128423,1,0,0:0:0:0:
330,112,128523,2,0,P|348:194|335:296,1,180
174,247,128923,1,0,0:0:0:0:
264,193,129123,1,0,0:0:0:0:
79,91,129323,1,0,0:0:0:0:
169,37,129523,1,0,0:0:0:0:
82,196,129723,6,0,P|81:293|144:348,1,180
262,88,130123,1,0,0:0:0:0:
336,291,130323,2,0,P|255:270|202:190,1,180
204,0,130723,1,0,0:0:0:0:
364,85,130923,1,0,0:0:0:0:
0,27,131123,2,0,P|-9:115|11:203,1,180
177,286,131523,2,0,P|187:198|166:110,1,180
78,287,131923,5,0,0:0:0:0:
276,287,132123,2,0,P|284:238|284:198,1,90
276,89,132323,1,0,0:0:0:0:
276,287,132523,2,0,P|325:295|365:295,1,90
474,287,132723,1,0,0:0:0:0:
307,120,132923,6,0,L|275:88,2,45
416,247,133323,2,0,L|416:157,1,90
307,210,133723,2,0,L|307:120,1,90
198,83,134123,1,0,0:0:0:0:
198,218,134323,1,0,0:0:0:0:
81,150,134523,1,0,0:0:0:0:
81,285,134723,1,0,0:0:0:0:
248,285,134923,6,0,L|340:285,1,90
359,267,135323,2,0,L|269:267,1,90
290,249,135723,2,0,L|380:249,1,90
450,318,136123,1,0,0:0:0:0:
450,183,136323,1,0,0:0:0:0:
333,116,136523,6,0,L|333:206,1,90
224,79,136923,2,0,L|224:169,1,90
292,286,137323,1,0,0:0:0:0:
157,286,137523,1,0,0:0:0:0:
90,169,137723,1,0,0:0:0:0:
157,52,137923,1,0,0:0:0:0:
201,286,138123,2,0,L|111:286,1,90
335,232,138523,2,0,L|245:232,1,90
378,45,138923,2,0,B|388:112|388:112|378:179,1,135
334,336,139323,6,0,P|414:299|437:213,1,182.250000695229
483,162,139723,2,0,P|427:145|378:178,1,121.500000463486
245,232,140123,2,0,L|335:232,1,90
178,336,140523,2,0,P|98:299|75:213,1,182.250000695229
28,162,140923,2,0,P|84:145|134:178,1,121.500000463486
267,232,141323,2,0,L|177:232,1,90
334,336,141723,1,0,0:0:0:0:
334,336,141923,1,0,0:0:0:0:
447,115,142123,2,0,B|452:178|452:178|442:254,1,121.500000463486
200,128,142523,5,0,0:0:0:0:
263,159,142723,1,0,0:0:0:0:
67,235,142923,2,0,B|60:178|60:178|65:115,1,121.500000463486
326,190,143323,1,0,0:0:0:0:
267,232,143523,1,0,0:0:0:0:
4,271,143723,2,0,B|-8:184|-8:184|-7:146,1,121.500000463486
137,97,144123,5,0,0:0:0:0:
136,274,144323,1,0,0:0:0:0:
144,303,144423,1,0,0:0:0:0:
159,328,144523,1,0,0:0:0:0:
184,344,144623,1,0,0:0:0:0:
214,348,144723,1,0,0:0:0:0:
313,203,144923,1,0,0:0:0:0:
309,173,145023,1,0,0:0:0:0:
293,148,145123,1,0,0:0:0:0:
268,133,145223,1,0,0:0:0:0:
239,125,145323,1,0,0:0:0:0:
210,231,145523,1,0,0:0:0:0:
210,231,145623,1,0,0:0:0:0:
210,231,145723,6,0,L|242:199,2,45
83,340,146123,2,0,L|173:340,1,90
120,231,146523,2,0,L|210:231,1,90
247,122,146923,1,0,0:0:0:0:
112,122,147123,1,0,0:0:0:0:
180,5,147323,5,0,0:0:0:0:
45,5,147523,1,0,0:0:0:0:
45,172,147723,2,0,L|45:307,1,135
63,328,148123,2,0,L|63:260,1,45
63,238,148323,2,0,L|63:193,1,45
81,214,148523,2,0,L|81:349,1,135
12,374,148923,1,0,0:0:0:0:
147,374,149123,1,0,0:0:0:0:
232,264,149323,6,0,L|142:264,1,90
79,153,149723,2,0,L|169:153,1,90
286,221,150123,1,0,0:0:0:0:
286,86,150323,1,0,0:0:0:0:
169,19,150523,1,0,0:0:0:0:
52,86,150723,1,0,0:0:0:0:
270,116,150923,2,0,P|289:75|289:31,1,90
172,237,151323,2,0,P|209:212|232:174,1,90
45,307,151723,2,0,B|112:317|112:317|179:307,1,135
300,189,152123,6,0,B|319:320|192:375,1,233.999989288331
117,344,152723,1,0,0:0:0:0:
164,157,152923,1,0,0:0:0:0:
179,149,153323,1,0,0:0:0:0:
193,141,153723,6,0,B|300:189|300:189|410:136,1,233.999989288331
488,80,154323,2,0,B|522:134|488:197|488:197|456:255|488:319,1,233.999989288331
323,374,154923,2,0,P|300:311|300:251,1,116.999994644165
303,238,155223,1,0,0:0:0:0:
310,216,155323,1,0,0:0:0:0:
432,288,155523,1,0,0:0:0:0:
245,376,155723,1,0,0:0:0:0:
444,338,155923,1,0,0:0:0:0:
205,299,156123,1,0,0:0:0:0:
393,384,156323,1,0,0:0:0:0:
241,221,156523,5,0,0:0:0:0:
235,228,156923,6,0,P|205:299|236:379,1,157.5
390,371,157723,2,0,P|414:298|385:228,1,157.5
235,228,158523,5,0,0:0:0:0:
235,156,158723,1,0,0:0:0:0:
297,192,158923,1,0,0:0:0:0:
297,263,159123,1,0,0:0:0:0:
235,228,159323,1,0,0:0:0:0:
174,191,159523,1,0,0:0:0:0:
235,156,159723,1,0,0:0:0:0:
294,121,159923,1,0,0:0:0:0:
297,263,160123,5,0,0:0:0:0:
174,191,160323,1,0,0:0:0:0:
294,121,160523,1,0,0:0:0:0:
420,191,160723,1,0,0:0:0:0:
297,263,160923,1,0,0:0:0:0:
174,335,161123,1,0,0:0:0:0:
172,49,161323,1,0,0:0:0:0:
420,191,161523,1,0,0:0:0:0:
27,191,161723,5,0,0:0:0:0:
130,0,161923,1,0,0:0:0:0:
130,191,162123,1,0,0:0:0:0:
130,383,162323,1,0,0:0:0:0:
430,291,162523,1,0,0:0:0:0:
78,287,162723,1,0,0:0:0:0:
424,100,162923,5,0,0:0:0:0:
27,191,163123,1,0,0:0:0:0:
386,8,163323,1,0,0:0:0:0:
486,379,163523,1,0,0:0:0:0:
114,280,163723,1,0,0:0:0:0:
386,8,163923,5,0,0:0:0:0:
287,380,164123,1,0,0:0:0:0:
14,108,164323,1,0,0:0:0:0:
387,208,164523,1,0,0:0:0:0:
14,308,164723,1,0,0:0:0:0:
386,8,164923,5,0,0:0:0:0:
376,18,165323,1,0,0:0:0:0:
14,308,165723,1,0,0:0:0:0:
241,28,165923,1,0,0:0:0:0:
287,380,166323,1,0,0:0:0:0:
297,370,166723,1,0,0:0:0:0:
14,108,167123,5,0,0:0:0:0:
14,108,167323,1,0,0:0:0:0:
114,280,167523,1,0,0:0:0:0:
114,280,167723,1,0,0:0:0:0:
214,108,167923,1,0,0:0:0:0:
387,380,168123,6,0,P|452:266|461:121,1,270.000010299683
213,222,168723,1,0,0:0:0:0:
453,263,168923,2,0,P|452:131|387:1,1,270.000010299683
178,272,169523,1,0,0:0:0:0:
321,29,169723,2,0,P|380:129|377:282,1,270.000010299683
377,279,170523,6,0,B|310:264|310:264|242:279,1,135.000005149842
147,350,170923,1,0,0:0:0:0:
311,369,171123,1,0,0:0:0:0:
186,185,171323,2,0,P|248:222|240:288,2,135.000005149842
12,350,171923,6,0,L|147:350,1,135.000005149842
245,278,172323,1,0,0:0:0:0:
152,126,172523,1,0,0:0:0:0:
343,210,172723,2,0,P|362:274|341:345,1,135.000005149842
245,278,173123,2,0,P|226:214|247:143,1,135.000005149842
480,333,173523,6,0,L|337:338,1,135.000005149842
107,144,173923,2,0,L|254:149,1,135.000005149842
12,350,174323,1,0,0:0:0:0:
225,14,174523,2,0,P|242:159|221:307,1,270.000010299683
137,367,175123,1,0,0:0:0:0:
10,283,175323,2,0,P|117:202|241:148,1,270.000010299683
381,104,175923,1,0,0:0:0:0:
291,301,176123,5,0,0:0:0:0:
163,259,176323,1,0,0:0:0:0:
163,124,176523,1,0,0:0:0:0:
291,82,176723,1,0,0:0:0:0:
208,337,176923,1,0,0:0:0:0:
370,192,177123,1,0,0:0:0:0:
163,124,177323,1,0,0:0:0:0:
380,281,177523,1,0,0:0:0:0:
118,336,177723,5,0,0:0:0:0:
108,346,178123,1,0,0:0:0:0:
408,15,178523,1,0,0:0:0:0:
453,228,178723,1,0,0:0:0:0:
102,192,179123,1,0,0:0:0:0:
92,182,179523,1,0,0:0:0:0:
14,108,179923,5,0,0:0:0:0:
14,108,180123,2,0,P|-10:174|7:245,1,135.000005149842
114,280,180523,1,0,0:0:0:0:
214,108,180723,1,0,0:0:0:0:
387,380,180923,6,0,P|427:324|454:254,1,135.000005149842
164,194,181323,1,0,0:0:0:0:
387,380,181523,2,0,P|452:266|461:121,1,270.000010299683
251,330,182123,1,0,0:0:0:0:
462,129,182323,2,0,P|452:263|411:353,1,202.500007724762
416,334,182723,1,0,0:0:0:0:
402,343,182823,1,0,0:0:0:0:
389,351,182923,1,0,0:0:0:0:
166,358,183323,5,0,0:0:0:0:
377,360,183523,1,0,0:0:0:0:
150,367,183723,1,0,0:0:0:0:
364,371,183923,1,0,0:0:0:0:
271,52,184123,6,0,P|254:173|266:351,1,270.000010299683
139,285,184723,1,0,0:0:0:0:
72,95,184923,1,0,0:0:0:0:
67,204,185123,1,0,0:0:0:0:
152,21,185323,1,0,0:0:0:0:
202,153,185523,6,0,P|223:210|192:301,1,135.000005149842
347,341,185923,2,0,P|388:194|319:72,1,270.000010299683
106,220,186523,1,0,0:0:0:0:
392,181,186723,2,0,P|296:62|120:188,1,405.000015449525
442,275,187523,1,0,0:0:0:0:
69,275,187723,6,0,P|253:-11|444:272,1,810.000030899049
256,192,189123,1,0,0:0:0:0:
214,344,189323,1,0,0:0:0:0:
256,121,189523,1,0,0:0:0:0:
298,344,189723,1,0,0:0:0:0:
401,197,189923,1,0,0:0:0:0:
110,197,190123,1,0,0:0:0:0:
471,197,190323,1,0,0:0:0:0:
41,197,190523,6,0,P|124:343|350:291,1,396.000012084961
48,122,191123,1,0,0:0:0:0:
284,44,191323,2,0,P|186:30|99:69,1,198.000006042481
342,90,191723,1,0,0:0:0:0:
124,342,191923,6,0,P|310:332|374:157,1,396.000012084961
44,226,192523,1,0,0:0:0:0:
71,294,192723,1,0,0:0:0:0:
355,109,192923,2,0,P|186:29|46:153,1,396.000012084961
378,179,193523,1,0,0:0:0:0:
58,272,193723,6,0,P|219:365|369:253,1,396.000012084961
41,197,194323,1,0,0:0:0:0:
213,27,194523,2,0,P|120:54|55:127,1,198.000006042481
220,366,194923,1,0,0:0:0:0:
213,27,195123,2,0,P|201:78|214:142,1,99.0000030212403
256,372,195323,6,0,L|256:166,1,198.000006042481
128,96,195723,1,0,0:0:0:0:
128,288,195923,1,0,0:0:0:0:
384,288,196123,1,0,0:0:0:0:
384,96,196323,1,0,0:0:0:0:
457,288,196523,1,0,0:0:0:0:
54,288,196723,1,0,0:0:0:0:
256,12,196923,6,0,P|401:94|349:320,1,396.000012084961
180,19,197523,1,0,0:0:0:0:
102,254,197723,2,0,P|88:156|127:68,1,198.000006042481
149,312,198123,1,0,0:0:0:0:
400,95,198323,6,0,P|390:281|215:344,1,396.000012084961
284,15,198923,1,0,0:0:0:0:
352,41,199123,1,0,0:0:0:0:
167,325,199323,2,0,P|87:156|211:16,1,396.000012084961
237,348,199923,1,0,0:0:0:0:
330,28,200123,6,0,P|423:188|311:339,1,396.000012084961
256,12,200723,1,0,0:0:0:0:
85,183,200923,2,0,P|112:90|184:25,1,198.000006042481
425,191,201323,1,0,0:0:0:0:
85,183,201523,1,0,0:0:0:0:
256,372,201723,6,0,L|256:166,1,198.000006042481
384,96,202123,1,0,0:0:0:0:
384,288,202323,1,0,0:0:0:0:
128,288,202523,1,0,0:0:0:0:
128,96,202723,1,0,0:0:0:0:
455,96,202923,1,0,0:0:0:0:
56,96,203123,1,0,0:0:0:0:
256,372,203323,6,0,P|259:271|254:164,1,198.000006042481
142,172,203723,1,0,0:0:0:0:
370,374,203923,1,0,0:0:0:0:
431,76,204123,2,0,P|331:64|223:76,1,198.000006042481
159,296,204523,1,0,0:0:0:0:
391,143,204723,6,0,P|499:39|352:72,1,396.000012084961
159,296,205323,2,0,P|156:195|161:88,1,198.000006042481
353,67,205723,1,0,0:0:0:0:
231,339,205923,2,0,P|136:376|74:283,1,198.000006042481
160,98,206323,1,0,0:0:0:0:
512,208,206523,6,0,P|434:356|206:312,1,396.000012084961
176,232,207123,1,0,0:0:0:0:
263,64,207323,2,0,P|360:46|448:82,1,198.000006042481
512,208,207723,1,0,0:0:0:0:
434,356,207923,6,0,P|321:381|246:352,1,198.000006042481
193,171,208323,1,0,0:0:0:0:
362,45,208523,1,0,0:0:0:0:
512,208,208723,1,0,0:0:0:0:
362,45,208923,1,0,0:0:0:0:
193,171,209123,1,0,0:0:0:0:
304,89,209323,1,0,0:0:0:0:
135,215,209523,1,0,0:0:0:0:
478,224,209723,6,0,P|507:138|449:30,2,198.000006042481
213,384,210323,2,0,B|259:359|277:313|277:313|333:311|381:265,1,198.000006042481
369,137,210723,1,0,0:0:0:0:
478,224,210923,1,0,0:0:0:0:
161,272,211123,1,0,0:0:0:0:
142,276,211523,1,0,0:0:0:0:
256,192,211923,12,0,215723,0:0:0:0:
