osu file format v14

[General]
AudioFilename: tourniquet.mp3
AudioLeadIn: 0
PreviewTime: 38210
Countdown: 0
SampleSet: Soft
StackLeniency: 0.7
Mode: 0
LetterboxInBreaks: 0
WidescreenStoryboard: 0

[Editor]
Bookmarks: 6777,12032,17288,22543,27799,38320,47517,58028,69853,90874,109269,113210,117152,122407,127663
DistanceSpacing: 1.4
BeatDivisor: 4
GridSize: 32
TimelineZoom: 1.2

[Metadata]
Title:Lacrymosa
TitleUnicode:Lacrymosa
Artist:Evanescence
ArtistUnicode:Evanescence
Creator:Sieg
Version:Advanced
Source:
Tags:the open door symphonic metal english rock lama poluna cut version
BeatmapID:793115
BeatmapSetID:360491

[Difficulty]
HPDrainRate:4.5
CircleSize:3.7
OverallDifficulty:4.5
ApproachRate:5.5
SliderMultiplier:1.4
SliderTickRate:1

[Events]
//Background and Video events
0,0,"bg.jpg",0,0
//Break Periods
//Storyboard Layer 0 (Background)
//Storyboard Layer 1 (Fail)
//Storyboard Layer 2 (Pass)
//Storyboard Layer 3 (Foreground)
//Storyboard Sound Samples

[TimingPoints]
1522,437.956204379562,3,2,2,15,1,0
1522,-133.333333333333,3,2,2,15,0,0
1959,-133.333333333333,3,2,1,5,0,0
4149,-133.333333333333,3,2,2,15,0,0
4587,-133.333333333333,3,2,1,5,0,0
6777,-100,3,2,1,15,0,0
12032,-100,3,2,1,30,0,0
17288,-100,3,2,1,40,0,0
22543,-100,3,2,1,45,0,0
30437,437.956204379562,3,2,1,45,1,0
35692,-133.333333333333,3,2,1,45,0,0
38320,-100,3,2,1,50,0,0
42261,-100,3,2,1,55,0,0
46203,-100,3,2,1,60,0,0
52772,-100,3,2,1,65,0,0
88247,-133.333333333333,3,2,1,65,0,0
90874,-100,3,2,1,75,0,0

[Colours]
Combo1 : 140,146,172
Combo2 : 0,55,130
Combo3 : 125,11,14

[HitObjects]
87,212,1522,5,0,2:0:0:0:
192,95,1959,1,2,0:0:0:0:
192,95,2178,1,2,0:1:0:0:
212,251,2616,1,0,0:0:0:0:
212,251,2835,2,0,L|201:319,2,52.5000020027161,0|0|0,0:0|0:0|0:0,0:0:0:0:
425,212,4149,5,0,0:0:0:0:
320,95,4587,1,2,0:0:0:0:
320,95,4806,1,2,0:1:0:0:
300,251,5244,1,0,0:0:0:0:
300,251,5463,2,0,L|311:319,2,52.5000020027161,0|0|0,0:0|0:0|0:0,0:0:0:0:
444,107,6777,6,0,L|370:131,1,70,4|0,0:1|0:0,0:0:0:0:
289,84,7215,2,0,P|297:40|316:13,2,70,2|0|0,0:1|0:0|0:0,0:0:0:0:
318,278,8091,1,2,0:0:0:0:
131,339,8529,2,0,P|98:344|37:243,1,140,2|0,0:0|0:0,0:0:0:0:
224,239,9405,6,0,P|222:200|202:162,1,70,4|0,0:1|0:0,0:0:0:0:
121,127,9843,2,0,P|160:84|245:79,1,140,2|2,0:1|0:1,0:0:0:0:
415,165,10719,1,2,0:0:0:0:
415,165,10938,1,0,0:0:0:0:
368,251,11157,2,0,L|364:333,1,70,2|0,0:1|0:0,0:0:0:0:
285,262,11594,2,0,L|289:180,1,70,0|0,0:0|0:0,0:0:0:0:
201,237,12032,6,0,L|197:319,1,70,4|0,0:3|0:0,0:0:0:0:
107,347,12470,2,0,L|111:265,2,70,0|0|0,3:0|0:0|0:0,0:0:0:0:
15,173,13346,1,0,3:0:0:0:
149,30,13784,2,0,P|190:80|186:159,1,140,2|2,0:1|0:1,0:0:0:0:
224,345,14660,6,0,P|252:314|256:271,1,70,4|0,0:3|0:0,0:0:0:0:
284,192,15098,2,0,P|282:126|334:66,1,140,2|4,0:0|0:0,0:0:0:0:
472,203,15974,1,0,3:0:0:0:
341,349,16412,2,0,P|313:328|271:322,1,70,2|0,0:0|0:0,0:0:0:0:
182,340,16850,2,0,L|176:265,1,70,2|0,0:1|0:0,0:0:0:0:
124,186,17288,6,0,P|64:181|22:115,1,140,4|0,0:1|0:0,0:0:0:0:
109,73,17945,2,0,P|169:78|211:144,1,140,8|0,0:1|0:0,0:0:0:0:
197,237,18602,1,2,0:0:0:0:
43,358,19040,1,2,0:0:0:0:
43,358,19259,1,0,3:0:0:0:
140,370,19478,2,0,L|217:362,1,70,2|0,0:1|0:0,0:0:0:0:
305,342,19916,6,0,P|339:352|424:285,1,140
338,249,20573,2,0,B|317:211|339:187|339:177|368:138|342:107,1,140,8|0,0:1|0:0,0:0:0:0:
302,26,21230,1,0,3:0:0:0:
225,206,21667,2,0,L|238:282,1,70,2|0,0:1|0:0,0:0:0:0:
142,248,22105,2,0,L|129:172,1,70,2|0,0:0|0:0,0:0:0:0:
42,133,22543,6,0,P|57:62|126:35,1,140,4|2,0:1|0:1,0:0:0:0:
208,62,23200,1,8,0:1:0:0:
142,248,23638,1,0,0:0:0:0:
216,312,23857,2,0,P|283:318|329:268,1,140,2|0,0:0|0:0,0:0:0:0:
347,172,24514,1,0,3:0:0:0:
436,131,24733,2,0,L|515:147,1,70,0|0,0:0|0:0,0:0:0:0:
481,49,25171,6,0,P|418:13|351:31,1,140,2|2,0:0|0:2,0:0:0:0:
272,81,25828,2,0,P|209:45|142:63,1,140,2|0,0:0|0:0,0:0:0:0:
63,113,26485,1,0,3:0:0:0:
246,180,26923,2,0,L|400:158,1,140,2|2,0:0|0:1,0:0:0:0:
433,350,27799,6,0,B|510:357,2,70,4|0|0,0:1|0:0|0:0,0:0:0:0:
337,328,28456,2,0,P|270:342|211:307,1,140,8|0,0:1|0:0,0:0:0:0:
285,243,29113,1,0,3:0:0:0:
111,333,29551,1,2,0:1:0:0:
34,271,29770,2,0,B|21:189|21:189|39:132,1,140,2|0,0:0|0:0,0:0:0:0:
134,113,30437,6,0,P|194:124|253:71,1,140,4|0,0:1|0:0,0:0:0:0:
345,35,31093,2,0,L|331:182,1,140,8|0,0:1|0:0,0:0:0:0:
321,272,31750,1,0,3:0:0:0:
453,144,32188,1,2,0:0:0:0:
453,144,32407,1,0,3:0:0:0:
402,232,32626,2,0,P|422:271|417:309,1,70,2|0,0:1|0:0,0:0:0:0:
321,272,33064,6,0,P|282:292|244:287,2,70,4|2|2,0:1|0:0|0:1,0:0:0:0:
334,174,33721,2,0,P|338:102|295:43,1,140,8|0,0:1|0:0,0:0:0:0:
208,17,34378,2,0,L|221:176,2,140,4|0|0,0:0|0:0|0:0,0:0:0:0:
126,139,35692,6,0,B|87:105|36:152|49:172|30:216|102:203|83:285,1,210.000008010865,4|0,2:0|2:0,0:0:0:0:
199,165,37006,2,0,B|248:156|268:225|243:233|238:281|182:230|154:310,1,210.000008010865,4|0,2:0|2:0,0:0:0:0:
346,355,38320,5,4,0:1:0:0:
484,216,38758,1,8,0:1:0:0:
484,216,38977,1,0,3:0:0:0:
484,216,39196,1,0,0:0:0:0:
342,80,39634,2,0,P|285:47|207:73,1,140,8|0,0:1|0:0,0:0:0:0:
245,160,40291,2,0,P|286:239|269:294,1,140,0|0,3:0|0:0,0:0:0:0:
212,360,40947,6,0,L|63:327,1,140,4|8,0:0|0:1,0:0:0:0:
87,233,41604,2,0,B|61:149|61:149|74:88,1,140,0|0,3:0|0:0,0:0:0:0:
153,42,42261,2,0,L|309:32,1,140,4|0,0:0|0:0,0:0:0:0:
273,129,42918,2,0,L|200:134,1,70,0|0,3:0|0:0,0:0:0:0:
85,291,43575,6,0,P|137:335|203:320,1,140,8|0,0:1|0:0,0:0:0:0:
284,265,44232,2,0,P|351:259|407:310,1,140,0|0,3:0|0:0,0:0:0:0:
321,357,44889,1,4,0:0:0:0:
491,260,45327,1,2,0:0:0:0:
491,260,45546,1,0,3:0:0:0:
429,183,45765,2,0,L|346:170,1,70,2|0,0:1|0:0,0:0:0:0:
268,209,46203,6,0,P|261:157|313:85,1,140,4|2,0:0|0:0,0:0:0:0:
405,72,46860,1,2,0:1:0:0:
343,257,47298,1,0,0:0:0:0:
279,331,47517,2,0,B|186:349|186:349|138:328,1,140,4|0,0:1|0:0,0:0:0:0:
60,279,48174,1,0,3:0:0:0:
60,279,48393,1,0,0:0:0:0:
25,86,48831,6,0,P|79:80|141:148,1,140,8|2,0:1|0:0,0:0:0:0:
194,216,49488,2,0,P|218:167|309:152,1,140,0|0,3:0|0:0,0:0:0:0:
377,204,50145,1,2,0:0:0:0:
233,71,50582,1,2,0:1:0:0:
142,108,50801,2,0,L|119:250,1,140,0|0,3:0|0:0,0:0:0:0:
182,322,51458,6,0,P|237:270|241:203,1,140,4|0,0:0|0:0,0:0:0:0:
335,242,52115,2,0,L|340:319,1,70,0|0,3:0|0:0,0:0:0:0:
497,195,52772,2,0,L|492:118,1,70,2|0,0:1|0:0,0:0:0:0:
425,52,53210,1,0,0:0:0:0:
335,91,53429,2,0,P|295:58|210:63,1,140,0|0,3:0|0:0,0:0:0:0:
256,148,54086,6,0,B|226:194|256:239|256:253|298:292|254:354,1,210,4|8,0:1|0:1,0:0:0:0:
159,352,54962,2,0,L|76:343,1,70,2|0,0:0|0:0,0:0:0:0:
35,261,55400,2,0,P|27:204|88:139,1,140,2|2,0:1|0:0,0:0:0:0:
125,228,56057,1,0,3:0:0:0:
125,228,56276,1,2,0:1:0:0:
288,336,56714,6,0,P|334:286|329:218,1,140,4|0,0:3|0:0,0:0:0:0:
240,251,57371,1,8,0:1:0:0:
88,126,57809,1,2,0:0:0:0:
48,36,58028,2,0,B|140:47|140:47|184:85,1,140,0|0,0:0|0:0,0:0:0:0:
223,163,58685,2,0,P|279:184|350:141,1,140,4|0,0:3|0:0,0:0:0:0:
423,208,59342,6,0,L|434:284,1,70,4|0,0:3|0:0,0:0:0:0:
509,215,59780,2,0,L|498:139,2,70,4|8|0,0:3|0:1|0:0,0:0:0:0:
404,49,60655,1,2,0:0:0:0:
305,218,61093,2,0,P|290:258|291:289,2,70,0|0|8,3:0|0:0|0:1,0:0:0:0:
329,23,61969,6,0,L|240:37,1,70,4|0,0:3|0:0,0:0:0:0:
164,57,62407,1,2,0:1:0:0:
164,57,62626,1,8,0:1:0:0:
164,57,62845,1,2,0:0:0:0:
326,165,63283,1,8,0:1:0:0:
326,165,63502,1,0,0:0:0:0:
283,253,63721,2,0,L|289:337,1,70,0|0,3:0|0:0,0:0:0:0:
202,281,64159,2,0,L|196:197,1,70,8|0,0:1|0:0,0:0:0:0:
119,277,64597,6,0,L|125:361,1,70,4|0,0:3|0:0,0:0:0:0:
41,293,65035,2,0,L|35:209,2,70,0|8|0,0:0|0:1|0:0,0:0:0:0:
125,115,65911,1,0,3:1:0:0:
305,39,66349,1,2,0:0:0:0:
305,39,66568,1,0,0:0:0:0:
305,39,66787,1,8,0:1:0:0:
108,39,67225,6,0,P|65:63|57:154,1,140,4|0,0:3|3:0,0:0:0:0:
116,222,67882,2,0,L|105:311,1,70,0|2,0:0|0:1,0:0:0:0:
51,372,68320,1,2,0:0:0:0:
51,372,68539,1,8,0:1:0:0:
200,244,68977,2,0,L|211:155,1,70,0|0,3:0|0:0,0:0:0:0:
283,238,69415,2,0,L|272:327,1,70,8|0,0:1|0:0,0:0:0:0:
361,354,69853,6,0,P|421:358|472:299,1,140,0|0,1:0|1:0,0:0:0:0:
477,205,70509,2,0,B|390:175|390:175|334:190,1,140,8|0,0:1|0:0,0:0:0:0:
391,273,71166,1,0,3:0:0:0:
459,89,71604,1,0,0:0:0:0:
459,89,71823,1,0,0:0:0:0:
375,37,72042,2,0,L|298:45,1,70,8|0,0:1|0:0,0:0:0:0:
207,42,72480,6,0,P|173:32|88:99,1,140,0|2,1:0|1:0,0:0:0:0:
174,135,73137,2,0,B|195:172|173:196|173:206|144:245|170:276,1,140,8|0,0:1|0:0,0:0:0:0:
210,358,73794,1,0,3:0:0:0:
287,178,74232,2,0,L|274:102,1,70,2|0,1:0|0:0,0:0:0:0:
370,136,74670,2,0,L|383:212,1,70,8|0,0:1|0:0,0:0:0:0:
470,251,75108,6,0,P|471:323|410:365,1,140,0|0,1:0|1:0,0:0:0:0:
324,359,75765,1,8,0:1:0:0:
275,70,76422,2,0,P|208:64|162:114,1,140,0|0,3:0|1:0,0:0:0:0:
165,212,77079,1,0,0:0:0:0:
76,253,77298,2,0,L|-3:237,1,70,8|0,0:1|0:0,0:0:0:0:
31,335,77736,6,0,P|94:371|161:353,1,140,0|2,1:0|1:0,0:0:0:0:
240,303,78393,2,0,P|303:339|370:321,1,140,8|0,0:1|0:0,0:0:0:0:
449,271,79050,1,0,1:0:0:0:
266,204,79488,2,0,L|112:226,1,140,2|8,1:0|0:1,0:0:0:0:
79,34,80364,6,0,B|2:27,2,70,2|2|2,1:2|0:1|1:0,0:0:0:0:
175,56,81020,2,0,P|242:42|301:77,1,140,8|0,0:1|0:0,0:0:0:0:
227,141,81677,1,0,3:0:0:0:
401,51,82115,1,2,1:0:0:0:
478,113,82334,2,0,B|491:195,1,70,0|8,0:0|0:1,0:0:0:0:
378,271,82991,6,0,P|318:260|259:313,1,140,0|2,1:0|1:0,0:0:0:0:
172,350,83648,2,0,L|186:203,1,140,8|0,0:1|0:0,0:0:0:0:
191,112,84305,1,0,1:0:0:0:
59,240,84743,1,2,1:0:0:0:
59,240,84962,1,0,0:0:0:0:
38,144,85181,2,0,L|27:64,1,70,8|0,0:1|0:0,0:0:0:0:
121,106,85619,6,0,P|138:65|170:45,2,70,0|2|2,1:0|0:1|1:0,0:0:0:0:
162,195,86276,2,0,P|234:199|281:142,1,140,8|0,0:1|0:0,0:0:0:0:
367,125,86933,2,0,P|387:60|449:33,2,140,0|0|8,3:0|1:0|0:1,0:0:0:0:
407,270,88247,6,0,B|364:304|310:284|310:284|282:330|219:331,1,210.000008010865,4|0,2:0|2:0,0:0:0:0:
109,239,89561,2,0,B|151:204|205:224|205:224|233:178|296:177,1,210.000008010865,4|0,2:0|2:0,0:0:0:0:
489,234,90874,5,4,1:2:0:0:
420,62,91312,1,0,1:0:0:0:
420,62,91531,1,8,0:1:0:0:
420,62,91750,1,2,0:1:0:0:
226,61,92188,2,0,P|142:29|90:53,1,140,0|2,3:0|1:0,0:0:0:0:
154,127,92845,2,0,P|85:183|79:240,1,140,8|0,0:1|0:0,0:0:0:0:
176,223,93502,6,0,P|190:310|238:344,1,140,4|2,1:2|1:0,0:0:0:0:
270,251,94159,2,0,P|353:282|406:257,1,140,8|0,0:1|0:0,0:0:0:0:
341,183,94816,1,0,3:0:0:0:
468,331,95254,2,0,L|479:251,1,70,8|8,0:1|0:1,0:0:0:0:
492,164,95692,1,2,1:0:0:0:
359,19,96130,6,0,L|213:36,1,140,4|0,1:2|1:0,0:0:0:0:
148,102,96787,2,0,P|81:108|25:57,1,140,8|0,0:1|1:0,0:0:0:0:
111,10,97444,1,2,3:1:0:0:
3,173,97882,1,2,1:0:0:0:
3,173,98101,1,8,0:1:0:0:
85,225,98320,2,0,L|168:238,1,70,8|0,0:1|1:0,0:0:0:0:
246,200,98758,6,0,P|250:256|204:322,1,140,4|0,1:2|1:0,0:0:0:0:
105,313,99415,1,8,0:1:0:0:
169,127,99853,1,0,1:0:0:0:
233,53,100072,2,0,B|326:35|326:35|374:56,1,140,0|0,3:0|1:0,0:0:0:0:
452,109,100728,1,8,0:1:0:0:
452,109,100947,1,8,0:1:0:0:
487,298,101385,6,0,P|433:304|371:236,1,140,4|2,1:2|1:0,0:0:0:0:
318,168,102042,2,0,P|294:217|203:232,1,140,8|0,0:1|0:0,0:0:0:0:
135,180,102699,1,0,3:0:0:0:
279,313,103137,1,2,1:0:0:0:
370,276,103356,2,0,L|393:134,1,140,8|0,0:1|0:0,0:0:0:0:
330,62,104013,6,0,P|275:114|271:181,1,140,4|0,1:2|1:0,0:0:0:0:
177,142,104670,2,0,L|172:65,1,70,8|2,0:1|0:1,0:0:0:0:
15,189,105327,2,0,L|20:266,1,70,0|0,3:0|0:0,0:0:0:0:
70,343,105765,1,2,1:0:0:0:
161,323,105984,2,0,L|156:246,1,70,8|8,0:1|0:1,0:0:0:0:
115,61,106641,6,0,P|184:93|265:63,1,140,4|0,1:2|0:0,0:0:0:0:
326,25,107298,2,0,L|409:34,1,70,8|2,0:1|0:1,0:0:0:0:
493,41,107736,1,0,1:0:0:0:
485,141,107955,2,0,P|493:198|435:265,1,140,0|2,3:0|1:0,0:0:0:0:
392,177,108612,1,8,0:1:0:0:
392,177,108831,1,8,0:1:0:0:
247,309,109269,6,0,P|195:353|127:348,1,140,4|0,1:2|0:0,0:0:0:0:
164,257,109926,1,8,0:1:0:0:
352,204,110364,1,2,0:1:0:0:
352,204,110582,2,0,L|344:120,1,70,4|0,1:2|0:0,0:0:0:0:
311,41,111020,1,2,1:0:0:0:
238,106,111239,2,0,P|226:140|231:184,2,70,8|0|8,0:1|1:0|0:1,0:0:0:0:
166,36,111896,6,0,B|160:59|124:67|124:67|122:96|122:96|72:91|34:118|24:164|34:196|47:214|72:232,1,280,4|0,1:3|0:0,0:0:0:0:
238,323,113210,2,0,L|246:366,2,35,0|0|0,1:0|1:0|1:0,0:0:0:0:
185,239,113648,2,0,P|172:202|177:160,1,70,4|0,0:2|0:0,0:0:0:0:
270,191,114086,2,0,P|302:203|337:202,1,70,4|0,0:2|0:0,0:0:0:0:
314,106,114524,5,0,1:0:0:0:
314,302,114962,2,0,L|398:286,1,70,4|0,0:2|0:0,0:0:0:0:
423,199,115400,2,0,L|503:213,1,70,4|0,0:2|0:0,0:0:0:0:
508,308,115838,1,8,1:1:0:0:
460,117,116276,2,0,L|452:74,2,35,4|0|0,1:2|1:0|1:0,0:0:0:0:
363,97,116714,2,0,L|347:21,1,70,4|0,0:2|0:0,0:0:0:0:
256,62,117152,6,0,B|217:121|256:180|256:198|310:249|253:329,1,280,4|0,0:1|0:0,0:0:0:0:
180,262,118247,1,2,0:1:0:0:
180,262,118466,1,8,0:1:0:0:
18,16,119123,1,2,0:0:0:0:
74,203,119561,1,0,1:0:0:0:
74,203,119780,1,4,1:2:0:0:
332,64,120436,5,2,0:1:0:0:
280,253,120874,1,0,0:0:0:0:
280,253,121093,1,8,1:1:0:0:
232,62,121531,1,0,1:0:0:0:
360,229,121969,1,0,1:0:0:0:
360,229,122188,1,0,0:0:0:0:
360,229,122407,1,4,1:2:0:0:
256,192,122517,12,2,127663,0:1:0:0:
