osu file format v14

[General]
AudioFilename: nevercomingback.mp3
AudioLeadIn: 0
PreviewTime: 79523
Countdown: 0
SampleSet: Soft
StackLeniency: 0.2
Mode: 0
LetterboxInBreaks: 0
WidescreenStoryboard: 1

[Editor]
Bookmarks: 23823,36623,49423,52623,65423,78223,81423,94223,107023,110223,123195,135702
DistanceSpacing: 3.9
BeatDivisor: 4
GridSize: 16
TimelineZoom: 1.4

[Metadata]
Title:Never Coming Back
TitleUnicode:Never Coming Back
Artist:Evan Call
ArtistUnicode:Evan Call
Creator:Axarious
Version:Normal
Source:ヴァイオレット・エヴァーガーデン
Tags:violet evergarden
BeatmapID:1618259
BeatmapSetID:769612

[Difficulty]
HPDrainRate:4
CircleSize:4
OverallDifficulty:6
ApproachRate:9
SliderMultiplier:3.2
SliderTickRate:1

[Events]
//Background and Video events
0,0,"nevercomingback.png",0,0
//Break Periods
2,48023,51473
//Storyboard Layer 0 (Background)
//Storyboard Layer 1 (Fail)
//Storyboard Layer 2 (Pass)
//Storyboard Layer 3 (Foreground)
//Storyboard Sound Samples

[TimingPoints]
623,1176.47058823529,4,2,0,0,1,0
1211,869.565217391304,4,2,0,0,1,0
1645,882.352941176471,4,2,0,0,1,0
2086,1052.63157894737,4,2,0,0,1,0
2612,1034.48275862069,4,2,0,0,1,0
3646,1224.48979591837,4,2,0,0,1,0
4258,1621.62162162162,4,2,0,0,1,0
5068,1538.46153846154,4,2,0,0,1,0
8144,1395.3488372093,4,2,0,0,1,0
8841,1333.33333333333,4,2,0,0,1,0
23023,800,4,2,0,0,1,0
23423,-200,4,2,0,0,0,0
23823,800,4,2,0,0,1,0
25423,-133.333333333333,4,2,0,0,0,0
25823,-100,4,2,0,0,0,0
26223,-80,4,2,0,0,0,0
27023,-100,4,2,0,0,0,0
27423,-80,4,2,0,0,0,0
27823,-100,4,2,0,0,0,0
31823,-133.333333333333,4,2,0,0,0,0
32223,-100,4,2,0,0,0,0
32623,-80,4,2,0,0,0,0
33423,-100,4,2,0,0,0,0
33823,-80,4,2,0,0,0,0
34223,-100,4,2,0,0,0,0
36623,-80,4,2,0,0,0,0
38223,-133.333333333333,4,2,0,0,0,0
39823,-100,4,2,0,0,0,0
40623,-80,4,2,0,0,0,0
41423,-100,4,2,0,0,0,0
43023,-133.333333333333,4,2,0,0,0,0
46223,-100,4,2,0,0,0,0
47023,-133.333333333333,4,2,0,0,0,0
53423,-100,4,2,0,0,0,0
54223,-80,4,2,0,0,0,0
55023,-66.6666666666667,4,2,0,0,0,0
55823,-80,4,2,0,0,0,0
56223,-66.6666666666667,4,2,0,0,0,0
56623,-57.1428571428571,4,2,0,0,0,0
57423,-80,4,2,0,0,0,0
59423,-100,4,2,0,0,0,0
60623,-80,4,2,0,0,0,0
61023,-100,4,2,0,0,0,0
61423,-80,4,2,0,0,0,0
62223,-66.6666666666667,4,2,0,0,0,0
62623,-80,4,2,0,0,0,0
63023,-100,4,2,0,0,0,0
63823,-200,4,2,0,0,0,0
65223,-133.333333333333,4,2,0,0,0,0
65423,-100,4,2,0,0,0,0
65823,-200,4,2,0,0,0,0
67023,-133.333333333333,4,2,0,0,0,0
69423,-100,4,2,0,0,0,0
70223,-133.333333333333,4,2,0,0,0,0
110223,810.810810810811,4,2,0,0,1,0
132925,810.810810810811,4,2,0,0,1,0
133735,983.606557377049,4,2,0,0,1,0

[Colours]
Combo1 : 254,214,203
Combo2 : 254,216,248
Combo3 : 199,254,217
Combo4 : 203,222,254
Combo5 : 220,204,253
Combo6 : 254,250,197

[HitObjects]
117,80,23423,6,0,P|132:54|157:38,1,60.0000022888185
50,189,23823,6,0,P|35:151|37:112,1,80
235,64,24223,1,0,0:0:0:0:
452,289,24623,6,0,P|377:313|297:307,1,160
60,172,25223,1,0,0:0:0:0:
67,250,25423,6,0,L|73:309,1,60.0000022888184
207,285,25823,6,0,L|216:364,1,80
356,126,26223,6,0,L|379:324,1,200
452,289,26823,1,0,0:0:0:0:
379,324,27023,6,0,P|340:325|301:313,1,80
199,157,27423,2,0,P|242:180|265:223,1,100
54,341,27823,6,0,P|47:263|101:208,2,160
50,189,30223,6,0,P|35:151|37:112,1,80
235,64,30623,1,0,0:0:0:0:
452,289,31023,6,0,P|377:313|297:307,1,160
60,172,31623,1,0,0:0:0:0:
141,151,31823,6,0,L|199:139,1,60.0000022888184
243,318,32223,6,0,L|323:301,1,80
235,64,32623,6,0,L|431:24,1,200
509,6,33223,1,0,0:0:0:0:
509,6,33323,1,0,0:0:0:0:
431,24,33423,6,0,P|415:59|414:99,1,80
352,231,33823,2,0,P|365:280|397:318,1,100
476,306,34123,1,0,0:0:0:0:
396,317,34223,6,0,L|316:308,1,80
137,241,34623,2,0,L|216:249,1,80
352,231,35023,5,0,0:0:0:0:
0,67,35823,5,0,0:0:0:0:
82,35,36623,6,0,P|128:55|176:45,1,100
237,105,37023,1,0,0:0:0:0:
363,32,37423,5,0,0:0:0:0:
270,117,37623,1,0,0:0:0:0:
260,239,37823,1,0,0:0:0:0:
303,140,38023,1,0,0:0:0:0:
399,108,38223,6,0,P|426:118|456:114,1,60.0000022888184
512,177,38623,1,0,0:0:0:0:
419,337,39023,1,0,0:0:0:0:
478,191,39423,1,0,0:0:0:0:
334,241,39823,6,0,P|256:252|177:240,1,160
52,212,40423,1,0,0:0:0:0:
177,240,40623,2,0,L|166:140,1,100
154,23,41023,1,0,0:0:0:0:
57,112,41423,6,0,P|176:103|290:137,1,240
362,184,42223,1,0,0:0:0:0:
431,51,43023,6,0,P|450:28|477:15,1,60.0000022888184
361,183,43423,2,0,P|338:129|344:70,1,120.000004577637
500,215,44223,1,0,0:0:0:0:
288,244,44623,6,0,L|228:253,1,60.0000022888184
344,70,45023,2,0,L|225:89,1,120.000004577637
437,144,45823,1,0,0:0:0:0:
422,308,46023,1,0,0:0:0:0:
422,308,46123,1,0,0:0:0:0:
421,308,46223,6,0,P|356:350|280:333,1,160
83,341,46823,1,0,0:0:0:0:
83,341,46923,1,0,0:0:0:0:
83,341,47023,6,0,P|141:344|184:384,1,120.000004577637
3,273,47823,5,0,0:0:0:0:
3,273,52223,5,0,0:0:0:0:
49,195,52423,1,0,0:0:0:0:
69,194,52523,1,0,0:0:0:0:
102,203,52623,2,0,P|160:194|197:149,1,120.000004577637
421,63,53423,6,0,P|287:92|215:207,1,280
273,265,54223,6,0,P|359:133|225:52,1,350
154,113,55023,6,0,P|165:226|273:265,1,240.000009155274
19,302,55823,6,0,P|92:263|151:204,1,166.666666666667
205,187,56223,6,0,P|150:269|67:324,1,200.000007629395
14,374,56623,6,0,P|202:244|274:26,1,466.666671117147
59,57,57423,6,0,B|252:190|479:92|479:92|287:100|197:280,1,800
381,103,59423,6,0,P|305:78|225:72,2,160
463,71,60423,1,0,0:0:0:0:
463,71,60523,1,0,0:0:0:0:
463,71,60623,6,0,L|449:237,1,166.666666666667
484,236,61023,6,0,P|431:240|381:259,1,106.666666666667
298,338,61423,6,0,P|221:215|78:187,1,300
65,66,62223,6,0,L|49:245,1,180.000006866455
135,251,62623,6,0,L|126:350,1,100
311,178,63023,6,0,L|297:337,1,160
381,103,63623,1,0,0:0:0:0:
237,49,63823,6,0,L|217:288,1,240
217,288,65223,6,0,L|223:258,1,30.0000011444092
297,337,65423,2,0,L|305:298,1,40
381,259,65623,2,0,L|389:220,1,40
469,223,65823,6,0,L|481:164,1,60
455,101,66223,6,0,L|438:179,1,80
398,49,67023,6,0,P|299:113|181:116,1,240.000009155274
144,43,68223,1,0,0:0:0:0:
77,88,68423,1,0,0:0:0:0:
22,37,68623,6,0,L|41:155,1,120.000004577637
75,319,69423,6,0,P|207:314|320:246,1,266.666666666667
335,170,70223,6,0,P|466:87|393:224,1,420.000016021729
412,146,71723,1,0,0:0:0:0:
412,146,71823,6,0,L|174:110,1,240.000009155274
83,99,73023,1,0,0:0:0:0:
60,172,73223,1,0,0:0:0:0:
138,253,73423,6,0,P|275:175|176:52,1,360.000013732911
60,172,74823,1,0,0:0:0:0:
60,172,74923,1,0,0:0:0:0:
60,172,75023,6,0,L|64:291,1,120.000004577637
250,351,75823,1,0,0:0:0:0:
316,301,76023,1,0,0:0:0:0:
405,328,76223,5,0,0:0:0:0:
316,301,76473,5,0,0:0:0:0:
298,200,76723,5,0,0:0:0:0:
350,58,77089,6,0,L|358:137,2,80.0000030517579
416,0,77973,5,0,0:0:0:0:
448,75,78323,5,0,0:0:0:0:
512,0,79023,5,0,0:0:0:0:
448,75,79823,6,0,L|457:195,1,120.000004577637
401,245,80623,2,0,P|393:304|408:361,1,120.000004577637
317,340,81423,6,0,P|198:325|78:327,1,240.000009155274
299,251,82623,1,0,0:0:0:0:
78,327,83023,2,0,L|90:87,1,240
54,10,84623,6,0,P|113:10|165:38,1,120.000004577637
163,117,85423,2,0,P|222:116|281:103,1,120.000004577637
286,16,86223,2,0,L|273:255,1,240
344,195,87823,6,0,P|373:246|372:305,1,120.000004577637
453,207,88623,2,0,P|451:147|481:96,1,120.000004577637
430,2,89423,2,0,P|368:100|253:111,1,240.000009155274
98,52,91023,5,0,0:0:0:0:
181,63,91423,1,0,0:0:0:0:
191,149,91823,1,0,0:0:0:0:
286,34,92223,1,0,0:0:0:0:
368,52,92623,1,0,0:0:0:0:
443,301,94023,1,0,0:0:0:0:
443,301,94123,1,0,0:0:0:0:
443,301,94223,6,0,L|323:292,1,120.000004577637
261,140,95023,2,0,P|240:195|250:254,1,120.000004577637
323,292,95823,2,0,L|84:316,1,240.000009155274
35,149,97423,2,0,L|92:165,1,60.0000022888184
60,238,97823,2,0,L|117:254,1,60.0000022888184
193,225,98223,5,0,0:0:0:0:
272,216,98423,1,0,0:0:0:0:
292,352,98623,1,0,0:0:0:0:
372,332,98823,1,0,0:0:0:0:
462,343,99023,6,0,P|485:287|483:228,1,120.000004577637
512,157,99823,2,0,P|456:134|397:136,1,120.000004577637
339,36,100623,6,0,P|250:49|160:48,1,180.000006866455
144,121,101323,1,0,0:0:0:0:
144,121,101423,2,0,L|137:150,2,30.0000011444092
227,142,101823,1,0,0:0:0:0:
262,213,102023,5,0,0:0:0:0:
212,301,102223,5,0,0:0:0:0:
357,255,102623,1,0,0:0:0:0:
456,344,103023,2,0,P|399:358|344:337,1,120.000004577637
357,255,103623,1,0,0:0:0:0:
344,336,103823,6,0,L|224:348,2,120.000004577637
253,164,105423,2,0,L|14:187,1,240.000009155274
232,253,106623,1,0,0:0:0:0:
351,225,106823,1,0,0:0:0:0:
351,225,106923,1,0,0:0:0:0:
351,224,107023,6,0,P|385:176|392:117,1,120.000004577637
304,332,108623,2,0,P|362:338|411:373,1,120.000004577637
267,225,109423,2,0,L|273:105,1,120.000004577637
272,105,110123,6,0,L|258:62,1,45.0000017166138
267,225,110527,5,0,0:0:0:0:
272,105,110729,1,0,0:0:0:0:
170,185,111084,1,0,0:0:0:0:
170,185,111692,6,0,P|171:224|179:263,1,80
262,223,112098,1,0,0:0:0:0:
272,105,112300,1,0,0:0:0:0:
373,140,113060,1,0,0:0:0:0:
490,328,113466,5,0,0:0:0:0:
416,304,113668,1,0,0:0:0:0:
336,311,113871,1,0,0:0:0:0:
263,279,114074,1,0,0:0:0:0:
195,324,114277,1,0,0:0:0:0:
81,297,114682,5,0,0:0:0:0:
13,343,115087,5,0,0:0:0:0:
81,297,115290,1,0,0:0:0:0:
163,296,115493,1,0,0:0:0:0:
242,275,116709,5,0,0:0:0:0:
325,296,116912,1,0,0:0:0:0:
345,208,117114,1,0,0:0:0:0:
471,117,117520,5,0,0:0:0:0:
367,25,118128,1,0,0:0:0:0:
324,103,118331,5,0,0:0:0:0:
241,120,118533,1,0,0:0:0:0:
172,61,118736,1,0,0:0:0:0:
19,96,119497,1,0,0:0:0:0:
109,240,119902,5,0,0:0:0:0:
179,206,120104,1,0,0:0:0:0:
254,229,120307,1,0,0:0:0:0:
388,219,120713,1,0,0:0:0:0:
342,357,121118,1,0,0:0:0:0:
470,283,121523,1,0,0:0:0:0:
470,283,121777,5,0,0:0:0:0:
387,264,121979,1,0,0:0:0:0:
302,288,122182,1,0,0:0:0:0:
254,229,122385,1,0,0:0:0:0:
232,371,122790,1,0,0:0:0:0:
76,208,123195,5,0,0:0:0:0:
137,257,123398,1,0,0:0:0:0:
248,189,123601,1,0,0:0:0:0:
220,56,124006,5,0,0:0:0:0:
291,81,124209,1,0,0:0:0:0:
358,47,124412,1,0,0:0:0:0:
427,119,124614,1,0,0:0:0:0:
497,25,124817,5,0,0:0:0:0:
501,102,125020,1,0,0:0:0:0:
427,119,125223,1,0,0:0:0:0:
299,160,125628,1,0,0:0:0:0:
369,188,125831,1,0,0:0:0:0:
480,175,126033,1,0,0:0:0:0:
455,252,126439,5,0,0:0:0:0:
390,298,126641,1,0,0:0:0:0:
312,277,126844,1,0,0:0:0:0:
202,302,127047,1,0,0:0:0:0:
125,278,127250,5,0,0:0:0:0:
39,348,127452,1,0,0:0:0:0:
25,258,127655,1,0,0:0:0:0:
68,127,128060,5,0,0:0:0:0:
119,189,128263,1,0,0:0:0:0:
165,94,128466,1,0,0:0:0:0:
273,193,128871,5,0,0:0:0:0:
197,168,129682,5,0,0:0:0:0:
290,99,129885,1,0,0:0:0:0:
359,149,130087,1,0,0:0:0:0:
489,144,130898,5,0,0:0:0:0:
450,288,131304,5,0,0:0:0:0:
370,256,131506,1,0,0:0:0:0:
286,331,131709,1,0,0:0:0:0:
204,327,132520,5,0,0:0:0:0:
246,249,132925,5,0,0:0:0:0:
137,232,133330,5,0,0:0:0:0:
83,168,133533,1,0,0:0:0:0:
45,317,133735,1,0,0:0:0:0:
126,309,134226,5,0,0:0:0:0:
191,384,134718,5,0,0:0:0:0:
