osu file format v14

[General]
AudioFilename: audio.mp3
AudioLeadIn: 0
PreviewTime: 91410
Countdown: 1
SampleSet: Normal
StackLeniency: 0.7
Mode: 0
LetterboxInBreaks: 0
WidescreenStoryboard: 0

[Editor]
Bookmarks: 219428,228571
DistanceSpacing: 0.1
BeatDivisor: 4
GridSize: 4
TimelineZoom: 2.999999

[Metadata]
Title:Policeman
TitleUnicode:Policeman
Artist:Eva Simons feat. Konshens
ArtistUnicode:Eva Simons feat. Konshens
Creator:dima21
Version:WaRNiNR
Source:
Tags:
BeatmapID:1505555
BeatmapSetID:712165

[Difficulty]
HPDrainRate:4.4
CircleSize:3.7
OverallDifficulty:8.8
ApproachRate:9.8
SliderMultiplier:2.8
SliderTickRate:1

[Events]
//Background and Video events
0,0,"maxresdefault.jpg",0,0
//Break Periods
2,36628,42949
2,61913,63521
2,80043,81806
2,100771,106949
2,125771,127521
2,164771,170949
2,189913,191521
2,208056,209806
//Storyboard Layer 0 (Background)
//Storyboard Layer 1 (Fail)
//Storyboard Layer 2 (Pass)
//Storyboard Layer 3 (Foreground)
//Storyboard Sound Samples

[TimingPoints]
0,285.714285714286,4,1,0,60,1,0
64000,-90.9090909090909,4,1,0,60,0,1
82285,-100,4,1,0,60,0,0
192000,-90.9090909090909,4,1,0,60,0,1
210285,-100,4,1,0,60,0,0

[HitObjects]
40,156,0,6,0,P|196:144|48:220,1,420
280,308,857,1,0,0:0:0:0:
120,176,1142,6,0,P|120:84|152:200,1,420
400,132,2000,1,0,0:0:0:0:
320,280,2142,1,0,0:0:0:0:
464,184,2285,6,0,P|344:192|480:152,1,420
108,268,3142,1,0,0:0:0:0:
80,68,3428,6,0,P|100:144|96:40,1,420
212,304,4285,5,0,0:0:0:0:
216,288,4357,1,0,0:0:0:0:
224,272,4428,1,0,0:0:0:0:
236,260,4500,1,0,0:0:0:0:
248,244,4571,6,0,P|336:184|248:268,1,420
172,56,5428,1,0,0:0:0:0:
346,299,5714,6,0,P|462:208|322:255,1,420
0,316,6571,2,0,P|28:234|109:175,1,140
219,283,6857,6,0,P|104:375|181:250,1,420
276,172,7714,2,0,P|228:180|276:180,1,140
172,265,8000,5,0,0:0:0:0:
172,98,8142,1,0,0:0:0:0:
337,98,8285,1,0,0:0:0:0:
338,265,8428,1,0,0:0:0:0:
92,192,8571,5,0,2:0:0:0:
262,342,8714,1,0,2:0:0:0:
412,175,8857,1,0,2:0:0:0:
242,21,8999,1,0,2:0:0:0:
24,94,9142,6,0,B|86:97|86:97|113:111|113:111|164:115,1,140
261,241,9428,1,0,0:0:0:0:
179,265,9571,1,0,0:0:0:0:
194,183,9714,1,0,0:0:0:0:
243,319,9857,1,0,0:0:0:0:
119,210,10000,2,0,P|139:127|196:104,1,140
415,128,10285,6,0,B|423:166|434:191|434:191|419:218|419:218|425:250|430:277,1,140
332,168,10571,1,0,0:0:0:0:
320,88,10714,1,0,0:0:0:0:
280,232,10857,1,0,0:0:0:0:
400,212,11000,1,0,0:0:0:0:
249,129,11142,2,0,P|237:87|245:41,1,70
397,51,11285,2,0,P|404:85|400:120,1,70
336,340,11428,6,0,B|268:336|233:352|233:352|254:313,1,140
400,204,11714,1,0,0:0:0:0:
284,224,11857,1,0,0:0:0:0:
172,288,12000,1,0,0:0:0:0:
272,208,12142,1,0,0:0:0:0:
94,301,12285,2,0,P|115:235|177:209,1,140
408,352,12571,6,0,B|400:320|428:298|428:298|416:272|416:272|436:240|442:204,1,140
472,68,12857,1,0,0:0:0:0:
376,156,13000,1,0,0:0:0:0:
360,44,13143,1,0,0:0:0:0:
484,180,13286,1,0,0:0:0:0:
256,56,13428,2,0,P|276:100|308:132,1,70
384,240,13571,2,0,P|363:261|351:302,1,70
196,208,13714,6,0,B|195:255|184:280|184:280|197:308|208:364,1,140
384,240,14000,1,0,0:0:0:0:
304,264,14143,1,0,0:0:0:0:
464,262,14286,1,0,0:0:0:0:
264,332,14428,1,0,0:0:0:0:
512,324,14571,2,0,P|454:340|386:275,1,140
364,132,14857,6,0,P|284:124|220:180,1,140
28,272,15143,1,0,0:0:0:0:
154,272,15286,1,0,0:0:0:0:
154,145,15429,1,0,0:0:0:0:
27,145,15572,1,0,0:0:0:0:
234,162,15714,2,0,P|217:96|157:63,1,140
324,300,16000,6,0,B|340:228|332:192|332:192|357:220,1,140
344,60,16286,1,0,0:0:0:0:
244,159,16429,1,0,0:0:0:0:
144,59,16572,1,0,0:0:0:0:
144,252,16715,1,0,0:0:0:0:
88,124,16857,2,0,P|120:144|160:148,1,70
226,21,17000,2,0,P|231:65|214:108,1,70
216,312,17142,5,0,0:0:0:0:
235,22,17285,1,0,0:0:0:0:
330,268,17428,5,0,0:0:0:0:
122,66,17571,1,0,0:0:0:0:
107,296,17714,5,0,0:0:0:0:
352,57,17857,1,0,0:0:0:0:
59,170,18000,5,0,0:0:0:0:
400,183,18142,1,0,0:0:0:0:
72,168,18285,6,0,B|102:93|174:49|174:49|201:76|272:78|272:78|195:107|164:160|164:160|188:152,1,420
280,308,19142,1,0,0:0:0:0:
88,361,19427,6,0,B|125:291|170:253|170:253|154:227|121:223|121:223|94:236|66:220|66:220|35:227|24:258|24:258|65:293|88:360,1,420
400,132,20285,1,0,0:0:0:0:
320,280,20427,1,0,0:0:0:0:
204,176,20570,6,0,B|159:153|80:193|80:193|87:104|87:104|147:80|198:90|198:90|228:63|228:63|248:83|296:84,1,420
152,264,21427,1,0,0:0:0:0:
336,224,21713,6,0,P|356:300|352:196,1,420
144,96,22571,2,0,L|148:180,3,70
264,204,22856,6,0,B|318:136|331:65|331:65|349:142|401:195|401:195|328:173|266:202,1,420
200,56,23713,1,0,0:0:0:0:
258,198,23999,6,0,B|314:250|384:236|384:236|408:183|383:153|383:153|319:146|319:146|325:222|274:297,1,420
0,316,24856,2,0,P|28:234|109:175,1,140
219,283,25142,6,0,P|104:375|181:250,1,420
276,172,25999,2,0,P|228:180|276:180,1,140
242,21,26285,5,0,2:0:0:0:
412,175,26427,1,0,2:0:0:0:
262,342,26570,1,0,2:0:0:0:
92,192,26713,1,0,2:0:0:0:
338,265,26856,5,0,0:0:0:0:
337,98,26999,1,0,0:0:0:0:
172,98,27142,1,0,0:0:0:0:
172,265,27284,1,0,0:0:0:0:
16,84,27428,6,0,B|78:87|78:87|105:101|105:101|156:105,1,140
276,204,27714,1,0,0:0:0:0:
179,265,27857,1,0,0:0:0:0:
328,104,28000,2,0,P|379:137|425:200,1,140,0|0,2:0|2:0,2:0:0:0:
173,281,28286,2,0,P|121:247|75:184,1,140
427,340,28571,6,0,B|426:330|420:298|420:298|435:271|435:271|424:246|416:208,1,140
244,52,28857,1,0,0:0:0:0:
240,204,29000,1,0,0:0:0:0:
464,88,29142,2,0,P|408:29|340:1,1,140
249,129,29428,2,0,P|237:87|245:41,1,70
460,92,29571,2,0,P|467:126|463:161,1,70
269,316,29714,6,0,B|253:348|253:348|288:332|356:336,1,140
376,140,30000,1,0,0:0:0:0:
464,324,30143,1,0,0:0:0:0:
176,144,30285,2,0,B|217:172|228:220|228:220|251:213|288:216,1,140
64,316,30571,2,0,P|85:250|147:224,1,140
368,384,30857,6,0,B|360:352|388:330|388:330|376:304|376:304|396:272|402:236,1,140
384,24,31143,1,0,0:0:0:0:
460,128,31286,1,0,0:0:0:0:
380,256,31428,6,0,B|379:269|359:301|359:301|371:327|371:327|343:349|351:381,1,140
256,56,31714,2,0,P|276:100|308:132,1,70
384,240,31857,2,0,P|363:261|351:302,1,70
144,288,32000,6,0,B|137:252|124:224|124:224|135:199|136:152,1,140
352,64,32286,1,0,0:0:0:0:
388,248,32429,1,0,0:0:0:0:
500,88,32571,2,0,B|486:129|452:168|452:168|458:192|456:236,1,140
507,275,32857,2,0,P|449:291|381:226,1,140
276,96,33143,6,0,P|196:88|132:144,1,140
28,272,33429,1,0,0:0:0:0:
168,368,33572,1,0,0:0:0:0:
224,160,33714,2,0,P|296:228|308:288,1,140
504,180,34000,2,0,B|451:161|451:161|440:129|440:129|379:113,1,140
388,336,34286,6,0,B|404:264|396:228|396:228|421:256,1,140
344,60,34572,1,0,0:0:0:0:
244,159,34715,1,0,0:0:0:0:
120,304,34857,2,0,B|170:291|188:268|188:268|212:284|256:280,1,140
88,124,35143,2,0,P|120:144|160:148,1,70
226,21,35286,2,0,P|231:65|214:108,1,70
461,210,35428,5,0,0:0:0:0:
46,194,35570,1,0,0:0:0:0:
403,57,35713,5,0,0:0:0:0:
105,347,35856,1,0,0:0:0:0:
123,67,35999,5,0,0:0:0:0:
376,313,36142,1,0,0:0:0:0:
260,14,36285,5,0,0:0:0:0:
237,367,36428,1,0,0:0:0:0:
256,192,43428,12,0,45642,0:0:0:0:
160,120,45714,6,0,B|172:177|172:177|161:218|161:218|168:276,1,140
276,172,46000,2,0,B|288:124|283:80|283:80|305:125,1,140
426,123,46285,1,0,0:0:0:0:
337,331,46428,1,0,0:0:0:0:
128,243,46571,1,0,0:0:0:0:
216,33,46714,1,0,0:0:0:0:
391,211,46857,2,0,B|348:163|320:160|320:160|300:133|259:111,1,140
104,100,47142,5,0,0:0:0:0:
104,324,47285,1,0,0:0:0:0:
192,84,47428,1,0,0:0:0:0:
24,296,47571,1,0,0:0:0:0:
284,160,47714,1,0,0:0:0:0:
0,192,47857,1,0,0:0:0:0:
272,320,48000,2,0,B|316:312|345:272|345:272|368:280|408:272,1,140
424,160,48285,5,0,0:0:0:0:
128,144,48428,1,0,0:0:0:0:
280,0,48571,1,0,0:0:0:0:
272,304,48714,1,0,0:0:0:0:
388,52,48857,1,0,0:0:0:0:
176,48,49000,1,0,0:0:0:0:
284,288,49142,2,0,B|310:281|334:257|334:257|359:284|406:289,1,140
152,204,49428,5,0,0:0:0:0:
418,204,49571,1,0,0:0:0:0:
229,15,49714,1,0,0:0:0:0:
229,281,49857,1,0,0:0:0:0:
417,92,50000,1,0,0:0:0:0:
152,92,50142,1,0,0:0:0:0:
108,364,50285,2,0,B|144:337|144:337|160:297|160:297|181:295|209:280,1,140
152,92,50571,6,0,B|151:134|169:160|169:160|152:187|152:187|163:211|160:248,1,140
292,168,50857,2,0,B|300:100|292:52|292:52|312:84,1,140
424,48,51142,1,0,0:0:0:0:
388,252,51285,1,0,0:0:0:0:
264,64,51428,1,0,0:0:0:0:
464,196,51571,1,0,0:0:0:0:
166,218,51714,2,0,B|200:240|227:246|227:246|239:270|280:300,1,140
80,88,51999,5,0,0:0:0:0:
104,324,52142,1,0,0:0:0:0:
192,76,52285,1,0,0:0:0:0:
24,280,52428,1,0,0:0:0:0:
268,160,52571,1,0,0:0:0:0:
68,64,52857,5,0,0:0:0:0:
208,264,53000,1,0,0:0:0:0:
124,28,53285,5,0,0:0:0:0:
140,296,53428,2,0,P|168:328|220:340,1,70
316,340,53571,2,0,P|392:333|468:376,1,140
280,164,53857,6,0,B|289:131|306:122|306:122|310:81|310:81|331:69|340:40,1,140
432,144,54142,2,0,P|420:177|384:224,1,70
202,175,54285,2,0,P|238:232|305:240,2,140
108,76,54714,1,0,0:0:0:0:
127,355,54856,6,0,P|143:285|120:216,1,140
312,148,55142,2,0,B|320:72|312:32|312:32|330:61,1,140
224,272,55427,1,0,0:0:0:0:
412,208,55570,1,0,0:0:0:0:
212,124,55713,1,0,0:0:0:0:
376,320,55856,1,0,0:0:0:0:
376,108,55999,2,0,B|332:73|302:69|302:69|285:40|244:8,1,140
80,88,56284,5,0,0:0:0:0:
104,324,56427,1,0,0:0:0:0:
192,76,56570,1,0,0:0:0:0:
24,280,56713,1,0,0:0:0:0:
268,160,56856,1,0,0:0:0:0:
12,176,56999,1,0,0:0:0:0:
180,328,57142,2,0,B|240:312|264:280|264:280|283:267|319:272,1,140
452,232,57427,5,0,0:0:0:0:
156,176,57570,1,0,0:0:0:0:
464,264,57713,1,0,0:0:0:0:
136,128,57856,1,0,0:0:0:0:
384,360,57999,1,0,0:0:0:0:
284,36,58142,1,0,0:0:0:0:
340,260,58284,2,0,B|296:268|264:248|264:248|240:272|180:272,1,140
48,288,58570,5,0,0:0:0:0:
336,252,58713,1,0,0:0:0:0:
156,64,58856,1,0,0:0:0:0:
72,300,58999,1,0,0:0:0:0:
324,240,59142,1,0,0:0:0:0:
144,64,59284,1,0,0:0:0:0:
84,304,59427,2,0,B|129:275|164:244|164:244|160:276|148:297,1,140
141,148,59713,6,0,B|133:192|164:243|164:243|149:304,1,140
230,201,59999,2,0,B|201:151|230:85|230:85|257:98,1,140
436,84,60284,5,0,0:0:0:0:
384,296,60427,1,0,0:0:0:0:
496,184,60570,1,0,0:0:0:0:
268,300,60713,1,0,0:0:0:0:
496,256,60856,2,0,B|449:262|417:194|417:194|370:208,1,140
80,88,61141,5,0,0:0:0:0:
104,324,61284,1,0,0:0:0:0:
192,76,61427,1,0,0:0:0:0:
280,300,61571,2,0,B|312:284|323:258|323:258|336:316|372:364,1,140
144,196,64000,6,0,B|187:169|203:139|203:139|230:148|284:132,1,154.000004699707
408,272,64285,1,0,0:0:0:0:
292,28,64428,1,0,0:0:0:0:
224,328,64571,1,0,0:0:0:0:
448,96,64714,1,0,0:0:0:0:
144,196,64857,6,0,B|192:224|227:223|227:223|237:255|276:272,1,154.000004699707
436,360,65142,1,0,0:0:0:0:
376,44,65285,1,0,0:0:0:0:
140,292,65428,1,0,0:0:0:0:
452,204,65571,1,0,0:0:0:0:
148,64,65714,1,0,0:0:0:0:
288,376,65857,1,0,0:0:0:0:
168,56,66000,1,0,0:0:0:0:
384,300,66142,1,0,0:0:0:0:
280,140,66285,6,0,B|321:122|337:90|337:90|372:108|420:108,1,154.000004699707
384,280,66571,1,0,0:0:0:0:
108,172,66714,1,0,0:0:0:0:
388,196,66857,1,0,0:0:0:0:
176,332,67000,1,0,0:0:0:0:
240,8,67142,6,0,B|237:48|280:88|280:88|264:128|284:156,1,154.000004699707
196,332,67428,1,0,0:0:0:0:
320,20,67571,1,0,0:0:0:0:
88,256,67714,1,0,0:0:0:0:
436,192,67857,1,0,0:0:0:0:
152,60,68000,1,0,0:0:0:0:
296,364,68142,1,0,0:0:0:0:
396,60,68285,1,0,0:0:0:0:
284,356,68428,1,0,0:0:0:0:
380,133,68571,6,0,P|451:114|468:43,1,154.000004699707
284,140,68857,1,0,0:0:0:0:
376,256,69000,1,0,0:0:0:0:
152,176,69142,1,0,0:0:0:0:
384,376,69285,1,0,0:0:0:0:
213,115,69428,6,0,P|289:64|353:115,1,154.000004699707
504,224,69714,1,0,0:0:0:0:
268,384,69857,1,0,0:0:0:0:
284,140,70000,1,0,0:0:0:0:
504,208,70142,1,0,0:0:0:0:
268,376,70285,1,0,0:0:0:0:
288,136,70428,1,0,0:0:0:0:
152,280,70571,1,0,0:0:0:0:
368,376,70714,1,0,0:0:0:0:
168,104,70857,5,0,0:0:0:0:
440,144,71000,1,0,0:0:0:0:
432,132,71142,1,0,0:0:0:0:
160,276,71285,1,0,0:0:0:0:
464,320,71428,1,0,0:0:0:0:
304,68,71571,1,0,0:0:0:0:
284,64,71714,1,0,0:0:0:0:
304,340,71857,1,0,0:0:0:0:
256,192,72000,12,0,73071,0:0:0:0:
184,84,73142,5,0,0:0:0:0:
280,304,73285,1,0,0:0:0:0:
312,52,73428,1,0,0:0:0:0:
140,356,73571,1,0,0:0:0:0:
108,8,73714,1,0,0:0:0:0:
372,376,73857,1,0,0:0:0:0:
280,132,74000,5,0,0:0:0:0:
72,208,74142,1,0,0:0:0:0:
376,252,74285,1,0,0:0:0:0:
192,16,74428,1,0,0:0:0:0:
232,336,74571,1,0,0:0:0:0:
384,60,74714,1,0,0:0:0:0:
80,300,74857,5,0,0:0:0:0:
456,168,75000,1,0,0:0:0:0:
112,64,75142,1,0,0:0:0:0:
336,328,75285,1,0,0:0:0:0:
232,28,75428,5,0,0:0:0:0:
136,240,75571,1,0,0:0:0:0:
384,172,75714,1,0,0:0:0:0:
224,384,75857,1,0,0:0:0:0:
312,100,76000,1,0,0:0:0:0:
72,120,76142,1,0,0:0:0:0:
332,292,76285,5,0,0:0:0:0:
216,36,76428,1,0,0:0:0:0:
236,360,76571,1,0,0:0:0:0:
432,96,76714,1,0,0:0:0:0:
120,248,76857,1,0,0:0:0:0:
448,224,77000,1,0,0:0:0:0:
196,44,77142,5,0,0:0:0:0:
384,352,77285,1,0,0:0:0:0:
508,40,77428,1,0,0:0:0:0:
228,56,77571,1,0,0:0:0:0:
260,284,77714,5,0,0:0:0:0:
340,64,77857,1,0,0:0:0:0:
360,304,78000,1,0,0:0:0:0:
176,104,78142,1,0,0:0:0:0:
424,216,78285,1,0,0:0:0:0:
96,284,78428,1,0,0:0:0:0:
424,200,78571,5,0,0:0:0:0:
108,264,78714,1,0,0:0:0:0:
188,88,78857,1,0,0:0:0:0:
376,296,79000,1,0,0:0:0:0:
352,56,79142,5,0,0:0:0:0:
272,272,79285,1,0,0:0:0:0:
80,168,79428,5,0,0:0:0:0:
104,160,79500,1,0,0:0:0:0:
132,156,79571,1,0,0:0:0:0:
160,160,79642,1,0,0:0:0:0:
188,164,79714,2,0,P|280:172|344:144,1,140
131,225,82285,6,0,P|147:142|139:221,1,280
300,216,82714,1,0,0:0:0:0:
128,308,82857,2,0,P|40:284|-4:240,1,140
96,52,83142,2,0,P|184:76|228:120,1,140
336,324,83428,6,0,P|322:247|354:331,1,280
348,136,83857,1,0,0:0:0:0:
492,303,84000,2,0,P|452:183|417:159,1,140
220,132,84285,1,0,0:0:0:0:
364,280,84428,1,0,0:0:0:0:
348,136,84571,6,0,B|418:92|418:92|508:100,1,140
364,280,84857,2,0,B|296:329|296:329|200:332,1,140
264,200,85142,2,0,B|215:132|215:132|213:75,1,140
416,204,85428,2,0,B|465:272|465:272|466:328,1,140
212,264,85714,6,0,P|125:329|199:298,1,420
11,169,86285,2,0,P|138:106|280:189,1,280
280,192,86642,5,0,0:0:0:0:
312,144,86714,1,0,0:0:0:0:
296,96,86785,1,0,0:0:0:0:
261,69,86857,2,0,P|195:39|104:35,1,140
138,256,87142,5,0,0:0:0:0:
324,144,87285,1,0,0:0:0:0:
344,352,87428,2,0,B|312:320|303:286|303:286|277:279|240:252,1,140
48,248,87714,2,0,P|104:172|176:172,1,140
336,0,88000,6,0,B|334:60|334:60|317:93|317:93|312:180,1,140
385,262,88285,2,0,L|392:96,1,140
448,4,88571,2,0,B|450:64|450:64|467:97|467:97|472:184,1,140
384,348,88857,5,0,0:0:0:0:
390,122,89000,1,0,0:0:0:0:
224,184,89142,2,0,P|147:264|272:280,1,280
384,128,89571,1,0,0:0:0:0:
228,168,89714,2,0,P|184:100|220:180,1,280
390,122,90142,1,0,0:0:0:0:
256,192,90285,12,0,91357,0:0:0:0:
164,228,91428,6,0,P|180:145|172:224,1,280
292,188,91857,1,0,0:0:0:0:
155,307,92000,2,0,P|71:288|23:235,1,140
388,161,92285,6,0,P|388:244|350:302,1,140
192,104,92571,2,0,P|276:56|392:188,1,280
276,168,93000,1,0,0:0:0:0:
360,291,93142,6,0,P|282:320|214:306,1,140
196,92,93428,1,0,0:0:0:0:
224,304,93571,1,0,0:0:0:0:
4,220,93714,6,0,B|72:183|72:183|164:184,1,140
228,311,94000,6,0,B|160:348|160:348|97:347,1,140
134,183,94285,2,0,P|104:118|110:51,1,140
280,64,94571,2,0,P|310:129|304:196,1,140
228,311,94857,6,0,B|305:329|305:329|396:399,1,140
196,92,95142,1,0,0:0:0:0:
368,344,95285,1,0,0:0:0:0:
214,110,95428,2,0,B|272:93|320:115|320:115|356:59|356:59|414:74|482:64,1,280
408,204,95785,5,0,0:0:0:0:
364,212,95857,1,0,0:0:0:0:
328,232,95928,1,0,0:0:0:0:
280,220,96000,2,0,B|222:264|222:264|184:328,1,140
316,144,96285,5,0,0:0:0:0:
284,320,96428,1,0,0:0:0:0:
490,223,96571,2,0,P|472:151|386:123,1,140
192,68,96857,6,0,B|127:90|127:90|98:172,1,140
223,0,97143,2,0,P|268:54|229:134,1,140
92,304,97428,2,0,B|76:241|76:241|108:136,1,140
124,373,97714,2,0,P|169:319|130:239,1,140
24,148,98000,5,0,0:0:0:0:
192,68,98143,1,0,0:0:0:0:
272,196,98285,2,0,P|349:276|224:292,1,280
368,120,98714,1,0,0:0:0:0:
232,304,98857,6,0,P|188:236|224:316,1,280
392,204,99285,1,0,0:0:0:0:
188,284,99428,1,0,0:0:0:0:
360,336,99571,1,0,0:0:0:0:
244,140,99714,5,0,0:0:0:0:
272,372,99857,1,0,0:0:0:0:
344,120,100000,1,0,0:0:0:0:
104,344,100142,1,0,0:0:0:0:
472,260,100285,1,0,0:0:0:0:
112,168,100428,1,0,0:0:0:0:
448,368,100571,1,0,0:0:0:0:
256,192,107428,12,0,109642,0:0:0:0:
184,336,109714,6,0,B|179:296|179:296|190:255|190:255|178:198,1,140
296,96,110000,2,0,B|275:53|275:53|280:97|268:145,1,140
420,316,110285,1,0,0:0:0:0:
400,144,110428,1,0,0:0:0:0:
308,352,110571,1,0,0:0:0:0:
508,152,110714,1,0,0:0:0:0:
288,216,110857,2,0,B|305:223|325:250|325:250|353:253|396:301,1,140
288,112,111142,5,0,0:0:0:0:
148,332,111285,1,0,0:0:0:0:
392,160,111428,1,0,0:0:0:0:
156,176,111571,1,0,0:0:0:0:
312,336,111714,1,0,0:0:0:0:
184,68,111857,1,0,0:0:0:0:
170,254,112000,2,0,B|144:260|121:252|121:252|92:292|48:300,1,140
396,176,112285,5,0,0:0:0:0:
108,104,112428,1,0,0:0:0:0:
152,336,112571,1,0,0:0:0:0:
288,116,112714,1,0,0:0:0:0:
256,348,112857,1,0,0:0:0:0:
380,72,113000,1,0,0:0:0:0:
220,264,113142,2,0,B|246:257|270:233|270:233|295:260|342:265,1,140
152,140,113428,5,0,0:0:0:0:
404,344,113571,1,0,0:0:0:0:
300,36,113714,1,0,0:0:0:0:
132,232,113857,1,0,0:0:0:0:
460,128,114000,1,0,0:0:0:0:
164,36,114142,1,0,0:0:0:0:
208,292,114285,2,0,B|180:307|159:309|159:309|143:349|143:349|107:376,1,140
308,376,114571,6,0,B|310:364|299:340|299:340|316:313|316:313|298:287|299:245,1,140
304,72,114857,2,0,B|292:52|292:52|300:100|292:168,1,140
400,364,115142,1,0,0:0:0:0:
376,60,115285,1,0,0:0:0:0:
376,260,115428,1,0,0:0:0:0:
432,148,115571,1,0,0:0:0:0:
400,372,115714,2,0,B|366:350|339:344|339:344|327:320|289:292,1,140
144,124,115999,5,0,0:0:0:0:
160,336,116142,1,0,0:0:0:0:
256,116,116285,1,0,0:0:0:0:
20,204,116428,1,0,0:0:0:0:
272,128,116571,2,0,B|319:122|346:111|346:111|372:120|412:120,1,140
112,84,116857,5,0,0:0:0:0:
236,292,117000,1,0,0:0:0:0:
280,44,117142,1,0,0:0:0:0:
136,212,117285,5,0,0:0:0:0:
384,262,117428,2,0,B|354:235|354:235|320:216,1,70
396,248,117571,2,0,B|345:193|345:193|256:176,1,140
338,43,117857,6,0,B|331:69|310:81|310:81|306:122|306:122|289:131|280:164,1,140
401,206,118142,2,0,P|420:176|432:144,1,70
202,175,118285,2,0,P|238:232|305:240,2,140
107,72,118714,1,0,0:0:0:0:
125,355,118856,6,0,B|114:311|114:311|129:269|129:269|120:216,1,140
16,56,119142,2,0,B|28:35|28:35|20:75|28:151,1,140
200,312,119427,1,0,0:0:0:0:
384,160,119570,1,0,0:0:0:0:
110,148,119713,1,0,0:0:0:0:
360,304,119856,1,0,0:0:0:0:
264,52,119999,2,0,B|282:65|299:94|299:94|329:98|373:133,1,140
184,212,120284,5,0,0:0:0:0:
304,368,120427,1,0,0:0:0:0:
296,176,120570,1,0,0:0:0:0:
176,352,120713,1,0,0:0:0:0:
456,200,120857,2,0,P|423:217|466:207,1,140
316,284,121142,2,0,B|376:268|400:236|400:236|419:223|455:228,1,140
356,92,121427,5,0,0:0:0:0:
300,364,121570,1,0,0:0:0:0:
488,124,121713,1,0,0:0:0:0:
216,176,121856,1,0,0:0:0:0:
476,324,121999,1,0,0:0:0:0:
444,16,122142,1,0,0:0:0:0:
340,260,122284,2,0,B|296:268|264:248|264:248|240:272|180:272,1,140
48,288,122570,5,0,0:0:0:0:
336,252,122713,1,0,0:0:0:0:
156,64,122856,1,0,0:0:0:0:
64,292,123000,6,0,P|91:262|120:248,1,70
332,232,123142,2,0,P|297:208|280:168,1,70
144,64,123284,1,0,0:0:0:0:
84,304,123427,2,0,B|129:275|164:244|164:244|160:276|148:297,1,140
264,68,123714,5,0,0:0:0:0:
272,308,123857,1,0,0:0:0:0:
168,80,124000,1,0,0:0:0:0:
416,248,124142,1,0,0:0:0:0:
448,40,124284,5,0,0:0:0:0:
280,184,124427,1,0,0:0:0:0:
512,260,124570,1,0,0:0:0:0:
268,300,124713,1,0,0:0:0:0:
496,256,124856,2,0,B|449:262|417:194|417:194|370:208,1,140
112,92,125141,5,0,0:0:0:0:
148,324,125284,1,0,0:0:0:0:
28,152,125427,1,0,0:0:0:0:
264,276,125571,1,0,0:0:0:0:
42,146,128000,6,0,B|108:139|108:139|158:150|158:150|237:138|237:138|254:180|301:212|301:212|214:243|144:228,1,420
172,232,128857,1,0,0:0:0:0:
312,120,129142,1,0,0:0:0:0:
320,120,129285,2,0,P|362:32|345:118,2,280
352,236,130000,1,0,0:0:0:0:
272,384,130142,1,0,0:0:0:0:
416,288,130285,6,0,P|296:296|432:256,1,420
153,92,131142,1,0,0:0:0:0:
352,236,131285,1,0,0:0:0:0:
224,114,131428,6,0,P|204:38|208:142,1,420
153,92,132000,1,0,0:0:0:0:
140,304,132285,5,0,0:0:0:0:
172,288,132357,1,0,0:0:0:0:
208,228,132428,1,0,0:0:0:0:
248,212,132500,1,0,0:0:0:0:
292,236,132571,6,0,B|359:216|376:158|376:158|394:175|394:175|388:239|432:320|432:320|379:286,1,350
294,150,133428,1,0,0:0:0:0:
220,376,133571,1,0,0:0:0:0:
243,206,133714,6,0,P|371:143|219:162,1,420
140,144,134571,2,0,P|168:62|249:3,1,140
352,116,134857,6,0,P|237:208|314:83,1,420
288,152,135714,2,0,P|240:160|288:160,1,140
168,312,136000,5,0,0:0:0:0:
176,264,136142,1,0,0:0:0:0:
188,212,136285,1,0,0:0:0:0:
200,156,136428,1,0,0:0:0:0:
216,72,136571,5,0,2:0:0:0:
256,320,136714,1,0,2:0:0:0:
312,112,136857,1,0,2:0:0:0:
340,248,136999,1,0,2:0:0:0:
24,94,137142,6,0,B|86:97|86:97|113:111|113:111|164:115,1,140
261,241,137428,1,0,0:0:0:0:
179,265,137571,1,0,0:0:0:0:
194,183,137714,1,0,0:0:0:0:
243,319,137857,1,0,0:0:0:0:
119,210,138000,2,0,P|139:127|196:104,1,140
415,128,138285,6,0,B|423:166|434:191|434:191|419:218|419:218|425:250|430:277,1,140
332,168,138571,1,0,0:0:0:0:
320,88,138714,1,0,0:0:0:0:
280,232,138857,1,0,0:0:0:0:
400,212,139000,1,0,0:0:0:0:
249,129,139142,1,0,0:0:0:0:
397,51,139285,1,0,0:0:0:0:
336,340,139428,6,0,B|268:336|233:352|233:352|254:313,1,140
400,212,139714,1,0,0:0:0:0:
249,129,139857,1,0,0:0:0:0:
280,232,140000,1,0,0:0:0:0:
151,149,140142,1,0,0:0:0:0:
338,136,140285,2,0,P|318:71|256:44,1,140
400,212,140571,6,0,B|399:225|379:257|379:257|391:283|391:283|363:305|371:337,1,140
472,68,140857,1,0,0:0:0:0:
344,132,141000,1,0,0:0:0:0:
368,36,141143,1,0,0:0:0:0:
472,168,141286,1,0,0:0:0:0:
256,56,141428,1,0,0:0:0:0:
400,212,141571,1,0,0:0:0:0:
248,172,141714,6,0,B|247:219|236:244|236:244|249:272|260:328,1,140
384,324,142000,1,0,0:0:0:0:
320,228,142143,1,0,0:0:0:0:
392,312,142286,1,0,0:0:0:0:
476,160,142428,1,0,0:0:0:0:
404,296,142571,2,0,B|348:296|333:280|333:280|303:307|268:302,1,140
108,248,142857,6,0,B|136:231|152:208|152:208|181:214|181:214|201:189|226:175,1,140
264,48,143143,1,0,0:0:0:0:
180,292,143286,1,0,0:0:0:0:
32,108,143429,1,0,0:0:0:0:
192,288,143572,1,0,0:0:0:0:
272,44,143714,2,0,B|301:93|301:93|332:117|332:117|360:178,1,140
340,264,144000,6,0,B|356:192|348:156|348:156|373:184,1,140
140,296,144285,1,0,0:0:0:0:
116,176,144428,1,0,0:0:0:0:
208,80,144571,2,0,P|304:136|344:188,1,140
336,312,144857,1,0,0:0:0:0:
396,160,145000,1,0,0:0:0:0:
256,192,145142,12,0,146214,0:0:0:0:
168,108,146285,6,0,B|225:123|245:176|245:176|272:148|281:100|281:100|354:57|413:51|413:51|361:37|314:55,1,420
168,192,147142,1,0,0:0:0:0:
346,278,147428,6,0,B|388:240|388:240|425:226|444:193|444:193|425:156|404:136|404:136|365:158|344:188|344:188|360:217|387:240|387:240|423:282|423:282|397:307,1,420
224,316,148285,1,0,0:0:0:0:
346,278,148427,1,0,0:0:0:0:
240,224,148570,6,0,B|195:201|116:241|116:241|123:152|123:152|183:128|234:138|234:138|264:111|264:111|284:131|332:132,1,420
112,244,149427,1,0,0:0:0:0:
330,251,149713,6,0,B|378:165|428:148|428:148|473:200|460:282|460:282|452:241|400:250|400:250|372:216|329:251,1,420
204,248,150571,2,0,B|209:211|209:211|200:178,3,70
0,224,150856,6,0,B|-5:151|67:85|67:85|92:154|137:215|137:215|69:239|2:222,1,420
200,72,151713,1,0,0:0:0:0:
287,227,152000,6,0,B|326:233|326:233|308:188|308:188|335:151|335:151|334:131|340:99|340:99|349:70|425:48|425:48|403:123|407:183,1,420
0,316,152856,2,0,P|28:234|109:175,1,140
219,283,153142,6,0,P|104:375|181:250,1,420
292,376,153714,2,0,P|295:272|125:170,1,280
155,319,154142,1,0,0:0:0:0:
256,192,154285,12,0,155357,0:0:0:0:
16,84,155428,6,0,B|78:87|78:87|105:101|105:101|156:105,1,140
284,240,155714,1,0,0:0:0:0:
140,208,155857,1,0,0:0:0:0:
297,157,156000,2,0,P|348:190|357:282,1,140,0|0,2:0|2:0,2:0:0:0:
158,286,156286,2,0,P|82:268|60:189,1,140
280,376,156571,6,0,B|279:366|273:334|273:334|288:307|288:307|277:282|269:244,1,140
240,52,156857,1,0,0:0:0:0:
260,236,157000,1,0,0:0:0:0:
351,11,157142,2,0,B|414:36|414:36|459:91,1,140
249,129,157428,2,0,P|237:87|245:41,1,70
460,92,157571,2,0,P|467:126|463:161,1,70
269,316,157714,6,0,B|253:348|253:348|288:332|356:336,1,140
456,160,158000,1,0,0:0:0:0:
256,136,158143,1,0,0:0:0:0:
384,260,158285,2,0,B|425:288|436:336|436:336|459:329|496:332,1,140
244,215,158571,2,0,P|324:182|331:109,1,140
144,292,158857,6,0,B|136:260|164:238|164:238|152:212|152:212|172:180|178:144,1,140
232,32,159143,1,0,0:0:0:0:
164,160,159286,1,0,0:0:0:0:
328,36,159428,6,0,B|327:49|307:81|307:81|319:107|319:107|291:129|299:161,1,140
416,128,159714,2,0,L|412:224,1,70
359,323,159857,2,0,L|366:233,1,70
488,0,160000,6,0,B|487:47|476:72|476:72|489:100|496:136,1,140
512,320,160286,1,0,0:0:0:0:
304,176,160429,1,0,0:0:0:0:
495,135,160571,2,0,B|481:176|458:200|458:200|465:238|458:284,1,140
232,133,160857,6,0,B|260:120|280:88|280:88|316:104|352:100,1,140
512,320,161142,2,0,P|454:336|386:271,1,140
304,176,161429,1,0,0:0:0:0:
240,328,161572,1,0,0:0:0:0:
164,92,161714,2,0,P|175:194|248:220,1,140
100,240,162000,2,0,B|77:200|69:138|69:138|42:187,1,140
170,296,162286,6,0,B|186:224|172:190|172:190|186:208|203:216,1,140
332,80,162572,1,0,0:0:0:0:
272,216,162715,1,0,0:0:0:0:
168,380,162857,2,0,B|218:367|236:344|236:344|260:360|304:356,1,140
420,292,163142,2,0,B|382:229|382:229|392:156,1,140
256,192,163428,12,0,164571,0:0:0:0:
256,192,171428,12,0,173642,0:0:0:0:
64,68,173714,6,0,B|76:125|76:125|65:166|65:166|72:224,1,140
0,384,174000,2,0,B|12:336|7:292|7:292|29:337,1,140
244,196,174285,1,0,0:0:0:0:
160,64,174428,1,0,0:0:0:0:
152,260,174571,1,0,0:0:0:0:
240,32,174714,1,0,0:0:0:0:
468,236,174857,2,0,B|425:188|397:185|397:185|377:158|336:136,1,140
164,156,175142,5,0,0:0:0:0:
240,352,175285,1,0,0:0:0:0:
240,112,175428,1,0,0:0:0:0:
400,312,175571,1,0,0:0:0:0:
364,64,175714,1,0,0:0:0:0:
512,228,175857,1,0,0:0:0:0:
232,264,176000,2,0,B|276:256|305:216|305:216|328:224|368:216,1,140
512,28,176285,5,0,0:0:0:0:
432,228,176428,1,0,0:0:0:0:
256,32,176571,1,0,0:0:0:0:
464,120,176714,1,0,0:0:0:0:
288,336,176857,1,0,0:0:0:0:
512,384,177000,1,0,0:0:0:0:
304,220,177142,2,0,B|330:213|354:189|354:189|379:216|426:221,1,140
176,356,177428,5,0,0:0:0:0:
256,120,177571,1,0,0:0:0:0:
104,208,177714,1,0,0:0:0:0:
144,40,177857,1,0,0:0:0:0:
192,232,178000,1,0,0:0:0:0:
0,168,178142,1,0,0:0:0:0:
20,384,178285,2,0,B|56:357|56:357|72:317|72:317|93:315|121:300,1,140
64,24,178571,6,0,B|63:66|81:92|81:92|64:119|64:119|76:139|85:181,1,140
192,384,178857,2,0,B|184:336|184:336|205:285|205:285|192:219,1,140
168,56,179142,1,0,0:0:0:0:
320,176,179285,1,0,0:0:0:0:
336,8,179428,1,0,0:0:0:0:
220,152,179571,1,0,0:0:0:0:
388,100,179714,2,0,B|422:122|449:128|449:128|461:152|502:182,1,140
496,384,179999,5,0,0:0:0:0:
404,208,180142,1,0,0:0:0:0:
296,328,180285,1,0,0:0:0:0:
488,248,180428,1,0,0:0:0:0:
308,64,180571,2,0,P|376:16|448:32,1,140
488,236,180857,5,0,0:0:0:0:
240,204,181000,1,0,0:0:0:0:
368,384,181142,1,0,0:0:0:0:
372,192,181285,1,0,0:0:0:0:
164,236,181428,6,0,P|192:268|244:280,1,70
173,152,181571,2,0,P|255:123|325:188,1,140
264,352,181857,6,0,B|273:319|290:310|290:310|294:269|294:269|315:257|324:228,1,140
464,184,182142,2,0,P|452:217|416:264,1,70
240,204,182285,2,0,B|276:237|299:277|299:277|324:226,2,140
200,60,182714,1,0,0:0:0:0:
16,180,182856,6,0,P|32:110|9:41,1,140
0,384,183142,2,0,B|8:308|0:268|0:268|18:297,1,140
160,352,183427,1,0,0:0:0:0:
372,276,183570,1,0,0:0:0:0:
204,140,183713,1,0,0:0:0:0:
392,256,183856,1,0,0:0:0:0:
192,332,183999,2,0,B|148:297|118:293|118:293|101:264|60:232,1,140
324,176,184284,5,0,0:0:0:0:
116,376,184427,1,0,0:0:0:0:
264,80,184570,1,0,0:0:0:0:
40,324,184713,1,0,0:0:0:0:
320,284,184856,1,0,0:0:0:0:
36,120,184999,1,0,0:0:0:0:
192,336,185142,2,0,B|252:320|276:288|276:288|295:275|331:280,1,140
452,184,185427,5,0,0:0:0:0:
256,32,185570,1,0,0:0:0:0:
496,36,185713,1,0,0:0:0:0:
248,168,185856,1,0,0:0:0:0:
480,360,185999,1,0,0:0:0:0:
388,96,186142,1,0,0:0:0:0:
356,328,186284,2,0,B|312:336|280:316|280:316|256:340|196:340,1,140
72,188,186570,5,0,0:0:0:0:
328,252,186713,1,0,0:0:0:0:
192,64,186856,1,0,0:0:0:0:
112,308,186999,1,0,0:0:0:0:
76,72,187142,1,0,0:0:0:0:
228,240,187284,1,0,0:0:0:0:
0,348,187427,2,0,B|45:319|80:288|80:288|76:320|64:341,1,140
136,172,187713,6,0,B|128:216|159:267|159:267|144:328,1,140
36,36,188000,2,0,B|54:113|54:113|28:184,1,140
288,96,188284,5,0,0:0:0:0:
396,292,188427,1,0,0:0:0:0:
508,152,188570,1,0,0:0:0:0:
268,128,188713,1,0,0:0:0:0:
356,300,188856,2,0,B|309:306|277:238|277:238|230:252,1,140
104,72,189141,5,0,0:0:0:0:
104,324,189284,1,0,0:0:0:0:
220,24,189427,1,0,0:0:0:0:
356,224,189571,2,0,B|388:208|399:182|399:182|412:240|448:288,1,140
136,200,192000,6,0,B|179:173|195:143|195:143|222:152|276:136,1,154.000004699707
420,156,192285,1,0,0:0:0:0:
300,304,192428,1,0,0:0:0:0:
220,36,192571,1,0,0:0:0:0:
416,276,192714,1,0,0:0:0:0:
120,200,192857,6,0,B|168:228|203:227|203:227|213:259|252:276,1,154.000004699707
408,376,193142,1,0,0:0:0:0:
408,68,193285,1,0,0:0:0:0:
176,124,193428,1,0,0:0:0:0:
304,308,193571,1,0,0:0:0:0:
312,24,193714,1,0,0:0:0:0:
468,264,193857,1,0,0:0:0:0:
120,192,194000,1,0,0:0:0:0:
384,360,194142,1,0,0:0:0:0:
344,112,194285,6,0,B|305:112|270:94|270:94|254:126|213:144,1,154.000004699707
48,368,194571,1,0,0:0:0:0:
60,128,194714,1,0,0:0:0:0:
292,248,194857,1,0,0:0:0:0:
116,40,195000,1,0,0:0:0:0:
216,276,195142,6,0,B|201:256|217:216|217:216|174:176|177:136,1,154.000004699707
376,80,195428,1,0,0:0:0:0:
388,264,195571,1,0,0:0:0:0:
240,60,195714,1,0,0:0:0:0:
464,184,195857,1,0,0:0:0:0:
216,360,196000,1,0,0:0:0:0:
312,156,196142,1,0,0:0:0:0:
456,360,196285,1,0,0:0:0:0:
396,56,196428,1,0,0:0:0:0:
300,340,196571,6,0,B|340:328|372:348|372:348|396:310|388:250,1,154.000004699707
236,80,196857,1,0,0:0:0:0:
376,256,197000,1,0,0:0:0:0:
152,176,197142,1,0,0:0:0:0:
364,248,197285,1,0,0:0:0:0:
236,72,197428,6,0,B|321:54|321:54|386:75,1,154.000004699707
512,264,197714,1,0,0:0:0:0:
248,352,197857,1,0,0:0:0:0:
316,136,198000,1,0,0:0:0:0:
508,276,198142,1,0,0:0:0:0:
236,328,198285,1,0,0:0:0:0:
316,120,198428,1,0,0:0:0:0:
120,224,198571,1,0,0:0:0:0:
344,268,198714,1,0,0:0:0:0:
176,60,198857,5,0,0:0:0:0:
440,144,199000,1,0,0:0:0:0:
432,132,199142,1,0,0:0:0:0:
160,276,199285,1,0,0:0:0:0:
296,56,199428,1,0,0:0:0:0:
304,68,199571,1,0,0:0:0:0:
312,328,199714,1,0,0:0:0:0:
304,340,199857,1,0,0:0:0:0:
256,192,200000,12,0,201071,0:0:0:0:
400,160,201142,5,0,0:0:0:0:
232,308,201285,1,0,0:0:0:0:
324,64,201428,1,0,0:0:0:0:
328,352,201571,1,0,0:0:0:0:
236,24,201714,1,0,0:0:0:0:
440,340,201857,1,0,0:0:0:0:
248,156,202000,5,0,0:0:0:0:
76,336,202142,1,0,0:0:0:0:
312,272,202285,1,0,0:0:0:0:
72,144,202428,1,0,0:0:0:0:
208,360,202571,1,0,0:0:0:0:
344,172,202714,1,0,0:0:0:0:
76,244,202857,5,0,0:0:0:0:
424,232,203000,1,0,0:0:0:0:
104,40,203142,1,0,0:0:0:0:
368,356,203285,1,0,0:0:0:0:
232,100,203428,5,0,0:0:0:0:
168,296,203571,1,0,0:0:0:0:
420,120,203714,1,0,0:0:0:0:
256,384,203857,1,0,0:0:0:0:
312,64,204000,1,0,0:0:0:0:
456,296,204142,1,0,0:0:0:0:
264,176,204285,5,0,0:0:0:0:
96,364,204428,1,0,0:0:0:0:
4,208,204571,1,0,0:0:0:0:
232,312,204714,1,0,0:0:0:0:
184,60,204857,1,0,0:0:0:0:
140,200,205000,1,0,0:0:0:0:
8,4,205142,5,0,0:0:0:0:
72,280,205285,1,0,0:0:0:0:
248,156,205428,1,0,0:0:0:0:
72,116,205571,1,0,0:0:0:0:
256,308,205714,5,0,0:0:0:0:
340,52,205857,1,0,0:0:0:0:
416,280,206000,1,0,0:0:0:0:
156,200,206142,1,0,0:0:0:0:
424,216,206285,1,0,0:0:0:0:
96,284,206428,1,0,0:0:0:0:
424,200,206571,5,0,0:0:0:0:
64,196,206714,1,0,0:0:0:0:
280,384,206857,1,0,0:0:0:0:
364,116,207000,1,0,0:0:0:0:
184,316,207142,5,0,0:0:0:0:
192,32,207285,1,0,0:0:0:0:
16,20,207428,5,0,0:0:0:0:
24,24,207500,1,0,0:0:0:0:
28,32,207571,1,0,0:0:0:0:
32,40,207642,1,0,0:0:0:0:
32,48,207714,2,0,B|113:66|113:66|188:28,1,154.000004699707
184,224,210285,6,0,P|204:100|336:136,1,280
252,168,210714,1,0,0:0:0:0:
152,28,210857,1,0,0:0:0:0:
80,168,211000,1,0,0:0:0:0:
260,180,211142,1,0,0:0:0:0:
184,316,211285,1,0,0:0:0:0:
344,316,211428,6,0,B|370:262|370:262|365:233|365:233|396:168,1,140
432,52,211714,1,0,0:0:0:0:
396,192,211857,2,0,B|374:237|374:237|379:266|379:266|353:320,1,140
128,256,212142,2,0,P|100:160|144:240,1,280
168,96,212571,6,0,P|72:80|16:100,1,140
100,212,212857,1,0,0:0:0:0:
264,248,213000,5,0,0:0:0:0:
284,96,213142,1,0,0:0:0:0:
400,196,213285,1,0,0:0:0:0:
224,160,213428,5,0,0:0:0:0:
376,104,213571,1,0,0:0:0:0:
352,272,213714,2,0,B|365:302|388:317|388:317|384:352|384:352|408:369|413:392,1,140
313,178,214000,1,0,0:0:0:0:
424,380,214142,2,0,B|420:361|396:344|396:344|400:309|400:309|377:295|364:264,1,140
316,172,214428,1,0,0:0:0:0:
128,100,214571,6,0,B|138:173|138:173|124:248,1,140
208,73,214857,2,0,P|153:19|80:25,1,140
52,164,215142,1,0,0:0:0:0:
208,256,215285,2,0,P|153:310|80:304,1,140
224,164,215571,1,0,0:0:0:0:
300,232,215714,2,0,B|344:280|344:280|372:288|372:288|404:328,1,140
316,140,216000,2,0,B|359:148|381:171|381:171|375:137|392:92,1,140
248,72,216285,2,0,P|158:95|130:155,1,140
224,164,216571,5,0,0:0:0:0:
332,52,216714,1,0,0:0:0:0:
384,172,216857,1,0,0:0:0:0:
476,60,217000,1,0,0:0:0:0:
476,304,217142,6,0,B|485:277|477:248|477:248|485:227|485:227|475:189|484:140,1,140
384,280,217428,1,0,0:0:0:0:
308,136,217571,1,0,0:0:0:0:
212,304,217714,2,0,B|220:276|208:246|208:246|223:233|223:233|208:200|215:164,1,140
136,48,218000,6,0,L|144:144,1,70
128,68,218142,2,0,L|136:144,1,70
272,148,218285,6,0,B|325:113|325:113|368:103|368:103|424:68,1,140
228,52,218571,1,0,0:0:0:0:
200,212,218714,1,0,0:0:0:0:
48,128,218857,5,0,0:0:0:0:
56,272,219000,1,0,0:0:0:0:
20,124,219142,1,0,0:0:0:0:
24,284,219285,1,0,0:0:0:0:
184,224,219428,6,0,P|204:100|336:136,1,280
252,168,219857,2,0,P|223:89|144:20,1,140
336,200,220142,2,0,P|359:260|440:344,2,140
500,72,220571,2,0,B|468:95|439:102|439:102|434:142|401:182,1,140
486,306,220857,1,0,0:0:0:0:
336,76,221000,1,0,0:0:0:0:
510,167,221142,2,0,B|483:195|468:232|468:232|426:229|381:253,1,140
360,332,221428,2,0,B|372:246|372:246|360:180,1,140
192,96,221714,6,0,P|184:164|184:268,1,140
280,164,222000,1,0,0:0:0:0:
109,227,222142,2,0,B|83:159|83:159|125:75,1,140
268,160,222428,1,0,0:0:0:0:
328,308,222571,1,0,0:0:0:0:
416,184,222714,1,0,0:0:0:0:
188,336,222857,6,0,B|166:275|166:275|100:216,1,140
152,24,223142,1,0,0:0:0:0:
280,160,223285,2,0,B|324:226|324:226|326:290,1,140
332,52,223571,1,0,0:0:0:0:
348,288,223714,2,0,B|348:208|348:208|376:128,1,140
488,224,224000,6,0,B|486:311|486:311|460:376,1,140
452,108,224285,1,0,0:0:0:0:
448,364,224428,6,0,B|467:314|467:314|469:227,1,140
288,56,224714,2,0,B|234:105|234:105|168:96,1,140
328,152,225000,1,0,0:0:0:0:
240,331,225142,2,0,B|235:278|235:278|252:238|252:238|243:169,1,140
208,24,225428,1,0,0:0:0:0:
256,200,225571,2,0,B|261:243|261:243|244:282|244:282|249:335,1,140
332,52,225857,5,0,0:0:0:0:
384,172,226000,1,0,0:0:0:0:
476,60,226143,1,0,0:0:0:0:
476,304,226285,6,0,B|485:277|477:248|477:248|485:227|485:227|475:189|484:140,1,140
384,280,226571,1,0,0:0:0:0:
308,136,226714,1,0,0:0:0:0:
212,304,226857,2,0,B|220:276|208:246|208:246|223:233|223:233|208:200|215:164,1,140
104,108,227142,2,0,B|96:153|80:184|80:184|81:210|72:264,1,140
288,180,227428,6,0,B|341:145|341:145|384:135|384:135|440:100,1,140
312,288,227714,1,0,0:0:0:0:
296,44,227857,2,0,P|256:156|268:212,1,140
376,180,228142,1,0,0:0:0:0:
428,312,228285,1,0,0:0:0:0:
296,164,228428,6,0,P|352:104|424:108,1,140
