osu file format v14

[General]
AudioFilename: audio.mp3
AudioLeadIn: 0
PreviewTime: 6855
Countdown: 0
SampleSet: Soft
StackLeniency: 0.7
Mode: 2
LetterboxInBreaks: 0
WidescreenStoryboard: 1

[Editor]
DistanceSpacing: 1
BeatDivisor: 4
GridSize: 16
TimelineZoom: 1.4

[Metadata]
Title:Enchantix (TV Size)
TitleUnicode:Enchantix (TV Size)
Artist:Eva Jagun
ArtistUnicode:Eva Jagun
Creator:zerokt
Version:Overdose
Source:Winx Club
Tags:animestyle german deutsch pop fairy transformation sequence cartoon rainbow nick nickelodeon
BeatmapID:3724485
BeatmapSetID:1815509

[Difficulty]
HPDrainRate:5
CircleSize:3
OverallDifficulty:9.4
ApproachRate:9.4
SliderMultiplier:2
SliderTickRate:2

[Events]
//Background and Video events
0,0,"winkis.jpg",0,0
Video,-272,"clueless.mp4"
//Break Periods
//Storyboard Layer 0 (Background)
//Storyboard Layer 1 (Fail)
//Storyboard Layer 2 (Pass)
//Storyboard Layer 3 (Foreground)
//Storyboard Layer 4 (Overlay)
//Storyboard Sound Samples

[TimingPoints]
55,400,4,2,1,40,1,0
6921,-83.3333333333333,4,2,1,40,0,0
7188,-83.3333333333333,4,2,1,5,0,0
7321,-66.6666666666667,4,2,1,40,0,0
7588,-66.6666666666667,4,2,1,5,0,0
7721,-37.037037037037,4,2,1,40,0,0
7921,-40,4,2,1,5,0,0
8055,-100,4,2,1,40,0,0
19855,-76.9230769230769,4,2,1,40,0,0
20855,-100,4,2,1,40,0,0
25555,-100,4,2,1,5,0,0
25655,-100,4,2,1,40,0,0
27155,-100,4,2,1,5,0,0
27255,-100,4,2,1,40,0,0
35255,-90.9090909090909,4,2,1,40,0,0

[Colours]
Combo1 : 128,255,255
Combo2 : 255,0,0

[HitObjects]
482,261,55,6,0,P|206:33|40:359,2,800,6|6|6,0:0|0:0|0:0,0:0:0:0:
132,64,4855,6,0,L|356:62,1,200,6|0,0:0|0:0,0:0:0:0:
150,209,5455,1,2,0:0:0:0:
214,206,5555,1,2,0:0:0:0:
278,202,5655,2,0,L|33:204,1,200,6|0,0:0|0:0,0:0:0:0:
245,323,6355,1,2,0:0:0:0:
195,323,6455,5,6,0:0:0:0:
412,216,6555,1,0,0:0:0:0:
164,104,6921,6,0,L|339:103,1,159.999995117188,2|0,0:0|0:0,0:0:0:0:
373,137,7321,2,0,L|156:139,1,200.000007629395,2|0,0:0|0:0,0:0:0:0:
133,166,7721,2,0,L|443:164,1,270.000001029968,2|0,0:0|0:0,0:0:0:0:
150,284,8055,6,0,P|84:215|169:191,1,200,6|8,3:2|0:0,0:0:0:0:
328,162,8655,2,0,L|333:45,1,100,2|0,3:2|0:0,0:0:0:0:
155,165,9055,1,2,3:2:0:0:
325,181,9255,2,0,L|452:183,1,100,10|0,0:0|3:2,0:0:0:0:
375,148,9555,1,0,3:2:0:0:
153,267,9655,5,6,3:2:0:0:
336,251,9855,1,2,0:0:0:0:
152,251,10055,1,10,0:0:0:0:
418,117,10255,2,0,L|423:17,1,100,2|0,3:2|0:0,0:0:0:0:
243,227,10655,2,0,L|238:327,1,100,2|8,3:2|0:0,0:0:0:0:
423,31,11055,1,0,3:2:0:0:
151,56,11255,6,0,L|272:50,2,100,6|0|10,3:2|0:0|0:0,0:0:0:0:
336,160,11855,2,0,L|215:154,2,100,2|0|2,3:2|0:0|3:2,0:0:0:0:
156,271,12455,1,10,0:0:0:0:
56,276,12655,1,0,3:2:0:0:
328,227,12855,6,0,L|210:211,1,100,6|2,3:2|0:0,0:0:0:0:
57,108,13255,1,10,0:0:0:0:
330,247,13455,2,0,L|428:179,1,100,2|0,3:2|3:2,0:0:0:0:
231,131,13855,1,0,3:2:0:0:
496,120,14055,2,0,L|484:233,1,100,10|0,0:0|3:2,0:0:0:0:
435,222,14355,1,0,3:2:0:0:
215,249,14455,6,0,L|71:253,1,100,6|0,3:2|0:0,0:0:0:0:
302,176,14855,2,0,L|315:66,1,100,10|0,0:0|3:2,0:0:0:0:
135,311,15255,2,0,L|148:201,1,100,2|0,0:0|3:2,0:0:0:0:
325,64,15655,2,0,L|435:77,1,100,10|0,0:0|3:2,0:0:0:0:
150,137,16055,6,0,L|285:138,1,100,6|0,3:2|0:0,0:0:0:0:
144,115,16455,1,10,0:0:0:0:
327,198,16655,2,0,L|226:168,1,100,2|0,3:2|0:0,0:0:0:0:
333,191,17055,1,2,3:2:0:0:
150,269,17255,1,10,0:0:0:0:
330,280,17455,1,2,3:2:0:0:
379,277,17555,1,0,0:0:0:0:
176,61,17655,6,0,L|58:68,1,100,6|0,3:2|0:0,0:0:0:0:
175,74,18055,1,10,0:0:0:0:
358,156,18255,2,0,L|476:163,1,100,2|0,3:2|0:0,0:0:0:0:
359,169,18655,1,2,3:2:0:0:
175,169,18855,2,0,L|153:275,1,100,10|0,0:0|3:2,0:0:0:0:
426,273,19255,5,6,3:2:0:0:
246,266,19455,1,2,0:0:0:0:
425,250,19655,1,10,0:0:0:0:
122,109,19855,2,0,L|382:104,1,259.999988098145,2|2,3:2|3:2,0:0:0:0:
76,222,20455,1,14,0:0:0:0:
225,41,20655,1,0,3:2:0:0:
160,42,20755,1,0,3:2:0:0:
413,222,20855,6,0,L|448:122,1,100,6|0,3:2|0:0,0:0:0:0:
346,120,21255,1,10,0:0:0:0:
166,266,21455,2,0,L|284:258,1,100,2|0,3:2|0:0,0:0:0:0:
443,144,21855,2,0,L|343:150,1,100,2|10,3:2|0:0,0:0:0:0:
439,123,22255,1,0,3:2:0:0:
157,106,22455,6,0,L|279:109,1,100,6|0,3:2|0:0,0:0:0:0:
159,84,22855,1,10,0:0:0:0:
434,162,23055,2,0,L|447:295,1,100,2|0,3:2|0:0,0:0:0:0:
151,126,23455,1,2,3:2:0:0:
299,128,23655,1,10,0:0:0:0:
450,132,23855,1,0,3:2:0:0:
155,284,24055,6,0,L|37:272,1,100,6|0,3:2|0:0,0:0:0:0:
154,260,24455,1,10,0:0:0:0:
321,206,24655,2,0,L|188:201,1,100,2|0,3:2|0:0,0:0:0:0:
492,163,25055,2,0,L|238:144,1,250,2|0,3:2|3:2,0:0:0:0:
475,240,25655,6,0,L|468:353,1,100,6|0,3:2|0:0,0:0:0:0:
368,338,26055,1,10,0:0:0:0:
198,171,26255,2,0,L|297:169,1,100,2|0,3:2|0:0,0:0:0:0:
27,339,26655,2,0,L|281:317,1,250,2|0,3:2|3:2,0:0:0:0:
61,326,27255,6,0,L|37:219,1,100,6|0,3:2|0:0,0:0:0:0:
128,181,27655,1,10,0:0:0:0:
306,197,27855,2,0,L|274:96,1,100,2|0,3:2|0:0,0:0:0:0:
95,328,28255,2,0,L|63:227,1,100,2|8,3:2|0:0,0:0:0:0:
162,211,28655,1,0,3:2:0:0:
434,57,28855,6,0,L|312:57,2,100,6|0|10,3:2|3:2|0:0,0:0:0:0:
252,120,29455,1,0,3:2:0:0:
301,124,29555,1,8,0:0:0:0:
349,135,29655,1,2,0:0:0:0:
166,221,29855,1,2,3:2:0:0:
333,205,30055,1,10,0:0:0:0:
165,204,30255,1,0,3:2:0:0:
443,95,30455,5,6,3:2:0:0:
277,89,30655,1,2,0:0:0:0:
110,88,30855,1,10,0:0:0:0:
383,160,31055,2,0,L|454:239,1,100,2|0,3:2|0:0,0:0:0:0:
261,105,31455,2,0,L|362:157,1,100,2|8,3:2|0:0,0:0:0:0:
362,180,31755,1,0,3:2:0:0:
349,226,31855,1,0,3:2:0:0:
76,333,32055,5,6,3:2:0:0:
242,327,32255,1,2,0:0:0:0:
409,326,32455,1,10,0:0:0:0:
139,225,32655,2,0,L|4:228,1,100,2|0,3:2|0:0,0:0:0:0:
363,56,33055,2,0,P|430:117|333:161,1,200,2|0,3:2|3:2,0:0:0:0:
71,208,33655,1,6,3:2:0:0:
473,186,35255,5,6,0:0:0:0:
39,186,36055,1,6,0:0:0:0:
473,186,36855,1,6,0:0:0:0:
