osu file format v14

[General]
AudioFilename: audio.mp3
AudioLeadIn: 0
PreviewTime: 6855
Countdown: 0
SampleSet: Soft
StackLeniency: 0.3
Mode: 0
LetterboxInBreaks: 0
WidescreenStoryboard: 1

[Editor]
Bookmarks: 23755,24055
DistanceSpacing: 1
BeatDivisor: 4
GridSize: 8
TimelineZoom: 1

[Metadata]
Title:Enchantix (TV Size)
TitleUnicode:Enchantix (TV Size)
Artist:Eva Jagun
ArtistUnicode:Eva Jagun
Creator:AnimeStyle
Version:bluirre's Insane
Source:Winx Club
Tags:german deutsch pop fairy transformation sequence cartoon rainbow nick qiyana dyl-byl bluirre nickelodeon
BeatmapID:3360721
BeatmapSetID:1588772

[Difficulty]
HPDrainRate:6
CircleSize:6.4
OverallDifficulty:7.5
ApproachRate:8.5
SliderMultiplier:1.4
SliderTickRate:1

[Events]
//Background and Video events
0,0,"winx-enchantix-the-winx-club-408762930.jpg",0,0
Video,-272,"Eva Jagun - Enchantix.mp4"
//Break Periods
//Storyboard Layer 0 (Background)
//Storyboard Layer 1 (Fail)
//Storyboard Layer 2 (Pass)
//Storyboard Layer 3 (Foreground)
//Storyboard Layer 4 (Overlay)
//Storyboard Sound Samples

[TimingPoints]
55,400,4,2,1,40,1,0
55,-100,4,2,1,40,0,0
4855,-133.333333333333,4,2,1,40,0,0
7321,-133.333333333333,4,2,1,40,0,0
7721,-133.333333333333,4,2,1,40,0,0
8055,-80,4,2,1,40,0,0
8355,-80,4,2,1,5,0,0
8455,-80,4,2,1,40,0,0
8955,-80,4,2,1,5,0,0
9055,-80,4,2,1,40,0,0
9555,-80,4,2,1,5,0,0
9655,-80,4,2,1,40,0,0
10555,-80,4,2,1,5,0,0
10655,-80,4,2,1,40,0,0
10955,-80,4,2,1,5,0,0
11055,-80,4,2,1,40,0,0
12855,-80,4,2,1,40,0,0
13455,-80,4,2,1,40,0,0
19855,-62.5,4,2,1,40,0,0
20455,-66.6666666666667,4,2,1,40,0,0
20855,-80,4,2,1,40,0,0
23455,-80,4,2,1,40,0,0
25055,-66.6666666666667,4,2,1,40,0,0
25655,-80,4,2,1,40,0,0
26655,-66.6666666666667,4,2,1,40,0,0
27055,-66.6666666666667,4,2,1,40,0,0
27655,-80,4,2,1,40,0,0
29155,-80,4,2,1,5,0,0
29255,-80,4,2,1,40,0,0
29755,-80,4,2,1,5,0,0
29855,-80,4,2,1,40,0,0
35255,-80,4,2,1,40,0,1
35355,-80,4,2,1,40,0,0
36055,-80,4,2,1,40,0,1
36155,-80,4,2,1,40,0,0
36855,-80,4,2,1,40,0,1
36955,-80,4,2,1,40,0,0

[Colours]
Combo1 : 255,0,0
Combo2 : 170,255,85
Combo3 : 255,255,113
Combo4 : 0,0,128
Combo5 : 255,128,192
Combo6 : 192,130,255

[HitObjects]
136,248,55,6,0,B|154:157|256:157|256:157|341:225|256:293|171:225|256:157|256:157|358:157|375:259,2,560,6|6|6,0:0|0:0|0:0,0:0:0:0:
61,177,4855,6,0,P|61:139|111:100,1,105.000004005432,6|0,0:0|0:0,0:0:0:0:
215,145,5455,1,2,0:0:0:0:
214,155,5555,1,2,0:0:0:0:
209,164,5655,2,0,P|176:183|117:159,1,105.000004005432,6|0,0:0|0:0,0:0:0:0:
107,44,6255,1,2,0:0:0:0:
116,39,6355,1,2,0:0:0:0:
126,39,6455,1,6,0:0:0:0:
230,82,6921,6,0,L|304:93,1,70.0000026702882,2|0,0:0|0:0,0:0:0:0:
234,78,7321,6,0,L|308:89,1,70.0000026702882,2|0,0:0|0:0,0:0:0:0:
241,74,7721,6,0,L|315:85,1,70.0000026702882,2|0,0:0|0:0,0:0:0:0:
369,144,8055,6,0,P|369:95|432:45,1,131.25,6|0,3:2|0:0,0:0:0:0:
455,44,8455,1,8,0:0:0:0:
427,207,8655,2,0,P|384:231|309:200,1,131.25,2|0,3:2|0:0,0:0:0:0:
297,182,9055,1,2,3:2:0:0:
458,125,9255,2,0,P|500:149|511:229,1,131.25,10|0,0:0|3:2,0:0:0:0:
501,250,9655,5,6,3:2:0:0:
435,345,9855,1,2,0:0:0:0:
383,256,10055,1,10,0:0:0:0:
270,335,10255,2,0,P|245:292|276:217,1,131.25,2|0,3:2|0:0,0:0:0:0:
336,222,10655,2,0,P|360:264|329:339,1,131.25,2|0,3:2|0:0,0:0:0:0:
270,335,11055,1,0,3:2:0:0:
257,328,11155,1,0,0:0:0:0:
244,319,11255,6,0,L|167:264,2,87.5,6|0|10,3:2|0:0|0:0,0:0:0:0:
147,358,11855,2,0,L|75:307,2,87.5,2|0|2,3:2|0:0|3:2,0:0:0:0:
123,234,12455,1,10,0:0:0:0:
51,185,12655,1,0,3:2:0:0:
0,255,12855,5,6,3:2:0:0:
105,121,13055,1,2,0:0:0:0:
154,57,13255,1,10,0:0:0:0:
204,0,13455,1,2,3:2:0:0:
225,11,13555,1,8,0:0:0:0:
244,21,13655,2,0,L|329:64,2,87.5,0|0|10,3:2|3:2|0:0,0:0:0:0:
337,0,14255,1,2,3:2:0:0:
358,11,14355,1,8,0:0:0:0:
378,21,14455,5,6,3:2:0:0:
482,150,14655,1,0,0:0:0:0:
421,126,14855,2,0,B|368:103|368:103|382:119|378:140,1,87.5,10|0,0:0|3:2,0:0:0:0:
292,111,15255,2,0,B|299:167|299:167|306:147|325:140,1,87.5,2|0,0:0|3:2,0:0:0:0:
342,234,15655,2,0,B|387:199|387:199|366:203|350:189,1,87.5,10|0,0:0|3:2,0:0:0:0:
311,294,16055,6,0,P|353:303|391:283,1,87.5,6|0,3:2|0:0,0:0:0:0:
387,199,16455,1,10,0:0:0:0:
270,235,16655,2,0,P|241:267|240:309,1,87.5,2|0,3:2|0:0,0:0:0:0:
289,371,17055,1,2,3:2:0:0:
311,294,17255,1,10,0:0:0:0:
270,235,17455,1,2,3:2:0:0:
229,176,17655,6,0,P|187:167|149:187,1,87.5,6|0,3:2|0:0,0:0:0:0:
153,271,18055,1,10,0:0:0:0:
270,235,18255,2,0,P|299:202|300:161,1,87.5,2|0,3:2|0:0,0:0:0:0:
251,99,18655,1,2,3:2:0:0:
175,106,18855,1,10,0:0:0:0:
116,54,19055,1,0,3:2:0:0:
96,144,19255,6,0,L|119:211,1,43.75,6|0,3:2|0:0,0:0:0:0:
178,169,19455,2,0,L|193:211,1,43.75,2|0,0:0|0:0,0:0:0:0:
104,145,19655,2,0,L|127:212,1,43.75,10|0,0:0|0:0,0:0:0:0:
186,172,19855,2,0,B|238:333|238:333|206:345|205:385,1,224,2|2,3:2|3:2,0:0:0:0:
166,304,20455,2,0,B|165:262|210:226|228:269|265:225|259:177,1,157.500006008148,14|0,0:0|3:2,0:0:0:0:
259,172,20855,5,6,3:2:0:0:
244,88,21055,1,0,0:0:0:0:
335,112,21255,1,10,0:0:0:0:
427,140,21455,2,0,P|436:98|415:60,1,87.5,2|0,3:2|0:0,0:0:0:0:
357,192,21855,2,0,P|388:220|431:221,1,87.5,2|10,3:2|0:0,0:0:0:0:
489,173,22255,1,0,3:2:0:0:
335,112,22455,6,0,B|293:114|272:161|272:161|251:206|194:204,1,175,6|10,3:2|0:0,0:0:0:0:
93,237,23055,2,0,B|145:235|166:280|166:280|187:327|229:329,1,175,2|2,3:2|3:2,0:0:0:0:
233,256,23655,1,10,0:0:0:0:
98,302,23855,1,0,3:2:0:0:
25,222,24055,6,0,P|47:185|88:172,1,87.5,6|0,3:2|0:0,0:0:0:0:
147,179,24455,1,10,0:0:0:0:
203,184,24655,2,0,P|244:171|267:135,1,87.5,2|0,3:2|0:0,0:0:0:0:
190,73,25055,2,0,B|151:84|128:115|146:177|146:177|162:242|146:274|110:294,1,262.500010013581,2|0,3:2|3:2,0:0:0:0:
106,305,25655,6,0,P|143:283|156:242,1,87.5,6|0,3:2|0:0,0:0:0:0:
147,179,26055,1,10,0:0:0:0:
127,126,26255,2,0,P|140:85|176:62,1,87.5,2|0,3:2|0:0,0:0:0:0:
256,145,26655,2,0,B|248:185|213:206|151:188|151:188|86:172|49:188|34:224,1,262.500010013581,2|0,3:2|3:2,0:0:0:0:
34,241,27255,5,6,3:2:0:0:
103,255,27455,1,0,0:0:0:0:
191,124,27655,1,10,0:0:0:0:
312,110,27855,2,0,P|281:81|238:80,1,87.5,2|0,3:2|0:0,0:0:0:0:
319,178,28255,2,0,P|350:206|393:207,1,87.5,2|8,3:2|0:0,0:0:0:0:
375,141,28655,1,0,3:2:0:0:
474,136,28855,6,0,B|491:170|463:208|463:208|437:245|465:290,1,131.25,6|0,3:2|0:0,0:0:0:0:
458,277,29255,1,10,0:0:0:0:
462,384,29455,2,0,B|423:382|404:339|404:339|384:297|332:299,1,131.25,0|0,3:2|0:0,0:0:0:0:
347,299,29855,1,2,3:2:0:0:
263,234,30055,2,0,B|283:201|330:206|330:206|376:210|400:164,1,131.25,10|8,0:0|0:0,0:0:0:0:
394,176,30455,5,6,3:2:0:0:
328,103,30655,1,2,0:0:0:0:
232,291,30855,1,10,0:0:0:0:
185,220,31055,2,0,P|157:251|155:294,1,87.5,2|0,3:2|0:0,0:0:0:0:
141,364,31455,2,0,P|104:342|90:301,1,87.5,2|8,3:2|0:0,0:0:0:0:
91,291,31755,1,0,3:2:0:0:
94,279,31855,1,0,3:2:0:0:
118,176,32055,5,6,3:2:0:0:
184,103,32255,1,2,0:0:0:0:
280,291,32455,1,10,0:0:0:0:
327,220,32655,2,0,P|355:251|356:294,1,87.5,2|0,3:2|0:0,0:0:0:0:
371,370,33055,2,0,P|401:344|406:214,1,175,2|0,3:2|3:2,0:0:0:0:
256,0,33655,5,6,3:2:0:0:
216,338,35255,5,6,0:0:0:0:
148,84,36055,5,6,0:0:0:0:
402,152,36855,5,6,0:0:0:0:
