osu file format v14

[General]
AudioFilename: audio.mp3
AudioLeadIn: 0
PreviewTime: 6855
Countdown: 0
SampleSet: Soft
StackLeniency: 0.3
Mode: 0
LetterboxInBreaks: 0
WidescreenStoryboard: 1

[Editor]
DistanceSpacing: 1
BeatDivisor: 4
GridSize: 8
TimelineZoom: 1

[Metadata]
Title:Enchantix (TV Size)
TitleUnicode:Enchantix (TV Size)
Artist:Eva Jagun
ArtistUnicode:Eva Jagun
Creator:AnimeStyle
Version:bluirre's Hyper
Source:Winx Club
Tags:german deutsch pop fairy transformation sequence cartoon rainbow nick qiyana dyl-byl bluirre nickelodeon
BeatmapID:3269985
BeatmapSetID:1588772

[Difficulty]
HPDrainRate:6
CircleSize:6
OverallDifficulty:7
ApproachRate:8
SliderMultiplier:1.4
SliderTickRate:1

[Events]
//Background and Video events
0,0,"winx-enchantix-the-winx-club-408762930.jpg",0,0
Video,-272,"Eva Jagun - Enchantix.mp4"
//Break Periods
//Storyboard Layer 0 (Background)
//Storyboard Layer 1 (Fail)
//Storyboard Layer 2 (Pass)
//Storyboard Layer 3 (Foreground)
//Storyboard Layer 4 (Overlay)
//Storyboard Sound Samples

[TimingPoints]
55,400,4,2,1,40,1,0
55,-166.666666666667,4,2,1,40,0,0
4855,-133.333333333333,4,2,1,40,0,0
8055,-100,4,2,1,40,0,0
8355,-100,4,2,1,5,0,0
8455,-100,4,2,1,40,0,0
8955,-100,4,2,1,5,0,0
9055,-100,4,2,1,40,0,0
9555,-100,4,2,1,5,0,0
9655,-100,4,2,1,40,0,0
10555,-100,4,2,1,5,0,0
10655,-100,4,2,1,40,0,0
10955,-100,4,2,1,5,0,0
11055,-100,4,2,1,40,0,0
12855,-83.3333333333333,4,2,1,40,0,0
13455,-71.4285714285714,4,2,1,40,0,0
19855,-62.5,4,2,1,40,0,0
20855,-71.4285714285714,4,2,1,40,0,0
23455,-76.9230769230769,4,2,1,40,0,0
29155,-76.9230769230769,4,2,1,5,0,0
29255,-76.9230769230769,4,2,1,40,0,0
29755,-76.9230769230769,4,2,1,5,0,0
29855,-76.9230769230769,4,2,1,40,0,0
35255,-100,4,2,1,40,0,1
35355,-100,4,2,1,40,0,0
36055,-100,4,2,1,40,0,1
36155,-100,4,2,1,40,0,0
36855,-100,4,2,1,40,0,1
36955,-100,4,2,1,40,0,0

[Colours]
Combo1 : 255,0,0
Combo2 : 170,255,85
Combo3 : 255,255,113
Combo4 : 0,0,128
Combo5 : 255,128,192
Combo6 : 192,130,255

[HitObjects]
98,218,55,6,0,B|80:162|156:105|232:147|246:283|116:338,2,335.999989746094,6|6|6,0:0|0:0|0:0,0:0:0:0:
98,218,4855,6,0,P|122:244|201:232,1,105.000004005432,6|0,0:0|0:0,0:0:0:0:
216,140,5455,1,2,0:0:0:0:
216,140,5555,1,2,0:0:0:0:
216,140,5655,2,0,P|191:113|113:126,1,105.000004005432,6|0,0:0|0:0,0:0:0:0:
94,215,6355,2,0,L|82:253,2,26.2500010013581,2|6|0,0:0|0:0|0:0,0:0:0:0:
216,140,6921,5,2,0:0:0:0:
320,200,7321,5,2,0:0:0:0:
216,260,7721,5,2,0:0:0:0:
379,166,8055,6,0,P|354:139|276:152,1,105.000004005432,6|0,3:2|0:0,0:0:0:0:
271,153,8455,1,8,0:0:0:0:
386,241,8655,2,0,P|421:233|449:158,1,105.000004005432,2|0,3:2|0:0,0:0:0:0:
451,154,9055,1,2,3:2:0:0:
320,200,9255,2,0,P|309:234|360:296,1,105.000004005432,10|0,0:0|3:2,0:0:0:0:
362,299,9655,5,6,3:2:0:0:
479,326,9855,1,2,0:0:0:0:
402,384,10055,1,10,0:0:0:0:
481,232,10255,2,0,B|438:227|438:227|417:239|417:239|369:233,1,105,2|0,3:2|0:0,0:0:0:0:
361,166,10655,2,0,B|398:170|398:170|419:158|419:158|462:163,1,105,2|0,3:2|0:0,0:0:0:0:
490,167,11055,1,0,3:2:0:0:
338,97,11255,6,0,P|315:102|287:145,2,70,6|0|10,3:2|0:0|0:0,0:0:0:0:
301,212,11855,2,0,P|266:211|240:189,2,70,2|0|2,3:2|0:0|3:2,0:0:0:0:
361,166,12455,1,10,0:0:0:0:
338,97,12655,1,0,3:2:0:0:
205,129,12855,6,0,P|178:153|191:232,1,83.9999974365235,6|2,3:2|0:0,0:0:0:0:
187,296,13255,1,10,0:0:0:0:
137,366,13455,2,0,P|97:392|50:384,1,97.9999970092774,2|0,3:2|3:2,0:0:0:0:
140,255,13855,1,0,3:2:0:0:
54,293,14055,1,10,0:0:0:0:
218,229,14255,1,0,3:2:0:0:
218,229,14355,1,0,3:2:0:0:
218,229,14455,6,0,P|228:264|178:325,1,97.9999970092774,6|0,3:2|0:0,0:0:0:0:
266,360,14855,2,0,B|296:335|298:295|298:295|304:315|320:328,1,97.9999970092774,10|0,0:0|3:2,0:0:0:0:
430,365,15255,2,0,B|395:348|359:366|359:366|374:351|377:330,1,97.9999970092774,2|0,0:0|3:2,0:0:0:0:
355,216,15655,2,0,B|357:254|391:276|391:276|370:271|351:279,1,97.9999970092774,10|0,0:0|3:2,0:0:0:0:
298,167,16055,6,0,P|337:140|384:149,1,97.9999970092774,6|0,3:2|0:0,0:0:0:0:
434,207,16455,1,10,0:0:0:0:
413,282,16655,2,0,P|370:260|354:215,1,97.9999970092774,2|0,3:2|0:0,0:0:0:0:
465,137,17055,1,2,3:2:0:0:
411,78,17255,1,10,0:0:0:0:
384,149,17455,1,2,3:2:0:0:
384,149,17555,1,0,0:0:0:0:
384,149,17655,6,0,P|344:175|297:166,1,97.9999970092774,6|0,3:2|0:0,0:0:0:0:
247,110,18055,1,10,0:0:0:0:
264,33,18255,2,0,P|306:54|322:99,1,97.9999970092774,2|0,3:2|0:0,0:0:0:0:
297,166,18655,1,2,3:2:0:0:
218,193,18855,2,0,P|214:145|246:109,1,97.9999970092774,10|0,0:0|3:2,0:0:0:0:
322,99,19255,5,6,3:2:0:0:
245,109,19455,1,2,0:0:0:0:
359,157,19655,1,10,0:0:0:0:
257,252,19855,2,0,P|198:256|154:217,1,112,2|2,3:2|3:2,0:0:0:0:
131,72,20255,1,2,3:2:0:0:
218,193,20455,1,14,0:0:0:0:
300,186,20655,1,0,3:2:0:0:
300,186,20755,1,0,3:2:0:0:
300,186,20855,6,0,P|329:223|324:271,1,97.9999970092774,6|0,3:2|0:0,0:0:0:0:
267,323,21255,1,10,0:0:0:0:
207,301,21455,2,0,B|164:306|164:306|143:294|143:294|95:300,1,97.9999970092774,2|0,3:2|0:0,0:0:0:0:
87,367,21855,2,0,B|124:363|124:363|145:375|145:375|188:370,1,97.9999970092774,2|10,3:2|0:0,0:0:0:0:
207,301,22255,1,0,3:2:0:0:
114,234,22455,6,0,P|70:253|52:297,1,97.9999970092774,6|0,3:2|0:0,0:0:0:0:
87,367,22855,1,10,0:0:0:0:
114,234,23055,2,0,L|137:126,1,97.9999970092774,2|0,3:2|0:0,0:0:0:0:
157,57,23455,1,2,3:2:0:0:
75,35,23655,1,10,0:0:0:0:
53,116,23855,1,0,3:2:0:0:
135,138,24055,6,0,P|182:139|216:109,1,90.9999958343508,6|0,3:2|0:0,0:0:0:0:
243,33,24455,1,10,0:0:0:0:
178,0,24655,2,0,P|130:-1|97:29,1,90.9999958343508,2|0,3:2|0:0,0:0:0:0:
135,138,25055,2,0,B|172:152|200:135|214:113|214:113|235:81|276:76|317:99,1,181.999991668702,2|0,3:2|3:2,0:0:0:0:
456,40,25655,6,0,P|409:39|375:69,1,90.9999958343508,6|0,3:2|0:0,0:0:0:0:
348,145,26055,1,10,0:0:0:0:
413,178,26255,2,0,P|461:179|494:149,1,90.9999958343508,2|0,3:2|0:0,0:0:0:0:
456,40,26655,2,0,B|419:26|391:43|377:65|377:65|356:97|315:102|274:79,1,181.999991668702,2|0,3:2|3:2,0:0:0:0:
140,116,27255,6,0,P|132:72|156:33,1,90.9999958343508,6|0,3:2|0:0,0:0:0:0:
204,86,27655,1,10,0:0:0:0:
295,88,27855,2,0,B|327:82|327:82|345:65|345:65|392:59,1,90.9999958343508,2|0,3:2|0:0,0:0:0:0:
413,122,28255,2,0,B|379:126|379:126|362:143|362:143|319:150,1,90.9999958343508,2|8,3:2|0:0,0:0:0:0:
262,198,28655,1,0,3:2:0:0:
199,167,28855,6,0,B|180:171|157:199|154:221|175:219|168:251|153:267|122:276,1,136.499993751526,6|0,3:2|0:0,0:0:0:0:
110,283,29255,1,10,0:0:0:0:
106,191,29455,2,0,B|124:185|158:198|171:215|152:224|174:248|195:255|218:249,1,136.499993751526,0|0,3:2|0:0,0:0:0:0:
238,250,29855,1,2,3:2:0:0:
201,326,30055,2,0,B|177:334|167:356|167:356|136:346|112:360,1,90.9999958343508,10|0,0:0|3:2,0:0:0:0:
165,224,30455,5,6,3:2:0:0:
269,177,30655,1,2,0:0:0:0:
188,133,30855,1,10,0:0:0:0:
238,250,31055,2,0,B|246:280|268:301|312:310|309:282|339:285|377:317|383:342,2,181.999991668702,2|2|0,3:2|3:2|3:2,0:0:0:0:
373,208,32055,5,6,3:2:0:0:
269,161,32255,1,2,0:0:0:0:
350,117,32455,1,10,0:0:0:0:
300,234,32655,2,0,B|291:264|269:285|225:294|228:266|198:269|160:301|154:326,2,181.999991668702,2|2|0,3:2|3:2|3:2,0:0:0:0:
305,219,33555,1,0,0:0:0:0:
310,207,33655,5,6,3:2:0:0:
350,117,35255,5,6,0:0:0:0:
162,117,36055,5,6,0:0:0:0:
256,192,36855,5,6,0:0:0:0:
