osu file format v14

[General]
AudioFilename: audio.mp3
AudioLeadIn: 0
PreviewTime: 6855
Countdown: 0
SampleSet: Soft
StackLeniency: 0.7
Mode: 0
LetterboxInBreaks: 0
WidescreenStoryboard: 1

[Editor]
DistanceSpacing: 1.1
BeatDivisor: 4
GridSize: 8
TimelineZoom: 1

[Metadata]
Title:Enchantix (TV Size)
TitleUnicode:Enchantix (TV Size)
Artist:Eva Jagun
ArtistUnicode:Eva Jagun
Creator:AnimeStyle
Version:Normal
Source:Winx Club
Tags:german deutsch pop fairy transformation sequence cartoon rainbow nick qiyana dyl-byl bluirre nickelodeon
BeatmapID:3260358
BeatmapSetID:1588772

[Difficulty]
HPDrainRate:3
CircleSize:3.5
OverallDifficulty:3
ApproachRate:4
SliderMultiplier:1
SliderTickRate:1

[Events]
//Background and Video events
0,0,"winx-enchantix-the-winx-club-408762930.jpg",0,0
Video,-272,"Eva Jagun - Enchantix.mp4"
//Break Periods
//Storyboard Layer 0 (Background)
//Storyboard Layer 1 (Fail)
//Storyboard Layer 2 (Pass)
//Storyboard Layer 3 (Foreground)
//Storyboard Layer 4 (Overlay)
//Storyboard Sound Samples

[TimingPoints]
55,400,4,2,1,40,1,0
55,-125,4,2,1,40,0,0
4855,-111.111111111111,4,2,1,40,0,0
8055,-100,4,2,1,40,0,0
35255,-100,4,2,1,40,0,1
35355,-100,4,2,1,40,0,0
36055,-100,4,2,1,40,0,1
36155,-100,4,2,1,40,0,0
36855,-100,4,2,1,40,0,1
36955,-100,4,2,1,40,0,0

[Colours]
Combo1 : 255,0,0
Combo2 : 170,255,85
Combo3 : 255,255,113
Combo4 : 0,0,128
Combo5 : 255,128,192
Combo6 : 192,130,255

[HitObjects]
155,87,55,6,0,B|105:28|31:42|31:42|88:149|10:215,2,320,6|6|6,0:0|0:0|0:0,0:0:0:0:
407,61,4855,6,0,P|465:12|486:85,2,179.999994506836,6|6|6,0:0|0:0|0:0,0:0:0:0:
394,175,6921,6,0,L|382:278,2,89.9999972534181,2|2|2,0:0|0:0|0:0,0:0:0:0:
330,108,8055,6,0,B|280:102|280:102|255:46,1,100,6|10,3:2|0:0,0:0:0:0:
210,30,8655,1,0,3:2:0:0:
105,52,9055,1,2,3:2:0:0:
105,52,9255,1,10,0:0:0:0:
54,149,9655,6,0,L|46:216,2,50,6|2|10,3:2|0:0|0:0,0:0:0:0:
107,135,10255,2,0,B|157:141|157:141|182:197,1,100,2|2,3:2|3:2,0:0:0:0:
201,235,10855,1,8,0:0:0:0:
182,343,11255,5,6,3:2:0:0:
76,335,11655,1,10,0:0:0:0:
76,335,11855,1,2,3:2:0:0:
90,229,12255,1,2,3:2:0:0:
90,229,12455,1,10,0:0:0:0:
201,235,12855,6,0,L|255:194,2,50,6|2|10,3:2|0:0|0:0,0:0:0:0:
219,286,13455,2,0,L|148:340,2,75,2|8|10,3:2|0:0|0:0,0:0:0:0:
307,351,14455,1,6,3:2:0:0:
393,283,14855,5,10,0:0:0:0:
434,246,15055,1,2,3:2:0:0:
475,209,15255,2,0,L|516:263,2,50,2|0|10,0:0|3:2|0:0,0:0:0:0:
508,104,16055,6,0,P|489:54|440:29,1,100,6|10,3:2|0:0,0:0:0:0:
398,12,16655,1,0,3:2:0:0:
295,51,17055,2,0,L|254:-3,2,50,2|10|2,3:2|0:0|3:2,0:0:0:0:
272,101,17655,6,0,P|290:150|339:175,1,100,6|10,3:2|0:0,0:0:0:0:
382,193,18255,1,2,3:2:0:0:
455,282,18655,1,2,3:2:0:0:
455,282,18855,1,10,0:0:0:0:
345,294,19255,6,0,L|291:335,2,50,6|2|10,3:2|0:0|0:0,0:0:0:0:
355,240,19855,2,0,L|429:184,2,75,2|8|14,3:2|0:0|0:0,0:0:0:0:
248,214,20855,1,6,3:2:0:0:
141,188,21255,5,10,0:0:0:0:
141,188,21455,2,0,B|110:147|110:147|133:90,1,100,2|2,3:2|3:2,0:0:0:0:
155,53,22055,1,8,0:0:0:0:
264,50,22455,6,0,L|283:4,2,50,6|0|10,3:2|0:0|0:0,0:0:0:0:
293,96,23055,2,0,B|339:114|339:114|379:84,1,100,2|2,3:2|3:2,0:0:0:0:
422,49,23655,1,10,0:0:0:0:
511,112,24055,1,6,3:2:0:0:
455,206,24455,5,10,0:0:0:0:
451,260,24655,2,0,P|432:310|383:335,1,100,2|2,3:2|3:2,0:0:0:0:
340,347,25255,1,8,0:0:0:0:
231,330,25655,1,6,3:2:0:0:
188,228,26055,5,10,0:0:0:0:
192,174,26255,2,0,P|211:124|260:99,1,100,2|2,3:2|3:2,0:0:0:0:
303,87,26855,1,8,0:0:0:0:
411,106,27255,1,6,3:2:0:0:
455,206,27655,5,10,0:0:0:0:
455,206,27855,2,0,B|451:256|451:256|397:284,1,100,2|2,3:2|3:2,0:0:0:0:
356,300,28455,1,8,0:0:0:0:
247,279,28855,6,0,L|202:301,2,50,6|0|10,3:2|3:2|0:0,0:0:0:0:
259,225,29455,2,0,B|236:180|236:180|186:177,1,100,2|2,3:2|3:2,0:0:0:0:
131,173,30055,1,10,0:0:0:0:
77,76,30455,6,0,L|27:73,2,50,6|2|10,3:2|0:0|0:0,0:0:0:0:
123,46,31055,2,0,P|173:28|224:49,1,100,2|2,3:2|3:2,0:0:0:0:
262,71,31655,1,8,0:0:0:0:
359,122,32055,6,0,L|409:125,2,50,6|2|10,3:2|0:0|0:0,0:0:0:0:
313,152,32655,2,0,P|262:169|211:148,1,100,2|2,3:2|3:2,0:0:0:0:
174,127,33255,1,8,0:0:0:0:
83,63,33655,5,6,3:2:0:0:
426,338,35255,5,6,0:0:0:0:
209,379,36055,5,6,0:0:0:0:
283,172,36855,5,6,0:0:0:0:
