osu file format v14

[General]
AudioFilename: audio.mp3
AudioLeadIn: 0
PreviewTime: 6855
Countdown: 0
SampleSet: Soft
StackLeniency: 0.5
Mode: 0
LetterboxInBreaks: 0
WidescreenStoryboard: 1

[Editor]
DistanceSpacing: 1.1
BeatDivisor: 4
GridSize: 8
TimelineZoom: 1

[Metadata]
Title:Enchantix (TV Size)
TitleUnicode:Enchantix (TV Size)
Artist:Eva Jagun
ArtistUnicode:Eva Jagun
Creator:AnimeStyle
Version:Hard
Source:Winx Club
Tags:german deutsch pop fairy transformation sequence cartoon rainbow nick qiyana dyl-byl bluirre nickelodeon
BeatmapID:3247018
BeatmapSetID:1588772

[Difficulty]
HPDrainRate:5
CircleSize:5
OverallDifficulty:6
ApproachRate:7
SliderMultiplier:1.4
SliderTickRate:1

[Events]
//Background and Video events
0,0,"winx-enchantix-the-winx-club-408762930.jpg",0,0
Video,-272,"Eva Jagun - Enchantix.mp4"
//Break Periods
//Storyboard Layer 0 (Background)
//Storyboard Layer 1 (Fail)
//Storyboard Layer 2 (Pass)
//Storyboard Layer 3 (Foreground)
//Storyboard Layer 4 (Overlay)
//Storyboard Sound Samples

[TimingPoints]
55,400,4,2,1,40,1,0
55,-125,4,2,1,40,0,0
4855,-111.111111111111,4,2,1,40,0,0
8055,-100,4,2,1,40,0,0
35255,-100,4,2,1,40,0,1
35355,-100,4,2,1,40,0,0
36055,-100,4,2,1,40,0,1
36155,-100,4,2,1,40,0,0
36855,-100,4,2,1,40,0,1
36955,-100,4,2,1,40,0,0

[Colours]
Combo1 : 255,0,0
Combo2 : 170,255,85
Combo3 : 255,255,113
Combo4 : 0,0,128
Combo5 : 255,128,192
Combo6 : 192,130,255

[HitObjects]
130,76,55,6,0,B|80:17|6:31|6:31|65:125|5:201|5:201|73:179|128:209,2,448,6|6|6,0:0|0:0|0:0,0:0:0:0:
239,26,4855,6,0,P|320:64|336:155,1,188.999994232178,6|2,0:0|0:0,0:0:0:0:
329,189,5555,1,2,0:0:0:0:
322,222,5655,2,0,P|336:311|418:351,1,188.999994232178,6|2,0:0|0:0,0:0:0:0:
418,351,6355,1,2,0:0:0:0:
418,351,6455,1,6,0:0:0:0:
479,201,6921,6,0,L|509:107,1,83.9999974365235,2|0,0:0|0:0,0:0:0:0:
459,130,7321,2,0,L|437:33,1,83.9999974365235,2|0,0:0|0:0,0:0:0:0:
407,80,7721,2,0,L|352:20,1,62.9999980773926,2|0,0:0|0:0,0:0:0:0:
316,52,8055,6,0,B|255:32|255:32|180:73,1,140,6|8,3:2|0:0,0:0:0:0:
121,107,8655,1,0,3:2:0:0:
158,256,9055,1,0,3:2:0:0:
225,218,9255,1,8,0:0:0:0:
301,229,9455,1,0,3:2:0:0:
329,254,9555,1,0,3:2:0:0:
357,279,9655,6,0,L|425:240,2,70,6|2|10,3:2|0:0|0:0,0:0:0:0:
319,346,10255,2,0,B|260:380|260:380|220:310,1,140,2|2,3:2|3:2,0:0:0:0:
149,298,10855,2,0,L|114:237,1,70,8|0,0:0|3:2,0:0:0:0:
44,203,11255,5,6,3:2:0:0:
29,49,11655,1,10,0:0:0:0:
29,49,11855,1,2,3:2:0:0:
159,139,12255,1,2,3:2:0:0:
159,139,12455,1,10,0:0:0:0:
238,6,12855,5,6,3:2:0:0:
282,68,13055,1,2,0:0:0:0:
326,130,13255,1,10,0:0:0:0:
370,192,13455,2,0,L|355:250,4,35,2|8|0|8|0,3:2|0:0|3:2|0:0|3:2,0:0:0:0:
442,166,14055,1,10,0:0:0:0:
397,103,14255,1,0,3:2:0:0:
397,103,14355,1,0,3:2:0:0:
397,103,14455,1,4,3:2:0:0:
279,4,14855,5,10,0:0:0:0:
202,6,15055,1,0,3:2:0:0:
159,69,15255,2,0,L|71:46,2,70,2|0|10,0:0|3:2|0:0,0:0:0:0:
176,143,15855,1,2,3:2:0:0:
213,153,15955,1,2,3:2:0:0:
250,163,16055,6,0,P|310:222|315:283,1,140,6|8,3:2|0:0,0:0:0:0:
316,274,16655,1,0,3:2:0:0:
195,369,17055,1,2,3:2:0:0:
119,354,17255,1,10,0:0:0:0:
140,279,17455,1,2,3:2:0:0:
161,205,17655,6,0,P|101:146|96:85,1,140,6|8,3:2|0:0,0:0:0:0:
94,93,18255,1,2,3:2:0:0:
236,33,18655,1,2,3:2:0:0:
311,46,18855,1,10,0:0:0:0:
386,59,19055,1,0,3:2:0:0:
423,66,19155,1,0,3:2:0:0:
461,72,19255,6,0,L|509:-5,2,70,6|2|10,3:2|0:0|0:0,0:0:0:0:
487,144,19855,1,2,3:2:0:0:
419,170,20055,1,0,3:2:0:0:
419,170,20155,1,0,3:2:0:0:
419,170,20255,1,2,3:2:0:0:
389,98,20455,1,14,0:0:0:0:
461,72,20655,1,0,3:2:0:0:
461,72,20755,1,0,3:2:0:0:
461,72,20855,1,4,3:2:0:0:
473,225,21255,5,10,0:0:0:0:
406,263,21455,2,0,B|373:323|373:323|310:289,1,140,2|2,3:2|3:2,0:0:0:0:
236,310,22055,1,8,0:0:0:0:
161,331,22255,1,0,3:2:0:0:
126,313,22355,1,0,3:2:0:0:
91,295,22455,6,0,L|43:372,2,70,6|0|10,3:2|0:0|0:0,0:0:0:0:
67,221,23055,2,0,B|101:157|101:157|40:125,1,140,2|2,3:2|3:2,0:0:0:0:
7,56,23655,1,10,0:0:0:0:
87,40,23855,1,0,3:2:0:0:
87,40,23955,1,0,3:2:0:0:
87,40,24055,1,4,3:2:0:0:
242,20,24455,5,10,0:0:0:0:
315,41,24655,2,0,P|375:100|380:161,1,140,2|2,3:2|3:2,0:0:0:0:
441,201,25255,1,8,0:0:0:0:
388,257,25455,1,0,3:2:0:0:
388,257,25555,1,0,3:2:0:0:
388,257,25655,1,4,3:2:0:0:
284,370,26055,5,10,0:0:0:0:
211,349,26255,2,0,P|151:290|146:229,1,140,2|2,3:2|3:2,0:0:0:0:
85,189,26855,1,8,0:0:0:0:
138,133,27055,1,0,3:2:0:0:
138,133,27155,1,0,3:2:0:0:
138,133,27255,1,4,3:2:0:0:
239,16,27655,5,10,0:0:0:0:
314,31,27855,2,0,L|469:62,1,140,2|2,3:2|3:2,0:0:0:0:
501,117,28455,1,8,0:0:0:0:
437,159,28655,1,0,3:2:0:0:
431,197,28755,1,0,3:2:0:0:
425,235,28855,6,0,L|414:319,2,70,6|0|10,3:2|3:2|0:0,0:0:0:0:
437,159,29455,1,2,3:2:0:0:
443,121,29555,1,8,0:0:0:0:
450,76,29655,2,0,P|439:43|399:12,1,70,2|2,0:0|3:2,0:0:0:0:
414,18,30055,1,8,0:0:0:0:
234,12,30455,5,6,3:2:0:0:
157,21,30655,1,2,0:0:0:0:
143,96,30855,1,10,0:0:0:0:
213,126,31055,2,0,P|206:209|162:252,1,140,2|2,3:2|3:2,0:0:0:0:
94,267,31655,1,8,0:0:0:0:
94,267,31755,1,0,3:2:0:0:
94,267,31855,1,0,3:2:0:0:
114,192,32055,5,6,3:2:0:0:
189,174,32255,1,2,0:0:0:0:
243,228,32455,1,10,0:0:0:0:
225,302,32655,2,0,P|250:336|335:346,1,105,2|0,3:2|3:2,0:0:0:0:
346,350,33055,1,2,3:2:0:0:
393,289,33255,1,8,0:0:0:0:
444,233,33455,1,0,3:2:0:0:
444,233,33555,1,0,3:2:0:0:
444,233,33655,1,6,3:2:0:0:
444,233,35255,5,6,0:0:0:0:
198,44,36055,5,6,0:0:0:0:
159,350,36855,5,6,0:0:0:0:
