osu file format v14

[General]
AudioFilename: audio.mp3
AudioLeadIn: 0
PreviewTime: 6855
Countdown: 0
SampleSet: Soft
StackLeniency: 0.5
Mode: 0
LetterboxInBreaks: 0
WidescreenStoryboard: 1

[Editor]
DistanceSpacing: 0.9
BeatDivisor: 4
GridSize: 4
TimelineZoom: 1

[Metadata]
Title:Enchantix (TV Size)
TitleUnicode:Enchantix (TV Size)
Artist:Eva Jagun
ArtistUnicode:Eva Jagun
Creator:AnimeStyle
Version:Feenstaub
Source:Winx Club
Tags:german deutsch pop fairy transformation sequence cartoon rainbow nick qiyana dyl-byl bluirre nickelodeon
BeatmapID:3276001
BeatmapSetID:1588772

[Difficulty]
HPDrainRate:6.5
CircleSize:6.7
OverallDifficulty:8
ApproachRate:8.7
SliderMultiplier:1.6
SliderTickRate:1

[Events]
//Background and Video events
0,0,"winx-enchantix-the-winx-club-408762930.jpg",0,0
Video,-272,"Eva Jagun - Enchantix.mp4"
//Break Periods
//Storyboard Layer 0 (Background)
//Storyboard Layer 1 (Fail)
//Storyboard Layer 2 (Pass)
//Storyboard Layer 3 (Foreground)
//Storyboard Layer 4 (Overlay)
//Storyboard Sound Samples

[TimingPoints]
55,400,4,2,1,40,1,0
55,-125,4,2,1,40,0,0
4855,-111.111111111111,4,2,1,40,0,0
8055,-100,4,2,1,40,0,0
12855,-76.9230769230769,4,2,1,40,0,0
14455,-100,4,2,1,40,0,0
19255,-76.9230769230769,4,2,1,40,0,0
20855,-90.9090909090909,4,2,1,40,0,0
30455,-71.4285714285714,4,2,1,40,0,0
35255,-71.4285714285714,4,2,1,40,0,1
35355,-71.4285714285714,4,2,1,40,0,0
36055,-71.4285714285714,4,2,1,40,0,1
36155,-71.4285714285714,4,2,1,40,0,0
36855,-71.4285714285714,4,2,1,40,0,1
36955,-71.4285714285714,4,2,1,40,0,0

[Colours]
Combo1 : 255,0,0
Combo2 : 170,255,85
Combo3 : 255,255,113
Combo4 : 0,0,128
Combo5 : 255,128,192
Combo6 : 192,130,255

[HitObjects]
160,64,55,6,0,B|111:2|6:31|6:31|65:125|5:201|5:201|94:165|176:232,2,512,6|6|6,0:0|0:0|0:0,0:0:0:0:
226,125,4855,6,0,B|191:173|226:225|226:225|261:277|226:325,1,215.999993408203,6|2,0:0|0:0,0:0:0:0:
202,353,5555,1,2,0:0:0:0:
225,325,5655,2,0,B|273:290|325:325|325:325|377:360|425:325,1,215.999993408203,6|2,0:0|0:0,0:0:0:0:
455,304,6355,1,2,0:0:0:0:
425,324,6455,1,6,0:0:0:0:
372,164,6921,5,2,0:0:0:0:
363,175,7321,5,2,0:0:0:0:
354,186,7721,5,2,0:0:0:0:
345,197,8055,6,0,P|299:167|238:194,1,120,6|0,3:2|0:0,0:0:0:0:
229,203,8455,1,8,0:0:0:0:
394,250,8655,2,0,P|391:304|444:344,1,120,2|0,3:2|0:0,0:0:0:0:
457,347,9055,1,2,3:2:0:0:
415,180,9255,2,0,P|451:167|473:134,1,80,10|0,0:0|3:2,0:0:0:0:
481,116,9555,1,0,3:2:0:0:
488,97,9655,5,6,3:2:0:0:
511,28,9855,1,2,0:0:0:0:
439,20,10055,1,10,0:0:0:0:
367,12,10255,2,0,B|386:90,1,80,2|0,3:2|0:0,0:0:0:0:
394,250,10655,2,0,B|413:328,1,80,2|8,3:2|0:0,0:0:0:0:
367,383,11055,1,0,3:2:0:0:
301,353,11255,6,0,P|247:342|200:390,1,120,6|0,3:2|0:0,0:0:0:0:
182,380,11655,1,10,0:0:0:0:
40,285,11855,2,0,P|93:295|140:247,1,120,2|0,3:2|0:0,0:0:0:0:
159,258,12255,1,2,3:2:0:0:
294,153,12455,2,0,P|257:140|220:153,1,80,10|0,0:0|3:2,0:0:0:0:
199,149,12755,1,0,3:1:0:0:
173,145,12855,5,6,3:2:0:0:
131,61,13055,1,2,0:0:0:0:
224,66,13255,1,10,0:0:0:0:
173,145,13455,1,2,3:2:0:0:
169,170,13555,1,8,0:0:0:0:
165,195,13655,1,0,3:2:0:0:
161,220,13755,1,8,0:0:0:0:
157,245,13855,1,0,3:2:0:0:
106,324,14055,1,10,0:0:0:0:
260,384,14255,1,0,3:2:0:0:
260,384,14355,1,0,3:2:0:0:
260,384,14455,5,6,3:2:0:0:
406,324,14655,1,0,0:0:0:0:
455,271,14855,2,0,B|467:187,1,80,10|0,0:0|3:2,0:0:0:0:
351,64,15255,2,0,B|339:148,1,80,2|0,0:0|3:2,0:0:0:0:
205,251,15655,2,0,B|216:171,1,80,10|0,0:0|3:2,0:0:0:0:
218,151,15955,1,0,3:2:0:0:
220,130,16055,6,0,P|202:74|147:56,1,120,6|0,3:2|0:0,0:0:0:0:
127,56,16455,1,10,0:0:0:0:
180,219,16655,2,0,P|217:232|254:219,1,80,2|0,3:2|0:0,0:0:0:0:
372,95,17055,1,2,3:2:0:0:
420,259,17255,1,10,0:0:0:0:
254,218,17455,1,2,3:2:0:0:
254,218,17555,1,0,0:0:0:0:
254,218,17655,6,0,P|216:232|160:184,1,120,6|0,3:2|0:0,0:0:0:0:
154,166,18055,1,10,0:0:0:0:
277,285,18255,2,0,P|306:310|314:349,1,80,2|0,3:2|0:0,0:0:0:0:
313,178,18655,2,0,P|320:139|349:113,1,80,2|10,3:2|0:0,0:0:0:0:
488,11,19055,1,0,3:2:0:0:
488,11,19155,1,0,3:2:0:0:
488,11,19255,5,6,3:2:0:0:
495,233,19455,1,2,0:0:0:0:
299,128,19655,1,10,0:0:0:0:
488,11,19855,2,0,L|439:103,1,103.999995239258,2|2,3:2|3:2,0:0:0:0:
428,126,20155,1,0,3:2:0:0:
416,149,20255,1,2,3:2:0:0:
256,304,20455,1,14,0:0:0:0:
96,149,20655,1,0,3:2:0:0:
84,126,20755,1,0,3:2:0:0:
72,103,20855,6,0,L|32:25,1,88.000002685547,6|0,3:2|0:0,0:0:0:0:
108,6,21255,1,10,0:0:0:0:
175,46,21455,2,0,L|215:124,1,88.000002685547,2|0,3:2|0:0,0:0:0:0:
392,159,21855,2,0,L|352:81,1,88.000002685547,2|10,3:2|0:0,0:0:0:0:
279,73,22255,1,0,3:2:0:0:
279,73,22355,1,0,3:2:0:0:
279,73,22455,6,0,P|235:28|175:46,1,132.00000402832,6|0,3:2|0:0,0:0:0:0:
160,62,22855,1,10,0:0:0:0:
140,249,23055,2,0,P|184:293|244:276,1,132.00000402832,2|0,3:2|0:0,0:0:0:0:
259,260,23455,1,2,3:2:0:0:
428,177,23655,1,10,0:0:0:0:
279,73,23855,1,0,3:2:0:0:
279,73,23955,1,0,3:2:0:0:
279,73,24055,6,0,L|149:38,1,132.00000402832,6|0,3:2|0:0,0:0:0:0:
130,33,24455,1,10,0:0:0:0:
54,57,24655,2,0,P|19:109|47:163,1,88.000002685547,2|0,3:2|0:0,0:0:0:0:
32,320,25055,2,0,P|66:267|38:213,1,88.000002685547,2|10,3:2|0:0,0:0:0:0:
96,176,25455,1,0,3:2:0:0:
96,176,25555,1,0,3:2:0:0:
96,176,25655,6,0,L|226:140,1,132.00000402832,6|0,3:2|0:0,0:0:0:0:
244,135,26055,1,10,0:0:0:0:
290,70,26255,2,0,P|320:100|323:143,1,88.000002685547,2|0,3:2|0:0,0:0:0:0:
316,333,26655,2,0,P|280:281|307:226,1,88.000002685547,2|10,3:2|0:0,0:0:0:0:
356,223,27055,1,0,3:2:0:0:
356,223,27155,1,0,3:2:0:0:
356,223,27255,6,0,L|486:187,1,132.00000402832,6|0,3:2|0:0,0:0:0:0:
504,183,27655,1,10,0:0:0:0:
484,106,27855,2,0,P|453:75|410:72,1,88.000002685547,2|0,3:2|0:0,0:0:0:0:
221,80,28255,2,0,P|272:115|327:88,1,88.000002685547,2|8,3:2|0:0,0:0:0:0:
340,49,28655,1,0,3:2:0:0:
340,49,28755,1,0,3:2:0:0:
340,49,28855,6,0,B|368:146,2,88.000002685547,6|0|10,3:2|3:2|0:0,0:0:0:0:
264,23,29455,1,0,3:2:0:0:
242,18,29555,1,8,0:0:0:0:
220,13,29655,1,2,0:0:0:0:
149,49,29855,1,2,3:2:0:0:
177,122,30055,2,0,B|199:115|214:136|214:136|238:124|254:141,1,88.000002685547,10|0,0:0|3:2,0:0:0:0:
255,142,30355,1,8,0:0:0:0:
255,142,30455,5,6,3:2:0:0:
286,237,30655,1,2,0:0:0:0:
385,218,30855,1,10,0:0:0:0:
358,118,31055,2,0,B|393:61|393:61|242:18,1,223.999993164063,2|2,3:2|3:2,0:0:0:0:
81,105,31655,1,8,0:0:0:0:
81,105,31755,1,0,3:2:0:0:
81,105,31855,1,0,3:2:0:0:
260,147,32055,5,6,3:2:0:0:
363,108,32255,1,2,0:0:0:0:
385,218,32455,1,10,0:0:0:0:
286,237,32655,2,0,B|251:294|251:294|394:335,1,167.999994873047,2|2,3:2|3:2,0:0:0:0:
376,329,33055,1,2,3:2:0:0:
511,204,33255,1,8,0:0:0:0:
384,82,33455,1,0,3:2:0:0:
384,82,33555,1,0,3:2:0:0:
384,82,33655,5,6,3:2:0:0:
286,237,35255,5,6,0:0:0:0:
4,375,36055,5,6,0:0:0:0:
28,62,36855,5,6,0:0:0:0:
