osu file format v14

[General]
AudioFilename: audio.mp3
AudioLeadIn: 0
PreviewTime: 6855
Countdown: 0
SampleSet: Soft
StackLeniency: 0.7
Mode: 0
LetterboxInBreaks: 0
WidescreenStoryboard: 1

[Editor]
DistanceSpacing: 1.3
BeatDivisor: 4
GridSize: 8
TimelineZoom: 1

[Metadata]
Title:Enchantix (TV Size)
TitleUnicode:Enchantix (TV Size)
Artist:Eva Jagun
ArtistUnicode:Eva Jagun
Creator:AnimeStyle
Version:Advanced
Source:Winx Club
Tags:german deutsch pop fairy transformation sequence cartoon rainbow nick qiyana dyl-byl bluirre nickelodeon
BeatmapID:3259763
BeatmapSetID:1588772

[Difficulty]
HPDrainRate:4
CircleSize:4
OverallDifficulty:4.5
ApproachRate:5.5
SliderMultiplier:1.2
SliderTickRate:1

[Events]
//Background and Video events
0,0,"winx-enchantix-the-winx-club-408762930.jpg",0,0
Video,-272,"Eva Jagun - Enchantix.mp4"
//Break Periods
//Storyboard Layer 0 (Background)
//Storyboard Layer 1 (Fail)
//Storyboard Layer 2 (Pass)
//Storyboard Layer 3 (Foreground)
//Storyboard Layer 4 (Overlay)
//Storyboard Sound Samples

[TimingPoints]
55,400,4,2,1,40,1,0
55,-125,4,2,1,40,0,0
4855,-111.111111111111,4,2,1,40,0,0
8055,-100,4,2,1,40,0,0
35255,-100,4,2,1,40,0,1
35355,-100,4,2,1,40,0,0
36055,-100,4,2,1,40,0,1
36155,-100,4,2,1,40,0,0
36855,-100,4,2,1,40,0,1
36955,-100,4,2,1,40,0,0

[Colours]
Combo1 : 255,0,0
Combo2 : 170,255,85
Combo3 : 255,255,113
Combo4 : 0,0,128
Combo5 : 255,128,192
Combo6 : 192,130,255

[HitObjects]
129,76,55,6,0,B|79:17|5:31|5:31|64:125|4:201|4:201|72:239,2,384,6|6|6,0:0|0:0|0:0,0:0:0:0:
221,309,4855,6,0,P|282:374|359:362,1,161.999995056152,6|2,0:0|0:0,0:0:0:0:
414,342,5655,2,0,P|472:290|468:212,1,161.999995056152,6|2,0:0|0:0,0:0:0:0:
438,147,6455,1,6,0:0:0:0:
285,86,6921,6,0,L|172:42,2,107.999996704102,2|2|2,0:0|0:0|0:0,0:0:0:0:
415,75,8055,6,0,B|474:98|474:98|493:165,1,120,6|10,3:2|0:0,0:0:0:0:
489,152,8655,1,2,3:2:0:0:
434,300,9055,1,2,3:2:0:0:
434,300,9255,1,10,0:0:0:0:
278,303,9655,6,0,L|252:369,2,60,6|2|10,3:2|0:0|0:0,0:0:0:0:
240,233,10255,2,0,B|263:174|263:174|199:149,1,120,2|2,3:2|3:2,0:0:0:0:
182,80,10855,2,0,L|126:58,1,60,8|0,0:0|3:2,0:0:0:0:
53,30,11255,5,6,3:2:0:0:
49,189,11655,1,10,0:0:0:0:
49,189,11855,1,2,3:2:0:0:
44,348,12255,1,2,3:2:0:0:
44,348,12455,1,10,0:0:0:0:
196,381,12855,5,6,3:2:0:0:
272,367,13055,1,2,0:0:0:0:
291,291,13255,1,10,0:0:0:0:
236,234,13455,2,0,L|124:205,2,90,2|8|10,3:2|0:0|0:0,0:0:0:0:
312,217,14255,2,0,L|339:196,2,30,0|0|4,3:2|3:2|3:2,0:0:0:0:
272,367,14855,5,10,0:0:0:0:
196,381,15055,1,0,3:2:0:0:
133,334,15255,2,0,L|52:313,2,60,2|0|10,0:0|3:2|0:0,0:0:0:0:
288,331,16055,6,0,P|345:327|389:259,1,120,6|8,3:2|0:0,0:0:0:0:
384,282,16655,1,0,3:2:0:0:
464,148,17055,1,2,3:2:0:0:
500,79,17255,1,10,0:0:0:0:
447,21,17455,1,2,3:2:0:0:
375,54,17655,6,0,P|317:58|278:102,1,120,6|8,3:2|0:0,0:0:0:0:
277,102,18255,1,2,3:2:0:0:
202,239,18655,1,2,3:2:0:0:
202,239,18855,1,10,0:0:0:0:
111,365,19255,6,0,L|30:344,2,60,6|2|10,3:2|0:0|0:0,0:0:0:0:
158,303,19855,1,2,3:2:0:0:
202,239,20055,2,0,L|232:247,2,30,0|0|2,3:2|3:2|3:2,0:0:0:0:
159,173,20455,1,14,0:0:0:0:
116,107,20655,2,0,L|86:99,2,30,0|0|4,3:2|3:2|3:2,0:0:0:0:
243,17,21255,5,10,0:0:0:0:
318,34,21455,2,0,B|379:49|379:49|406:113,1,120,2|2,3:2|3:2,0:0:0:0:
433,172,22055,1,8,0:0:0:0:
450,327,22455,6,0,L|508:342,2,60,6|0|10,3:2|0:0|0:0,0:0:0:0:
379,361,23055,2,0,B|317:345|317:345|295:293,1,120,2|2,3:2|3:2,0:0:0:0:
269,219,23655,1,10,0:0:0:0:
242,145,23855,2,0,L|226:106,2,30,0|0|4,3:2|3:2|3:2,0:0:0:0:
194,294,24455,5,10,0:0:0:0:
218,368,24655,2,0,P|161:364|117:296,1,120,2|2,3:2|3:2,0:0:0:0:
134,242,25255,1,8,0:0:0:0:
208,219,25455,2,0,L|258:237,2,30,0|0|4,3:2|3:2|3:2,0:0:0:0:
92,114,26055,5,10,0:0:0:0:
68,41,26255,2,0,P|125:45|169:113,1,120,2|2,3:2|3:2,0:0:0:0:
152,166,26855,1,8,0:0:0:0:
78,189,27055,2,0,L|28:171,2,30,0|0|4,3:2|3:2|3:2,0:0:0:0:
194,294,27655,5,10,0:0:0:0:
265,324,27855,2,0,B|324:347|324:347|349:283,1,120,2|2,3:2|3:2,0:0:0:0:
368,220,28455,1,8,0:0:0:0:
482,114,28855,6,0,L|510:38,2,60,6|0|10,3:2|3:2|0:0,0:0:0:0:
404,120,29455,2,0,L|389:161,2,30,2|8|0,3:2|0:0|3:2,0:0:0:0:
351,62,29855,2,0,L|275:34,1,60,2|10,3:2|0:0,0:0:0:0:
140,64,30455,5,6,3:2:0:0:
78,111,30655,1,2,0:0:0:0:
105,183,30855,1,10,0:0:0:0:
182,182,31055,2,0,P|206:245|181:300,2,120,2|2|0,3:2|3:2|3:2,0:0:0:0:
206,107,32055,5,6,3:2:0:0:
268,60,32255,1,2,0:0:0:0:
345,61,32455,1,10,0:0:0:0:
414,97,32655,2,0,P|396:153|420:206,1,120,2|2,3:2|3:2,0:0:0:0:
486,247,33255,1,8,0:0:0:0:
451,316,33455,2,0,L|428:358,2,30,0|0|4,3:2|3:2|3:2,0:0:0:0:
60,338,35255,5,6,0:0:0:0:
159,42,36055,5,6,0:0:0:0:
370,272,36855,5,6,0:0:0:0:
