osu file format v14

[General]
AudioFilename: Eurobeat Brony - Batty (Extended) ft. Odyssey (192).mp3
AudioLeadIn: 0
PreviewTime: 79460
Countdown: 0
SampleSet: Normal
StackLeniency: 0.7
Mode: 0
LetterboxInBreaks: 1
WidescreenStoryboard: 1

[Editor]
Bookmarks: 13729,25958,39716,64174,79461,103920,128378,143665,155894,168123,192582,207869,220098,232328
DistanceSpacing: 1
BeatDivisor: 1
GridSize: 4
TimelineZoom: 0.3999999

[Metadata]
Title:Batty (Extended) ft. Odyssey
TitleUnicode:Batty (Extended) ft. Odyssey
Artist:Eurobeat Brony
ArtistUnicode:Eurobeat Brony
Creator:Firmatorenio
Version:Modest
Source:
Tags:pony, mlp, flutterbat
BeatmapID:562031
BeatmapSetID:241455

[Difficulty]
HPDrainRate:3
CircleSize:3
OverallDifficulty:3
ApproachRate:3
SliderMultiplier:0.96
SliderTickRate:1

[Events]
//Background and Video events
0,0,"maxresdefault.jpg",0,0
//Break Periods
2,91890,102479
2,156093,166683
2,192017,203371
//Storyboard Layer 0 (Background)
//Storyboard Layer 1 (Fail)
//Storyboard Layer 2 (Pass)
//Storyboard Layer 3 (Foreground)
//Storyboard Sound Samples

[TimingPoints]
15257,382.165605095541,4,1,0,85,1,0
79460,-100,4,1,0,85,0,1
91690,-100,4,1,0,85,0,0
143664,-100,4,1,0,85,0,1
155893,-100,4,1,0,85,0,0
207868,-100,4,1,0,85,0,1
220098,-100,4,1,0,85,0,1
232327,-100,4,1,0,85,0,0

[HitObjects]
76,80,15257,6,0,P|180:176|188:224,1,192,4|0,0:0|0:0,0:0:0:0:
256,288,16403,1,8,0:0:0:0:
324,219,16785,2,0,P|356:131|436:80,1,192
412,272,18314,6,0,P|336:320|244:284,1,192
256,192,19460,1,8,0:0:0:0:
265,97,19842,2,0,P|179:63|100:112,1,192
68,304,21371,5,0,0:0:0:0:
136,236,21753,1,8,0:0:0:0:
184,320,22135,1,0,0:0:0:0:
328,320,22900,5,0,0:0:0:0:
376,236,23282,1,8,0:0:0:0:
444,304,23664,1,0,0:0:0:0:
256,192,24428,12,0,25957,0:0:0:0:
52,256,27486,6,0,P|84:176|176:124,1,192,4|0,0:0|0:0,0:0:0:0:
160,316,29014,2,0,L|360:316,1,192
488,180,30543,6,0,P|456:100|364:48,1,192
352,240,32072,2,0,L|160:240,1,192
24,104,33600,5,0,0:0:0:0:
96,44,33983,1,8,0:0:0:0:
176,100,34365,1,0,0:0:0:0:
176,292,35129,5,0,0:0:0:0:
96,344,35511,1,8,0:0:0:0:
24,280,35894,1,0,0:0:0:0:
176,176,36658,6,0,B|256:132|256:252|352:208,1,192
504,324,38186,5,2,0:0:0:0:
412,356,38568,1,8,0:0:0:0:
316,364,38950,1,2,0:0:0:0:
224,344,39332,1,8,0:0:0:0:
156,276,39715,5,4,0:0:0:0:
348,256,40479,1,0,0:0:0:0:
436,84,41244,2,0,P|352:40|256:40,1,192
256,232,42772,2,0,P|160:231|76:187,1,192
256,124,44301,5,2,0:0:0:0:
216,36,44683,1,8,0:0:0:0:
160,116,45065,1,2,0:0:0:0:
120,28,45448,1,8,0:0:0:0:
64,108,45830,5,0,0:0:0:0:
256,100,46594,1,0,0:0:0:0:
256,292,47358,2,0,P|164:308|64:292,1,192
116,108,48887,6,0,P|256:80|408:112,1,288
412,204,50416,2,0,P|420:248|412:300,2,96,2|8|2,0:0|0:0|0:0,0:0:0:0:
256,316,51944,6,0,P|160:316|92:244,1,192,4|0,0:0|0:0,0:0:0:0:
28,184,53091,1,8,0:0:0:0:
95,116,53473,2,0,P|162:51|256:52,1,192,0|0,0:0|0:0,0:0:0:0:
344,88,54620,1,8,0:0:0:0:
408,160,55002,6,0,P|348:260|184:284,1,288,0|8,0:0|0:0,0:0:0:0:
116,224,56530,1,2,0:0:0:0:
168,144,56913,1,8,0:0:0:0:
256,104,57295,1,2,0:0:0:0:
344,144,57677,1,8,0:0:0:0:
396,224,58059,6,0,P|369:267|320:288,1,96,8|8,0:0|0:0,0:0:0:0:
236,264,58823,1,2,0:0:0:0:
344,104,59588,2,0,P|288:72|224:84,1,96,8|8,0:0|0:0,0:0:0:0:
164,96,60352,1,2,0:0:0:0:
256,264,61116,6,0,P|208:276|156:264,2,96,2|8|2,0:0|0:0|0:0,0:0:0:0:
160,100,62645,2,0,P|208:88|256:100,2,96,2|8|2,0:0|0:0|0:0,0:0:0:0:
348,52,64174,6,0,P|365:96|348:148,1,96,4|8,0:0|0:0,0:0:0:0:
272,192,64938,1,0,0:0:0:0:
356,240,65320,2,0,P|372:288|356:336,1,96,8|0,0:0|0:0,0:0:0:0:
272,372,66085,1,8,0:0:0:0:
184,336,66467,1,0,0:0:0:0:
144,148,67231,6,0,L|96:64,1,96,0|8,0:0|0:0,0:0:0:0:
192,64,67995,1,0,0:0:0:0:
285,63,68378,2,0,L|240:148,1,96,8|0,0:0|0:0,0:0:0:0:
336,148,69142,1,8,0:0:0:0:
292,232,69524,1,0,0:0:0:0:
484,232,70288,6,0,P|476:286|436:316,1,96,0|8,0:0|0:0,0:0:0:0:
352,328,71053,1,0,0:0:0:0:
256,316,71435,2,0,P|222:282|218:235,1,96,8|0,0:0|0:0,0:0:0:0:
316,240,72199,1,8,0:0:0:0:
268,156,72581,1,0,0:0:0:0:
440,72,73346,6,0,P|436:156|420:176,1,96,0|8,0:0|0:0,0:0:0:0:
340,192,74110,1,0,0:0:0:0:
244,192,74492,1,8,0:0:0:0:
172,128,74874,2,0,P|116:128|80:148,1,96,0|8,0:0|0:0,0:0:0:0:
44,236,75639,1,0,0:0:0:0:
104,312,76021,1,8,0:0:0:0:
256,192,76403,12,0,78696,0:0:0:0:
0,112,79460,6,0,P|256:0|512:116,1,576,4|0,0:0|0:0,0:0:0:0:
336,192,82518,5,0,0:0:0:0:
256,136,82900,1,8,0:0:0:0:
176,192,83282,1,0,0:0:0:0:
256,248,83664,1,8,0:0:0:0:
256,344,84046,1,0,0:0:0:0:
440,192,85575,6,0,P|256:8|72:192,1,576
256,128,88632,2,0,P|204:152|180:200,1,96,0|8,0:0|0:0,0:0:0:0:
272,220,89397,1,0,0:0:0:0:
344,160,89779,2,0,P|368:216|352:264,1,96,8|0,0:0|0:0,0:0:0:0:
288,308,90543,1,8,0:0:0:0:
200,276,90925,1,0,0:0:0:0:
320,128,91690,5,4,0:0:0:0:
292,116,103919,6,0,P|196:92|108:116,1,192,4|0,0:0|0:0,0:0:0:0:
220,268,105448,2,0,P|316:292|404:268,1,192,0|0,0:0|0:0,0:0:0:0:
408,76,106976,2,0,P|312:52|224:76,1,192
72,192,108505,5,2,0:0:0:0:
24,276,108887,1,8,0:0:0:0:
120,276,109269,1,2,0:0:0:0:
168,192,109651,1,8,0:0:0:0:
212,276,110034,6,0,P|256:192|216:112,1,192
408,116,111562,2,0,P|448:199|404:280,1,192
304,116,113091,6,0,P|264:204|308:280,1,192
120,236,114620,2,0,L|120:140,2,96,2|8|2,0:0|0:0|0:0,0:0:0:0:
308,196,116148,6,0,P|372:124|388:28,1,192,4|0,0:0|0:0,0:0:0:0:
496,192,117677,2,0,P|432:264|416:360,1,192
256,248,119206,2,0,P|160:280|80:248,1,192
100,56,120734,5,2,0:0:0:0:
196,60,121116,1,8,0:0:0:0:
144,140,121499,1,2,0:0:0:0:
240,144,121881,1,8,0:0:0:0:
192,228,122263,6,0,P|288:224|332:128,1,192,8|8,0:0|0:0,0:0:0:0:
416,100,123409,1,2,0:0:0:0:
430,195,123792,6,0,P|406:279|470:351,1,192,8|8,0:0|0:0,0:0:0:0:
500,260,124938,1,2,0:0:0:0:
510,164,125320,6,0,L|510:68,2,96,2|8|2,0:0|0:0|0:0,0:0:0:0:
360,276,126849,2,0,P|314:292|268:276,2,96,2|8|2,0:0|0:0|0:0,0:0:0:0:
256,112,128378,6,0,P|212:100|164:112,1,96,4|8,0:0|0:0,0:0:0:0:
208,196,129142,1,0,0:0:0:0:
251,280,129524,2,0,P|205:292|160:280,2,96,8|0|8,0:0|0:0|0:0,0:0:0:0:
300,196,130671,1,0,0:0:0:0:
236,16,131435,6,0,P|192:32|152:80,2,96,0|8|0,0:0|0:0|0:0,0:0:0:0:
248,112,132581,1,8,0:0:0:0:
168,168,132964,2,0,P|112:160|72:116,2,96,0|8|0,0:0|0:0|0:0,0:0:0:0:
316,292,134492,6,0,P|362:310|404:296,3,96,0|8|0|8,0:0|0:0|0:0|0:0,0:0:0:0:
364,208,136021,2,0,P|321:191|273:204,2,96,0|8|0,0:0|0:0|0:0,0:0:0:0:
256,192,137549,12,0,142900,0:0:0:0:
48,248,143664,6,0,B|256:48|256:48|464:248,1,576,4|0,0:0|0:0,0:0:0:0:
256,192,146721,6,0,L|256:288,2,96,0|8|0,0:0|0:0|0:0,0:0:0:0:
208,112,147868,1,8,0:0:0:0:
304,112,148250,1,0,0:0:0:0:
24,192,149779,6,0,P|256:335|488:191,1,576
300,152,152836,6,0,P|256:136|204:156,1,96,0|8,0:0|0:0,0:0:0:0:
252,236,153600,2,0,P|204:252|152:228,2,96,0|8|0,0:0|0:0|0:0,0:0:0:0:
208,152,154747,2,0,P|160:140|100:168,1,96,8|0,0:0|0:0,0:0:0:0:
256,16,155893,1,4,0:0:0:0:
80,272,168123,6,0,P|108:172|192:152,1,192,4|0,0:0|0:0,0:0:0:0:
176,248,169269,1,8,0:0:0:0:
168,344,169651,2,0,P|256:300|264:208,1,192
348,40,171180,6,0,P|439:54|477:138,1,192
381,130,172326,1,8,0:0:0:0:
283,122,172708,2,0,P|314:208|404:226,1,192,0|0,0:0|0:0,0:0:0:0:
256,348,174237,6,0,P|156:336|108:264,1,192
184,208,175384,1,8,0:0:0:0:
256,144,175766,2,0,P|208:44|96:36,1,192
48,196,177295,6,0,P|100:276|284:312,1,288
265,341,180352,6,0,P|354:337|452:268,1,192,4|0,0:0|0:0,0:0:0:0:
249,251,181881,2,0,P|160:247|62:178,1,192
164,28,183409,2,0,P|260:8|356:28,1,192
256,192,184938,5,0,0:0:0:0:
160,192,185320,1,8,0:0:0:0:
80,240,185702,1,0,0:0:0:0:
80,144,186085,1,8,0:0:0:0:
164,96,186467,6,0,P|256:80|356:96,1,192
256,260,187995,1,0,0:0:0:0:
208,176,188378,1,8,0:0:0:0:
304,176,188760,1,0,0:0:0:0:
256,360,189524,6,0,P|125:298|80:168,1,288,0|8,0:0|0:0,0:0:0:0:
173,190,191053,2,0,P|199:242|259:268,2,96,2|8|2,0:0|0:0|0:0,0:0:0:0:
256,192,204811,12,0,207104,0:0:0:0:
40,344,207868,6,0,P|79:341|136:304,1,96,4|8,0:0|0:0,0:0:0:0:
188,240,208632,1,0,0:0:0:0:
244,160,209014,2,0,P|286:119|332:104,1,96,8|0,0:0|0:0,0:0:0:0:
416,120,209779,1,8,0:0:0:0:
488,184,210161,2,0,P|488:236|452:292,1,96,0|8,0:0|0:0,0:0:0:0:
376,304,210925,6,0,B|308:284|232:300|232:300|264:216|244:160,1,288,0|8,0:0|0:0,0:0:0:0:
172,224,212454,2,0,B|152:168|184:84|184:84|108:100|40:80,1,288,0|8,0:0|0:0,0:0:0:0:
36,176,213983,6,0,B|36:272|36:272|100:352,1,192,0|0,0:0|0:0,0:0:0:0:
188,320,215129,1,8,0:0:0:0:
216,228,215511,2,0,L|168:136,1,96,0|8,0:0|0:0,0:0:0:0:
192,48,216276,1,0,0:0:0:0:
368,52,217040,6,0,P|412:124|368:348,1,288,0|8,0:0|0:0,0:0:0:0:
300,356,218569,2,0,P|208:328|108:352,1,192
8,188,220097,6,0,B|256:40|256:40|504:188,1,576,4|0,0:0|0:0,0:0:0:0:
396,348,223155,2,0,P|347:360|304:348,1,96,0|8,0:0|0:0,0:0:0:0:
244,272,223919,2,0,P|197:262|152:272,1,96,0|8,0:0|0:0,0:0:0:0:
64,312,224683,2,0,P|52:272|72:220,2,96,0|8|0,0:0|0:0|0:0,0:0:0:0:
152,272,225830,1,8,0:0:0:0:
216,192,226212,6,0,P|236:92|164:44,2,192
131,364,228505,1,0,0:0:0:0:
48,192,229269,1,0,0:0:0:0:
136,148,229651,2,0,P|188:160|220:212,2,96,8|0|8,0:0|0:0|0:0,0:0:0:0:
132,244,230798,1,0,0:0:0:0:
124,340,231180,2,0,P|68:324|44:288,1,96,8|0,0:0|0:0,0:0:0:0:
172,148,232327,6,0,P|160:102|176:57,2,96,4|8|0,0:0|0:0|0:0,0:0:0:0:
344,232,233855,2,0,P|356:278|340:323,2,96,0|8|0,0:0|0:0|0:0,0:0:0:0:
256,60,235384,6,0,P|232:158|263:253,1,192
448,268,236913,1,2,0:0:0:0:
364,316,237295,1,8,0:0:0:0:
268,328,237677,1,2,0:0:0:0:
176,304,238059,1,8,0:0:0:0:
104,240,238441,6,0,P|88:128|136:60,1,192
320,76,239970,1,0,0:0:0:0:
408,36,240352,1,8,0:0:0:0:
440,128,240734,1,0,0:0:0:0:
324,280,241499,6,0,P|248:336|144:332,1,192
48,176,243027,1,2,0:0:0:0:
132,128,243409,1,8,0:0:0:0:
228,120,243791,1,2,0:0:0:0:
320,152,244174,1,8,0:0:0:0:
340,244,244556,6,0,P|416:168|392:88,1,192,4|0,0:0|0:0,0:0:0:0:
232,188,246085,2,0,P|136:168|80:240,1,192
232,352,247613,2,0,P|330:347|360:256,1,192
396,80,249142,5,2,0:0:0:0:
304,48,249524,1,8,0:0:0:0:
208,48,249906,1,2,0:0:0:0:
120,8,250288,1,8,0:0:0:0:
120,104,250671,6,0,P|164:184|288:216,1,192
444,204,252199,1,0,0:0:0:0:
436,300,252581,1,8,0:0:0:0:
356,356,252964,1,0,0:0:0:0:
164,364,253728,6,0,P|76:304|64:212,1,192
84,36,255256,2,0,L|134:123,1,96,2|8,0:0|0:0,0:0:0:0:
182,37,256021,2,0,L|231:121,1,96,2|8,0:0|0:0,0:0:0:0:
276,36,256785,1,2,0:0:0:0:
324,120,257167,1,8,0:0:0:0:
372,36,257549,2,0,P|412:80|412:136,2,96,2|8|4,0:0|0:0|0:0,0:0:0:0:
