osu file format v14

[General]
AudioFilename: Eurobeat Brony - Batty (Extended) ft. Odyssey (192).mp3
AudioLeadIn: 0
PreviewTime: 79460
Countdown: 0
SampleSet: None
StackLeniency: 0.4
Mode: 0
LetterboxInBreaks: 1
WidescreenStoryboard: 1

[Editor]
Bookmarks: 13729,25958,39716,79461,103920,128378,143665,155894,192582,207869,220098,232328
DistanceSpacing: 1
BeatDivisor: 4
GridSize: 4
TimelineZoom: 1.2

[Metadata]
Title:Batty (Extended) ft. Odyssey
TitleUnicode:Batty (Extended) ft. Odyssey
Artist:Eurobeat Brony
ArtistUnicode:Eurobeat Brony
Creator:Firmatorenio
Version:Crazy.old
Source:
Tags:pony, mlp, flutterbat
BeatmapID:1492748
BeatmapSetID:241455

[Difficulty]
HPDrainRate:7
CircleSize:4
OverallDifficulty:7
ApproachRate:9.3
SliderMultiplier:2.2
SliderTickRate:2

[Events]
//Background and Video events
0,0,"maxresdefault.jpg",0,0
//Break Periods
2,26158,26933
2,91891,97251
2,168324,189735
//Storyboard Layer 0 (Background)
//Storyboard Layer 1 (Fail)
//Storyboard Layer 2 (Pass)
//Storyboard Layer 3 (Foreground)
//Storyboard Sound Samples

[TimingPoints]
15257,382.165605095541,4,1,0,85,1,0
79460,-100,4,1,0,85,0,1
91690,-100,4,1,0,85,0,0
143664,-100,4,1,0,85,0,1
155893,-100,4,1,0,85,0,0
192581,-100,4,1,0,50,0,0
207868,-100,4,1,0,85,0,1
213887,-100,4,1,0,50,0,1
214842,-100,4,1,0,85,0,1
218521,-100,4,1,0,50,0,1
219285,-100,4,1,0,85,0,1
220098,-100,4,1,0,85,0,1
232327,-100,4,1,0,85,0,0

[HitObjects]
144,40,15257,5,4,0:0:0:0:
84,132,15448,1,0,0:0:0:0:
188,100,15639,1,8,0:0:0:0:
124,192,15830,1,0,0:0:0:0:
232,164,16021,1,0,0:0:0:0:
168,252,16212,1,0,0:0:0:0:
276,224,16404,1,8,0:0:0:0:
348,140,16595,1,0,0:0:0:0:
416,52,16786,5,0,0:0:0:0:
312,84,16977,1,0,0:0:0:0:
392,156,17168,1,8,0:0:0:0:
464,240,17359,1,0,0:0:0:0:
356,252,17550,1,0,0:0:0:0:
252,308,17741,1,0,0:0:0:0:
160,248,17932,1,8,0:0:0:0:
256,192,18123,1,0,0:0:0:0:
308,96,18314,5,4,0:0:0:0:
208,96,18505,1,0,0:0:0:0:
204,96,18600,1,0,0:0:0:0:
200,96,18696,1,8,0:0:0:0:
144,192,18888,2,0,P|164:256|224:288,1,110
308,292,19270,1,0,0:0:0:0:
364,196,19461,2,0,P|408:156|412:84,2,110,8|0|0,0:0|0:0|0:0,0:0:0:0:
308,292,20034,5,0,0:0:0:0:
200,288,20225,1,8,0:0:0:0:
248,200,20416,1,0,0:0:0:0:
252,196,20512,1,0,0:0:0:0:
256,192,20607,2,0,P|220:128|228:76,1,110,0|0,0:0|0:0,0:0:0:0:
332,112,20990,1,8,0:0:0:0:
256,192,21181,1,0,0:0:0:0:
180,272,21372,5,4,0:0:0:0:
256,192,21563,1,0,0:0:0:0:
256,64,21754,2,0,P|320:48|376:64,1,110,8|0,0:0|0:0,0:0:0:0:
256,320,22136,2,0,P|192:336|136:320,1,110
384,192,22518,2,0,P|400:256|384:312,1,110,8|0,0:0|0:0,0:0:0:0:
256,192,22805,1,0,0:0:0:0:
128,192,22900,6,0,P|112:128|128:72,1,110,0|0,0:0|0:0,0:0:0:0:
256,352,23282,2,0,P|320:368|376:352,1,110,8|0,0:0|0:0,0:0:0:0:
256,32,23665,2,0,P|192:16|136:32,1,110
96,192,24047,2,0,P|80:256|96:312,1,110,8|0,0:0|0:0,0:0:0:0:
256,192,24334,1,0,0:0:0:0:
416,192,24429,6,0,P|432:128|416:72,1,110,4|0,0:0|0:0,0:0:0:0:
256,192,24811,12,4,25958,0:0:0:0:
112,88,27487,5,4,0:0:0:0:
220,88,27678,1,2,0:0:0:0:
224,88,27772,1,8,0:0:0:0:
176,188,27965,1,2,0:0:0:0:
172,192,28059,1,8,0:0:0:0:
284,192,28251,1,0,0:0:0:0:
112,296,28537,1,8,0:0:0:0:
224,296,28729,1,2,0:0:0:0:
252,296,28824,1,0,0:0:0:0:
280,296,28920,1,2,0:0:0:0:
308,296,29015,5,8,0:0:0:0:
420,296,29207,1,2,0:0:0:0:
388,192,29398,1,8,0:0:0:0:
340,92,29589,1,2,0:0:0:0:
232,80,29780,1,8,0:0:0:0:
256,192,30066,1,8,0:0:0:0:
148,188,30257,1,2,0:0:0:0:
152,216,30353,1,0,0:0:0:0:
164,240,30449,1,2,0:0:0:0:
180,260,30544,5,12,0:0:0:0:
72,268,30734,1,0,0:0:0:0:
60,240,30831,1,8,0:0:0:0:
60,132,31022,1,2,0:0:0:0:
68,104,31116,1,8,0:0:0:0:
156,40,31307,1,0,0:0:0:0:
256,172,31595,1,8,0:0:0:0:
324,84,31785,1,0,0:0:0:0:
343,103,31880,1,2,0:0:0:0:
356,127,31976,1,0,0:0:0:0:
364,153,32071,5,8,0:0:0:0:
364,181,32167,1,0,0:0:0:0:
358,207,32262,1,2,0:0:0:0:
345,232,32358,1,0,0:0:0:0:
326,252,32453,1,8,0:0:0:0:
304,267,32549,1,0,0:0:0:0:
278,276,32644,1,2,0:0:0:0:
250,278,32740,1,0,0:0:0:0:
224,276,32836,1,8,0:0:0:0:
388,284,33124,1,8,0:0:0:0:
300,216,33315,1,0,0:0:0:0:
276,200,33410,1,2,0:0:0:0:
256,184,33506,1,0,0:0:0:0:
232,168,33601,5,12,0:0:0:0:
124,192,33792,1,2,0:0:0:0:
116,196,33888,1,8,0:0:0:0:
388,192,34078,1,2,0:0:0:0:
396,188,34174,1,8,0:0:0:0:
256,192,34366,1,0,0:0:0:0:
256,356,34652,1,8,0:0:0:0:
148,336,34842,1,0,0:0:0:0:
124,320,34937,1,2,0:0:0:0:
104,300,35033,1,0,0:0:0:0:
88,276,35128,5,8,0:0:0:0:
76,252,35224,1,0,0:0:0:0:
68,224,35320,1,2,0:0:0:0:
68,196,35415,1,0,0:0:0:0:
76,168,35510,1,8,0:0:0:0:
92,144,35606,1,0,0:0:0:0:
112,128,35701,1,2,0:0:0:0:
136,116,35797,1,0,0:0:0:0:
164,108,35892,1,8,0:0:0:0:
256,192,36181,1,8,0:0:0:0:
364,192,36372,1,0,0:0:0:0:
384,212,36468,1,2,0:0:0:0:
400,236,36563,1,0,0:0:0:0:
404,264,36659,5,12,0:0:0:0:
296,288,36850,1,2,0:0:0:0:
272,300,36945,1,8,0:0:0:0:
164,288,37136,1,2,0:0:0:0:
140,300,37232,1,8,0:0:0:0:
92,200,37423,1,0,0:0:0:0:
256,192,37710,1,8,0:0:0:0:
324,236,37901,1,0,0:0:0:0:
340,212,37996,1,2,0:0:0:0:
352,188,38092,1,0,0:0:0:0:
364,164,38187,1,8,0:0:0:0:
336,160,38283,5,0,0:0:0:0:
324,136,38378,1,2,0:0:0:0:
312,112,38474,1,0,0:0:0:0:
300,88,38570,1,8,0:0:0:0:
280,108,38665,5,0,0:0:0:0:
252,108,38761,1,2,0:0:0:0:
224,108,38856,1,0,0:0:0:0:
196,108,38952,1,8,0:0:0:0:
200,136,39047,5,0,0:0:0:0:
188,160,39143,1,2,0:0:0:0:
172,180,39238,1,0,0:0:0:0:
156,200,39334,1,8,0:0:0:0:
256,192,39716,5,4,0:0:0:0:
256,104,39907,2,0,P|312:120|336:168,1,110,0|8,0:0|0:0,0:0:0:0:
256,280,40289,2,0,P|200:264|176:208,1,110
344,192,40671,2,0,P|328:248|280:272,1,110,0|8,0:0|0:0,0:0:0:0:
168,192,41054,2,0,P|184:136|232:112,1,110
288,312,41436,6,0,P|344:296|368:248,1,110,0|8,0:0|0:0,0:0:0:0:
224,72,41818,2,0,P|168:88|144:136,1,110
376,160,42200,2,0,P|360:104|312:80,1,110,0|8,0:0|0:0,0:0:0:0:
136,224,42582,2,0,P|152:280|200:304,1,110
312,48,42964,6,0,P|368:64|392:112,1,110,0|8,0:0|0:0,0:0:0:0:
200,336,43347,2,0,P|144:320|120:272,1,110
400,248,43729,2,0,P|384:304|336:328,1,110,0|8,0:0|0:0,0:0:0:0:
112,136,44111,2,0,P|128:80|176:56,1,110,0|8,0:0|0:0,0:0:0:0:
196,48,44398,5,0,0:0:0:0:
224,44,44493,1,2,0:0:0:0:
252,40,44589,1,0,0:0:0:0:
280,44,44684,1,8,0:0:0:0:
308,52,44780,1,0,0:0:0:0:
332,68,44875,1,2,0:0:0:0:
352,88,44971,1,0,0:0:0:0:
368,112,45066,1,8,0:0:0:0:
376,140,45162,1,0,0:0:0:0:
372,168,45257,1,2,0:0:0:0:
364,196,45353,1,0,0:0:0:0:
344,216,45449,1,8,0:0:0:0:
320,232,45544,1,0,0:0:0:0:
292,232,45640,1,2,0:0:0:0:
272,216,45735,1,0,0:0:0:0:
256,192,45831,5,4,0:0:0:0:
196,132,46022,1,0,0:0:0:0:
196,252,46213,1,8,0:0:0:0:
316,252,46404,1,0,0:0:0:0:
316,132,46595,1,0,0:0:0:0:
196,8,46786,1,0,0:0:0:0:
440,132,46977,1,8,0:0:0:0:
316,376,47168,1,0,0:0:0:0:
72,252,47359,5,0,0:0:0:0:
316,8,47550,1,0,0:0:0:0:
440,252,47742,1,8,0:0:0:0:
196,376,47933,1,0,0:0:0:0:
72,132,48124,1,0,0:0:0:0:
316,252,48315,1,0,0:0:0:0:
196,8,48506,1,8,0:0:0:0:
440,132,48697,1,0,0:0:0:0:
196,252,48888,5,0,0:0:0:0:
316,8,49079,1,0,0:0:0:0:
440,252,49269,1,8,0:0:0:0:
196,132,49460,1,0,0:0:0:0:
316,376,49652,1,0,0:0:0:0:
72,252,49843,1,0,0:0:0:0:
316,132,50034,1,8,0:0:0:0:
196,376,50226,1,0,0:0:0:0:
72,132,50417,6,0,L|100:84|72:36,4,110,0|0|8|0|0,0:0|0:0|0:0|0:0|0:0,0:0:0:0:
80,240,51372,1,0,0:0:0:0:
152,328,51563,1,8,0:0:0:0:
256,296,51754,1,0,0:0:0:0:
256,192,51945,5,4,0:0:0:0:
72,132,52136,1,0,0:0:0:0:
316,8,52328,1,8,0:0:0:0:
200,244,52519,1,0,0:0:0:0:
198,248,52614,1,0,0:0:0:0:
196,252,52710,1,0,0:0:0:0:
440,132,52901,1,0,0:0:0:0:
316,376,53092,1,8,0:0:0:0:
72,252,53282,1,0,0:0:0:0:
316,132,53473,5,0,0:0:0:0:
196,376,53665,1,0,0:0:0:0:
72,132,53856,1,8,0:0:0:0:
312,16,54047,1,0,0:0:0:0:
314,12,54143,1,0,0:0:0:0:
316,8,54238,1,0,0:0:0:0:
196,252,54429,1,0,0:0:0:0:
440,132,54621,1,8,0:0:0:0:
316,376,54812,1,0,0:0:0:0:
196,132,55003,5,0,0:0:0:0:
432,248,55194,1,0,0:0:0:0:
436,250,55289,1,0,0:0:0:0:
440,252,55385,1,8,0:0:0:0:
196,376,55576,1,0,0:0:0:0:
72,132,55767,1,0,0:0:0:0:
308,248,55958,1,0,0:0:0:0:
312,250,56054,1,0,0:0:0:0:
316,252,56148,1,8,0:0:0:0:
196,4,56340,1,0,0:0:0:0:
72,252,56531,5,8,0:0:0:0:
76,280,56627,1,0,0:0:0:0:
92,304,56722,1,2,0:0:0:0:
112,324,56818,1,0,0:0:0:0:
124,300,56914,5,8,0:0:0:0:
148,316,57009,1,0,0:0:0:0:
172,328,57104,1,2,0:0:0:0:
200,332,57200,1,0,0:0:0:0:
200,304,57296,5,8,0:0:0:0:
228,312,57391,1,0,0:0:0:0:
256,316,57487,1,2,0:0:0:0:
284,316,57582,1,0,0:0:0:0:
276,288,57678,5,8,0:0:0:0:
284,260,57773,1,0,0:0:0:0:
284,232,57869,1,2,0:0:0:0:
272,208,57964,1,0,0:0:0:0:
256,192,58060,5,4,0:0:0:0:
148,192,58251,1,0,0:0:0:0:
152,164,58347,1,0,0:0:0:0:
164,140,58442,1,8,0:0:0:0:
264,92,58633,1,0,0:0:0:0:
248,288,58824,1,0,0:0:0:0:
342,244,59015,2,0,P|362:183|331:123,1,110,0|8,0:0|0:0,0:0:0:0:
256,192,59398,1,0,0:0:0:0:
256,192,59588,5,0,0:0:0:0:
364,192,59779,1,0,0:0:0:0:
360,164,59875,1,0,0:0:0:0:
348,140,59970,1,8,0:0:0:0:
248,92,60161,1,0,0:0:0:0:
264,288,60352,1,0,0:0:0:0:
169,244,60543,2,0,P|149:183|180:123,1,110,0|8,0:0|0:0,0:0:0:0:
256,192,60926,1,0,0:0:0:0:
344,192,61117,6,0,P|328:248|280:276,4,110,0|0|8|0|0,0:0|0:0|0:0|0:0|0:0,0:0:0:0:
464,192,62264,1,8,0:0:0:0:
168,192,62645,2,0,P|184:248|232:276,4,110,0|0|8|0|0,0:0|0:0|0:0|0:0|0:0,0:0:0:0:
48,192,63792,1,8,0:0:0:0:
248,184,64175,5,4,0:0:0:0:
168,104,64366,1,2,0:0:0:0:
250,186,64557,1,8,0:0:0:0:
344,104,64748,1,2,0:0:0:0:
252,188,64939,1,0,0:0:0:0:
344,280,65130,1,2,0:0:0:0:
254,190,65321,1,8,0:0:0:0:
344,104,65512,1,2,0:0:0:0:
256,192,65703,5,0,0:0:0:0:
184,268,65893,2,0,P|240:196|280:188,1,110,2|8,0:0|0:0,0:0:0:0:
176,120,66276,2,0,P|248:176|256:216,1,110,2|0,0:0|0:0,0:0:0:0:
324,112,66658,2,0,P|268:184|228:192,1,110,2|8,0:0|0:0,0:0:0:0:
336,260,67040,2,0,P|264:204|256:164,1,110,2|0,0:0|0:0,0:0:0:0:
384,192,67423,6,0,L|384:72,1,110,2|8,0:0|0:0,0:0:0:0:
128,192,67805,2,0,L|128:312,1,110,2|0,0:0|0:0,0:0:0:0:
408,168,68187,2,0,L|408:48,1,110,2|8,0:0|0:0,0:0:0:0:
104,216,68570,2,0,L|104:336,1,110,2|0,0:0|0:0,0:0:0:0:
256,64,68952,6,0,L|136:64,1,110,2|8,0:0|0:0,0:0:0:0:
256,320,69334,2,0,L|376:320,1,110,2|0,0:0|0:0,0:0:0:0:
232,40,69716,2,0,L|112:40,1,110,2|8,0:0|0:0,0:0:0:0:
280,344,70098,2,0,L|400:344,1,110,2|0,0:0|0:0,0:0:0:0:
440,224,70480,5,2,0:0:0:0:
392,112,70671,1,8,0:0:0:0:
304,200,70863,1,2,0:0:0:0:
264,80,71054,1,0,0:0:0:0:
88,304,71244,5,2,0:0:0:0:
136,192,71436,1,8,0:0:0:0:
208,296,71627,1,2,0:0:0:0:
256,184,71817,1,0,0:0:0:0:
424,304,72009,5,2,0:0:0:0:
376,192,72200,1,8,0:0:0:0:
304,296,72391,1,2,0:0:0:0:
256,184,72581,1,0,0:0:0:0:
72,224,72773,5,2,0:0:0:0:
120,112,72964,1,8,0:0:0:0:
208,200,73156,1,2,0:0:0:0:
256,88,73346,5,4,0:0:0:0:
480,192,73729,1,8,0:0:0:0:
256,312,74111,1,0,0:0:0:0:
40,192,74493,1,8,0:0:0:0:
256,64,74875,1,0,0:0:0:0:
376,104,75066,1,2,0:0:0:0:
464,192,75257,1,8,0:0:0:0:
376,280,75449,1,2,0:0:0:0:
256,312,75640,1,0,0:0:0:0:
136,280,75831,1,2,0:0:0:0:
40,192,76022,1,8,0:0:0:0:
136,104,76213,1,2,0:0:0:0:
256,64,76404,5,8,0:0:0:0:
280,76,76499,1,0,0:0:0:0:
300,96,76595,1,2,0:0:0:0:
316,120,76691,1,0,0:0:0:0:
324,144,76786,1,8,0:0:0:0:
328,172,76882,1,0,0:0:0:0:
320,200,76977,1,2,0:0:0:0:
308,224,77073,1,0,0:0:0:0:
284,240,77168,1,8,0:0:0:0:
256,244,77264,1,0,0:0:0:0:
228,240,77359,1,2,0:0:0:0:
204,228,77455,1,0,0:0:0:0:
188,208,77550,1,8,0:0:0:0:
180,184,77646,1,0,0:0:0:0:
180,156,77741,1,2,0:0:0:0:
188,128,77837,1,0,0:0:0:0:
208,108,77933,6,0,P|256:88|308:108,4,110,12|2|8|2|4,0:0|0:0|0:0|0:0|0:0,0:0:0:0:
256,192,79079,1,8,0:0:0:0:
256,192,79460,5,4,0:0:0:0:
248,164,79557,1,0,0:0:0:0:
232,144,79652,1,2,0:0:0:0:
208,128,79748,1,8,0:0:0:0:
120,192,79939,1,0,0:0:0:0:
124,192,80035,1,2,0:0:0:0:
128,192,80130,1,0,0:0:0:0:
208,256,80320,1,0,0:0:0:0:
232,240,80416,1,0,0:0:0:0:
248,220,80511,1,2,0:0:0:0:
256,192,80608,1,8,0:0:0:0:
256,192,80799,1,2,0:0:0:0:
256,192,80989,5,0,0:0:0:0:
264,164,81086,1,0,0:0:0:0:
280,144,81181,1,2,0:0:0:0:
304,128,81277,1,8,0:0:0:0:
392,192,81468,1,0,0:0:0:0:
388,192,81562,1,2,0:0:0:0:
384,192,81659,1,0,0:0:0:0:
304,256,81849,1,0,0:0:0:0:
280,240,81945,1,0,0:0:0:0:
264,220,82040,1,2,0:0:0:0:
256,192,82135,1,8,0:0:0:0:
256,192,82328,1,2,0:0:0:0:
256,192,82518,5,0,0:0:0:0:
228,184,82613,1,0,0:0:0:0:
208,168,82710,1,2,0:0:0:0:
192,144,82804,1,8,0:0:0:0:
256,56,82995,1,0,0:0:0:0:
256,60,83091,1,2,0:0:0:0:
256,64,83186,1,0,0:0:0:0:
320,144,83378,1,0,0:0:0:0:
304,168,83474,1,0,0:0:0:0:
284,184,83569,1,2,0:0:0:0:
256,192,83664,1,8,0:0:0:0:
256,192,83855,1,2,0:0:0:0:
256,192,84046,5,0,0:0:0:0:
284,200,84143,1,0,0:0:0:0:
304,216,84238,1,2,0:0:0:0:
320,240,84334,1,8,0:0:0:0:
256,328,84525,1,0,0:0:0:0:
256,324,84621,1,2,0:0:0:0:
256,320,84716,1,0,0:0:0:0:
192,240,84906,1,0,0:0:0:0:
208,216,85002,1,0,0:0:0:0:
228,200,85097,1,2,0:0:0:0:
256,192,85194,1,8,0:0:0:0:
256,192,85385,1,2,0:0:0:0:
156,148,85576,5,4,0:0:0:0:
148,176,85671,1,0,0:0:0:0:
148,204,85767,1,2,0:0:0:0:
160,232,85863,1,8,0:0:0:0:
252,188,86053,1,0,0:0:0:0:
256,192,86149,1,2,0:0:0:0:
260,196,86245,1,0,0:0:0:0:
356,148,86435,1,0,0:0:0:0:
364,176,86530,1,2,0:0:0:0:
364,204,86626,1,0,0:0:0:0:
352,232,86722,1,8,0:0:0:0:
256,192,86914,1,2,0:0:0:0:
212,292,87104,5,0,0:0:0:0:
240,300,87199,1,0,0:0:0:0:
268,300,87295,1,2,0:0:0:0:
296,288,87391,1,8,0:0:0:0:
252,196,87581,1,0,0:0:0:0:
256,192,87677,1,2,0:0:0:0:
260,188,87773,1,0,0:0:0:0:
212,92,87963,1,0,0:0:0:0:
240,84,88058,1,2,0:0:0:0:
268,84,88154,1,0,0:0:0:0:
296,96,88250,1,8,0:0:0:0:
256,192,88442,1,2,0:0:0:0:
104,192,88633,5,0,0:0:0:0:
208,144,88824,1,2,0:0:0:0:
256,48,89015,1,8,0:0:0:0:
304,144,89207,1,2,0:0:0:0:
400,192,89398,1,0,0:0:0:0:
304,240,89589,1,2,0:0:0:0:
256,344,89780,1,8,0:0:0:0:
208,240,89971,1,2,0:0:0:0:
104,192,90162,1,0,0:0:0:0:
208,144,90353,1,2,0:0:0:0:
208,240,90544,1,8,0:0:0:0:
304,192,90735,1,2,0:0:0:0:
256,192,90926,12,4,91691,0:0:0:0:
256,192,97805,5,4,0:0:0:0:
180,112,97996,1,2,0:0:0:0:
176,108,98092,1,8,0:0:0:0:
332,272,98282,1,2,0:0:0:0:
336,276,98378,1,8,0:0:0:0:
172,276,98570,1,0,0:0:0:0:
340,108,98855,1,8,0:0:0:0:
412,192,99046,1,0,0:0:0:0:
420,220,99142,1,2,0:0:0:0:
420,248,99237,1,0,0:0:0:0:
416,276,99332,5,8,0:0:0:0:
408,304,99428,1,0,0:0:0:0:
392,324,99523,1,2,0:0:0:0:
372,340,99619,1,0,0:0:0:0:
344,348,99714,1,8,0:0:0:0:
316,348,99810,1,0,0:0:0:0:
288,344,99905,1,2,0:0:0:0:
264,328,100001,1,0,0:0:0:0:
244,308,100096,1,8,0:0:0:0:
124,192,100385,1,8,0:0:0:0:
80,92,100576,1,0,0:0:0:0:
108,88,100671,1,2,0:0:0:0:
136,88,100767,1,0,0:0:0:0:
164,92,100863,5,4,0:0:0:0:
368,292,101053,1,2,0:0:0:0:
372,296,101148,1,8,0:0:0:0:
144,292,101339,1,2,0:0:0:0:
140,296,101434,1,8,0:0:0:0:
256,124,101627,1,0,0:0:0:0:
256,132,101914,1,8,0:0:0:0:
120,168,102105,1,0,0:0:0:0:
140,187,102200,1,2,0:0:0:0:
164,202,102296,1,0,0:0:0:0:
193,208,102391,1,8,0:0:0:0:
185,237,102487,5,0,0:0:0:0:
214,244,102582,1,2,0:0:0:0:
242,243,102678,1,0,0:0:0:0:
269,238,102773,1,8,0:0:0:0:
270,266,102869,5,0,0:0:0:0:
294,253,102964,1,2,0:0:0:0:
318,240,103060,1,0,0:0:0:0:
337,220,103156,1,8,0:0:0:0:
350,243,103251,5,0,0:0:0:0:
369,222,103347,1,2,0:0:0:0:
380,198,103442,1,0,0:0:0:0:
387,169,103538,1,8,0:0:0:0:
288,224,103729,1,2,0:0:0:0:
176,192,103920,6,0,L|56:192,1,110,0|0,0:0|0:0,0:0:0:0:
176,192,104302,2,0,L|56:192,1,110,8|0,0:0|0:0,0:0:0:0:
336,192,104684,2,0,L|456:192,1,110,0|0,0:0|0:0,0:0:0:0:
336,192,105065,2,0,L|456:192,1,110,8|0,0:0|0:0,0:0:0:0:
256,112,105449,6,0,L|256:-8,1,110,0|0,0:0|0:0,0:0:0:0:
256,272,105831,2,0,L|256:392,1,110,8|0,0:0|0:0,0:0:0:0:
256,112,106213,2,0,L|256:-8,1,110,0|0,0:0|0:0,0:0:0:0:
256,272,106595,2,0,L|256:392,1,110,8|0,0:0|0:0,0:0:0:0:
256,192,106977,5,0,0:0:0:0:
304,88,107168,2,0,P|328:32|384:8,1,110,0|8,0:0|0:0,0:0:0:0:
322,285,107550,2,0,P|358:334|351:394,1,110,0|0,0:0|0:0,0:0:0:0:
141,202,107933,2,0,P|81:209|32:173,1,110,0|8,0:0|0:0,0:0:0:0:
256,192,108315,1,0,0:0:0:0:
256,192,108506,5,0,0:0:0:0:
142,374,108697,2,0,P|188:346|208:296,1,110,0|8,0:0|0:0,0:0:0:0:
154,2,109079,2,0,P|155:56|189:98,1,110,0|0,0:0|0:0,0:0:0:0:
470,198,109461,2,0,P|423:172|370:181,1,110,0|8,0:0|0:0,0:0:0:0:
256,192,109843,1,0,0:0:0:0:
256,192,110035,5,0,0:0:0:0:
144,186,110226,2,0,P|163:123|205:93,1,110,0|8,0:0|0:0,0:0:0:0:
316,98,110608,2,0,P|361:145|366:196,1,110,0|0,0:0|0:0,0:0:0:0:
306,290,110990,2,0,P|241:306|195:284,1,110,0|8,0:0|0:0,0:0:0:0:
256,192,111372,1,0,0:0:0:0:
256,192,111563,5,0,0:0:0:0:
367,186,111754,2,0,P|348:123|306:93,1,110,0|8,0:0|0:0,0:0:0:0:
195,98,112136,2,0,P|149:145|144:196,1,110,0|0,0:0|0:0,0:0:0:0:
205,290,112518,2,0,P|269:306|315:284,1,110,0|8,0:0|0:0,0:0:0:0:
256,192,112900,1,0,0:0:0:0:
256,192,113092,5,0,0:0:0:0:
144,192,113283,1,0,0:0:0:0:
84,104,113474,1,8,0:0:0:0:
200,104,113665,1,0,0:0:0:0:
256,16,113856,1,0,0:0:0:0:
312,104,114047,1,0,0:0:0:0:
368,192,114238,1,8,0:0:0:0:
432,104,114429,1,0,0:0:0:0:
308,96,114621,6,0,B|256:76|256:76|204:96,4,110,0|2|8|2|0,0:0|0:0|0:0|0:0|0:0,0:0:0:0:
368,192,115576,1,0,0:0:0:0:
312,288,115767,1,8,0:0:0:0:
200,288,115958,1,0,0:0:0:0:
256,192,116149,5,4,0:0:0:0:
358,2,116340,2,0,P|357:56|323:98,1,110,0|8,0:0|0:0,0:0:0:0:
471,185,116722,2,0,P|424:211|370:203,1,110,0|0,0:0|0:0,0:0:0:0:
40,198,117105,6,0,P|87:172|141:180,1,110,0|8,0:0|0:0,0:0:0:0:
142,8,117487,2,0,P|188:36|208:86,1,110,0|0,0:0|0:0,0:0:0:0:
369,375,117868,6,0,P|323:347|303:297,1,110,0|8,0:0|0:0,0:0:0:0:
154,382,118251,2,0,P|155:327|189:286,1,110,0|0,0:0|0:0,0:0:0:0:
144,192,118633,1,0,0:0:0:0:
320,104,118824,1,8,0:0:0:0:
320,280,119015,1,0,0:0:0:0:
256,192,119207,5,0,0:0:0:0:
168,128,119398,2,0,L|128:264,1,110,0|8,0:0|0:0,0:0:0:0:
344,128,119780,2,0,L|384:264,1,110
256,192,120162,2,0,L|256:312,2,110,0|8|0,0:0|0:0|0:0,0:0:0:0:
256,136,120735,5,8,0:0:0:0:
228,144,120831,1,0,0:0:0:0:
208,160,120926,1,2,0:0:0:0:
192,184,121022,1,0,0:0:0:0:
184,212,121117,1,8,0:0:0:0:
184,240,121213,1,0,0:0:0:0:
196,264,121308,1,2,0:0:0:0:
216,284,121404,1,0,0:0:0:0:
244,292,121499,1,8,0:0:0:0:
272,292,121595,1,0,0:0:0:0:
300,284,121691,1,2,0:0:0:0:
320,264,121786,1,0,0:0:0:0:
332,240,121882,1,8,0:0:0:0:
336,212,121977,1,0,0:0:0:0:
328,184,122073,1,2,0:0:0:0:
312,164,122168,1,0,0:0:0:0:
292,144,122264,5,4,0:0:0:0:
208,72,122455,1,0,0:0:0:0:
188,128,122549,1,0,0:0:0:0:
200,184,122646,1,8,0:0:0:0:
144,280,122837,1,0,0:0:0:0:
256,280,123028,1,8,0:0:0:0:
368,280,123219,2,2,L|432:176,1,110,2|2,0:0|0:0,0:0:0:0:
312,184,123601,1,0,0:0:0:0:
256,168,123697,1,0,0:0:0:0:
200,184,123792,5,0,0:0:0:0:
256,280,123984,1,0,0:0:0:0:
200,184,124175,1,8,0:0:0:0:
312,184,124366,1,0,0:0:0:0:
256,88,124557,1,8,0:0:0:0:
144,88,124748,2,2,L|72:208,1,110,2|2,0:0|0:0,0:0:0:0:
200,184,125130,1,0,0:0:0:0:
256,88,125321,6,0,B|304:192|304:192|256:288,2,220,0|8|0,0:0|0:0|0:0,0:0:0:0:
368,88,126277,1,2,0:0:0:0:
404,192,126468,1,8,0:0:0:0:
368,288,126658,1,2,0:0:0:0:
256,292,126850,2,0,B|208:192|208:192|256:92,2,220,0|8|0,0:0|0:0|0:0,0:0:0:0:
256,192,127996,1,8,0:0:0:0:
256,192,128378,5,0,0:0:0:0:
148,192,128569,1,2,0:0:0:0:
200,96,128760,1,8,0:0:0:0:
368,192,128951,1,2,0:0:0:0:
312,96,129142,1,0,0:0:0:0:
256,192,129333,1,2,0:0:0:0:
96,96,129524,1,8,0:0:0:0:
32,192,129716,1,2,0:0:0:0:
96,288,129906,5,0,0:0:0:0:
312,288,130097,1,2,0:0:0:0:
200,288,130288,1,8,0:0:0:0:
416,288,130479,1,2,0:0:0:0:
256,192,130671,1,0,0:0:0:0:
472,192,130862,1,2,0:0:0:0:
144,192,131053,1,8,0:0:0:0:
368,192,131245,1,2,0:0:0:0:
230,89,131435,6,0,P|256:137|256:192,1,110,0|2,0:0|0:0,0:0:0:0:
304,124,131721,1,0,0:0:0:0:
374,166,131817,2,0,P|326:192|272:192,1,110,8|2,0:0|0:0,0:0:0:0:
281,326,132199,2,0,P|255:278|256:224,1,110,0|2,0:0|0:0,0:0:0:0:
176,276,132486,1,0,0:0:0:0:
105,217,132581,2,0,P|153:191|208:192,1,110,8|2,0:0|0:0,0:0:0:0:
390,289,132964,6,0,P|338:274|300:236,1,110,0|2,0:0|0:0,0:0:0:0:
252,320,133250,1,0,0:0:0:0:
145,337,133346,2,0,P|160:285|200:248,1,110,8|2,0:0|0:0,0:0:0:0:
116,180,133632,1,0,0:0:0:0:
97,69,133728,2,0,P|149:85|188:124,1,110,0|2,0:0|0:0,0:0:0:0:
405,4,134110,2,0,P|390:57|352:96,1,110,8|2,0:0|0:0,0:0:0:0:
256,192,134493,5,4,0:0:0:0:
156,240,134684,1,2,0:0:0:0:
152,244,134780,1,0,0:0:0:0:
148,248,134875,1,8,0:0:0:0:
144,360,135066,1,2,0:0:0:0:
256,360,135257,1,0,0:0:0:0:
368,360,135449,1,2,0:0:0:0:
364,248,135640,1,8,0:0:0:0:
256,272,135831,1,2,0:0:0:0:
256,112,136022,5,0,0:0:0:0:
64,192,136213,1,2,0:0:0:0:
448,192,136404,1,8,0:0:0:0:
256,272,136595,1,2,0:0:0:0:
128,72,136786,1,0,0:0:0:0:
384,72,136977,1,2,0:0:0:0:
128,312,137168,1,8,0:0:0:0:
384,312,137359,1,2,0:0:0:0:
256,192,137550,12,0,140226,0:0:0:0:
188,336,140608,5,12,0:0:0:0:
168,320,140703,1,0,0:0:0:0:
152,300,140799,1,2,0:0:0:0:
136,276,140894,1,0,0:0:0:0:
164,268,140990,5,8,0:0:0:0:
156,240,141085,1,0,0:0:0:0:
160,212,141181,1,2,0:0:0:0:
172,188,141277,1,0,0:0:0:0:
196,200,141372,5,8,0:0:0:0:
216,180,141468,1,0,0:0:0:0:
240,168,141563,1,2,0:0:0:0:
268,160,141659,1,0,0:0:0:0:
268,188,141754,5,12,0:0:0:0:
296,188,141850,1,0,0:0:0:0:
324,192,141945,1,2,0:0:0:0:
352,200,142041,1,0,0:0:0:0:
376,216,142136,2,0,B|412:260|412:260|404:312,4,110,12|2|8|2|12,0:0|0:0|0:0|0:0|0:0,0:0:0:0:
168,112,143283,1,8,0:0:0:0:
256,192,143665,5,12,0:0:0:0:
268,224,143761,1,0,0:0:0:0:
288,252,143856,1,2,0:0:0:0:
316,272,143952,1,8,0:0:0:0:
424,252,144143,1,0,0:0:0:0:
428,220,144238,1,2,0:0:0:0:
428,188,144334,1,0,0:0:0:0:
416,156,144429,1,8,0:0:0:0:
396,128,144525,1,0,0:0:0:0:
372,108,144621,1,2,0:0:0:0:
344,92,144716,1,0,0:0:0:0:
312,84,144812,1,8,0:0:0:0:
204,84,145003,1,2,0:0:0:0:
212,192,145194,5,8,0:0:0:0:
240,176,145289,1,0,0:0:0:0:
272,176,145385,1,2,0:0:0:0:
300,192,145480,1,8,0:0:0:0:
148,240,145671,1,0,0:0:0:0:
176,256,145767,1,2,0:0:0:0:
208,264,145863,1,0,0:0:0:0:
240,268,145958,1,8,0:0:0:0:
272,268,146054,1,0,0:0:0:0:
304,264,146149,1,2,0:0:0:0:
336,256,146245,1,0,0:0:0:0:
368,244,146340,1,8,0:0:0:0:
256,80,146531,1,2,0:0:0:0:
256,192,146722,5,0,0:0:0:0:
104,80,146913,1,2,0:0:0:0:
408,304,147105,1,8,0:0:0:0:
104,304,147295,1,2,0:0:0:0:
408,80,147487,5,0,0:0:0:0:
72,192,147678,1,2,0:0:0:0:
440,192,147869,1,8,0:0:0:0:
256,312,148060,2,0,B|208:268|208:268|208:112,1,220,2|2,0:0|0:0,0:0:0:0:
256,312,148633,5,8,0:0:0:0:
104,80,148824,1,2,0:0:0:0:
408,80,149015,1,0,0:0:0:0:
104,304,149207,1,2,0:0:0:0:
408,304,149397,1,8,0:0:0:0:
256,192,149780,5,12,0:0:0:0:
224,184,149875,1,0,0:0:0:0:
196,168,149971,1,2,0:0:0:0:
172,144,150066,1,8,0:0:0:0:
76,92,150257,1,0,0:0:0:0:
76,124,150353,1,2,0:0:0:0:
84,156,150449,1,0,0:0:0:0:
96,188,150544,1,8,0:0:0:0:
116,216,150640,1,0,0:0:0:0:
140,236,150735,1,2,0:0:0:0:
168,252,150831,1,0,0:0:0:0:
200,260,150926,1,8,0:0:0:0:
304,300,151117,1,2,0:0:0:0:
392,236,151308,5,8,0:0:0:0:
400,204,151404,1,0,0:0:0:0:
396,172,151499,1,2,0:0:0:0:
376,144,151594,1,8,0:0:0:0:
376,144,151786,1,0,0:0:0:0:
396,172,151882,1,2,0:0:0:0:
400,204,151976,1,0,0:0:0:0:
392,236,152073,1,8,0:0:0:0:
380,268,152168,1,0,0:0:0:0:
360,292,152264,1,2,0:0:0:0:
332,308,152358,1,0,0:0:0:0:
300,308,152455,1,8,0:0:0:0:
256,192,152646,1,2,0:0:0:0:
256,192,152837,5,0,0:0:0:0:
76,192,153028,2,0,B|108:144|108:144|76:96,1,110,2|8,0:0|0:0,0:0:0:0:
436,192,153410,2,0,B|404:240|404:240|436:288,1,110,2|0,0:0|0:0,0:0:0:0:
77,283,153792,6,0,B|107:240|107:240|75:192,1,110,2|8,0:0|0:0,0:0:0:0:
432,284,154175,2,0,B|403:241|403:241|435:193,1,110,2|0,0:0|0:0,0:0:0:0:
76,96,154557,1,0,0:0:0:0:
436,96,154748,1,8,0:0:0:0:
256,80,154938,1,0,0:0:0:0:
256,192,155894,5,4,0:0:0:0:
380,92,156085,1,2,0:0:0:0:
384,88,156181,1,8,0:0:0:0:
132,292,156371,1,2,0:0:0:0:
128,296,156467,1,8,0:0:0:0:
256,192,156659,1,0,0:0:0:0:
256,192,156944,1,8,0:0:0:0:
184,108,157135,1,0,0:0:0:0:
160,124,157230,1,2,0:0:0:0:
144,144,157326,1,0,0:0:0:0:
132,168,157421,5,8,0:0:0:0:
132,168,157518,1,0,0:0:0:0:
124,192,157613,1,2,0:0:0:0:
124,192,157708,1,0,0:0:0:0:
120,220,157803,1,8,0:0:0:0:
120,220,157899,1,0,0:0:0:0:
120,248,157994,1,2,0:0:0:0:
120,248,158090,1,0,0:0:0:0:
124,276,158185,1,8,0:0:0:0:
256,192,158474,1,8,0:0:0:0:
300,92,158665,1,0,0:0:0:0:
324,104,158761,1,2,0:0:0:0:
344,124,158856,1,0,0:0:0:0:
360,148,158952,5,8,0:0:0:0:
160,264,159143,1,2,0:0:0:0:
156,268,159238,1,8,0:0:0:0:
152,272,159429,1,2,0:0:0:0:
148,276,159524,1,8,0:0:0:0:
144,280,159716,1,0,0:0:0:0:
360,284,160003,1,8,0:0:0:0:
88,228,160193,1,0,0:0:0:0:
108,212,160288,1,2,0:0:0:0:
132,200,160384,1,0,0:0:0:0:
156,192,160479,5,8,0:0:0:0:
156,192,160575,1,0,0:0:0:0:
184,188,160670,1,2,0:0:0:0:
184,188,160766,1,0,0:0:0:0:
212,188,160861,1,8,0:0:0:0:
212,188,160957,1,0,0:0:0:0:
240,192,161052,1,2,0:0:0:0:
240,192,161148,1,0,0:0:0:0:
264,200,161245,2,0,P|408:144|432:96,1,165,8|8,0:0|0:0,0:0:0:0:
464,236,161722,1,0,0:0:0:0:
448,256,161818,1,2,0:0:0:0:
428,272,161914,1,0,0:0:0:0:
404,284,162009,5,12,0:0:0:0:
384,336,162199,1,2,0:0:0:0:
356,340,162296,1,8,0:0:0:0:
320,300,162486,1,2,0:0:0:0:
292,296,162582,1,8,0:0:0:0:
240,280,162772,1,0,0:0:0:0:
256,104,163060,1,8,0:0:0:0:
168,36,163251,1,0,0:0:0:0:
144,52,163345,1,2,0:0:0:0:
124,72,163441,1,0,0:0:0:0:
108,96,163537,5,8,0:0:0:0:
108,96,163632,1,0,0:0:0:0:
100,120,163727,1,2,0:0:0:0:
100,120,163823,1,0,0:0:0:0:
96,148,163918,1,8,0:0:0:0:
96,148,164014,1,0,0:0:0:0:
100,176,164109,1,2,0:0:0:0:
100,176,164205,1,0,0:0:0:0:
112,200,164302,2,0,P|166:259|246:276,1,165,8|8,0:0|0:0,0:0:0:0:
148,324,164780,1,0,0:0:0:0:
172,336,164875,1,2,0:0:0:0:
200,344,164971,1,0,0:0:0:0:
228,348,165065,5,8,0:0:0:0:
416,192,165257,1,2,0:0:0:0:
388,192,165353,1,8,0:0:0:0:
96,56,165544,1,2,0:0:0:0:
124,56,165640,1,8,0:0:0:0:
96,192,165831,1,0,0:0:0:0:
416,48,166117,1,8,0:0:0:0:
308,32,166308,1,0,0:0:0:0:
280,40,166404,1,2,0:0:0:0:
256,52,166499,1,0,0:0:0:0:
268,76,166595,5,8,0:0:0:0:
244,92,166691,1,0,0:0:0:0:
224,108,166786,1,2,0:0:0:0:
208,132,166882,1,0,0:0:0:0:
236,140,166977,5,8,0:0:0:0:
224,164,167073,1,0,0:0:0:0:
220,192,167168,1,2,0:0:0:0:
220,220,167264,1,0,0:0:0:0:
244,208,167359,5,8,0:0:0:0:
256,232,167455,1,0,0:0:0:0:
272,252,167550,1,2,0:0:0:0:
296,264,167646,1,0,0:0:0:0:
324,272,167742,2,0,P|422:243|444:131,1,220,8|4,0:0|0:0,0:0:0:0:
256,192,190289,12,0,192200,0:0:0:0:
256,192,192582,5,4,0:0:0:0:
144,104,192773,1,0,0:0:0:0:
388,139,192964,1,0,0:0:0:0:
235,332,193156,1,0,0:0:0:0:
280,24,193538,5,0,0:0:0:0:
389,296,193729,1,0,0:0:0:0:
98,255,193920,1,0,0:0:0:0:
357,1,194302,5,0,0:0:0:0:
370,374,194493,1,0,0:0:0:0:
40,199,194684,1,0,0:0:0:0:
152,368,195066,5,0,0:0:0:0:
155,13,195257,1,0,0:0:0:0:
460,194,195449,1,0,0:0:0:0:
256,192,195640,1,0,0:0:0:0:
348,252,195831,1,0,0:0:0:0:
158,241,196021,1,0,0:0:0:0:
261,82,196212,1,0,0:0:0:0:
393,113,196594,5,0,0:0:0:0:
256,33,196785,1,0,0:0:0:0:
118,112,196976,1,0,0:0:0:0:
394,272,197358,5,0,0:0:0:0:
255,351,197549,1,0,0:0:0:0:
117,270,197740,1,0,0:0:0:0:
256,32,198124,5,0,0:0:0:0:
256,32,198315,1,0,0:0:0:0:
256,32,198506,1,0,0:0:0:0:
256,192,198697,1,4,0:0:0:0:
392,80,198888,1,0,0:0:0:0:
120,80,199270,5,0,0:0:0:0:
392,304,199652,1,0,0:0:0:0:
120,304,200035,1,0,0:0:0:0:
200,136,200417,1,0,0:0:0:0:
312,248,200799,1,0,0:0:0:0:
200,32,201181,1,0,0:0:0:0:
312,352,201563,1,0,0:0:0:0:
256,192,201754,5,4,0:0:0:0:
308,140,201945,1,2,0:0:0:0:
312,136,202040,1,0,0:0:0:0:
316,132,202135,1,8,0:0:0:0:
200,248,202327,1,2,0:0:0:0:
88,136,202518,5,0,0:0:0:0:
416,248,202709,1,2,0:0:0:0:
312,32,202900,1,8,0:0:0:0:
200,248,203091,1,2,0:0:0:0:
416,136,203282,5,0,0:0:0:0:
200,32,203473,1,2,0:0:0:0:
200,32,203569,1,0,0:0:0:0:
200,32,203664,1,8,0:0:0:0:
312,248,203855,1,2,0:0:0:0:
312,248,203951,1,0,0:0:0:0:
312,248,204046,5,0,0:0:0:0:
88,136,204237,1,2,0:0:0:0:
200,352,204428,1,8,0:0:0:0:
312,136,204620,1,2,0:0:0:0:
256,192,204812,12,0,206149,0:0:0:0:
171,309,206340,5,4,0:0:0:0:
255,47,206531,1,0,0:0:0:0:
342,308,206722,1,0,0:0:0:0:
118,148,206914,1,0,0:0:0:0:
393,146,207105,1,0,0:0:0:0:
120,72,207869,5,4,0:0:0:0:
336,108,208250,1,8,0:0:0:0:
345,142,208345,1,0,0:0:0:0:
337,181,208441,1,2,0:0:0:0:
312,209,208536,1,0,0:0:0:0:
277,222,208632,1,8,0:0:0:0:
168,208,208824,1,0,0:0:0:0:
232,120,209015,1,8,0:0:0:0:
124,104,209207,2,0,P|68:136|60:204,1,110,2|8,0:0|0:0,0:0:0:0:
96,280,209588,5,2,0:0:0:0:
120,312,209683,1,0,0:0:0:0:
156,328,209779,1,8,0:0:0:0:
196,324,209874,1,0,0:0:0:0:
232,308,209970,1,2,0:0:0:0:
256,280,210065,1,0,0:0:0:0:
268,236,210161,1,8,0:0:0:0:
348,160,210353,1,2,0:0:0:0:
376,268,210544,1,8,0:0:0:0:
292,340,210735,1,2,0:0:0:0:
396,380,210926,5,8,0:0:0:0:
424,352,211022,1,0,0:0:0:0:
444,320,211117,1,2,0:0:0:0:
448,280,211213,1,0,0:0:0:0:
488,284,211308,5,8,0:0:0:0:
480,248,211404,1,0,0:0:0:0:
460,216,211499,1,2,0:0:0:0:
432,188,211595,1,0,0:0:0:0:
460,164,211691,5,8,0:0:0:0:
428,140,211786,1,0,0:0:0:0:
392,128,211882,1,2,0:0:0:0:
352,128,211977,1,0,0:0:0:0:
368,92,212073,5,8,0:0:0:0:
328,88,212168,1,0,0:0:0:0:
288,92,212264,1,2,0:0:0:0:
252,104,212359,1,0,0:0:0:0:
256,64,212455,5,8,0:0:0:0:
220,76,212550,1,0,0:0:0:0:
192,100,212646,1,2,0:0:0:0:
168,132,212742,1,0,0:0:0:0:
144,104,212837,5,8,0:0:0:0:
124,136,212933,1,0,0:0:0:0:
112,172,213028,1,2,0:0:0:0:
104,208,213124,1,0,0:0:0:0:
68,192,213219,5,8,0:0:0:0:
68,232,213315,1,0,0:0:0:0:
80,268,213410,1,2,0:0:0:0:
104,300,213506,1,0,0:0:0:0:
136,324,213601,1,8,0:0:0:0:
244,344,213792,1,2,0:0:0:0:
352,316,213983,6,0,L|380:308,16,27.5,0|0|0|0|0|0|0|0|0|0|0|0|0|0|0|0|0,0:0|0:0|0:0|0:0|0:0|0:0|0:0|0:0|0:0|0:0|0:0|0:0|0:0|0:0|0:0|0:0|0:0,0:0:0:0:
184,124,214939,1,2,0:0:0:0:
184,124,215321,1,2,0:0:0:0:
184,124,215417,1,0,0:0:0:0:
184,124,215512,5,8,0:0:0:0:
256,208,215703,1,2,0:0:0:0:
148,236,215894,1,8,0:0:0:0:
224,316,216085,1,2,0:0:0:0:
332,292,216468,1,2,0:0:0:0:
360,264,216563,1,0,0:0:0:0:
380,228,216659,1,8,0:0:0:0:
384,188,216754,1,0,0:0:0:0:
372,152,216850,1,2,0:0:0:0:
348,120,216945,1,0,0:0:0:0:
316,96,217041,5,8,0:0:0:0:
280,88,217136,1,0,0:0:0:0:
240,92,217232,1,2,0:0:0:0:
204,104,217328,1,0,0:0:0:0:
200,64,217423,5,8,0:0:0:0:
172,88,217519,1,0,0:0:0:0:
152,120,217614,1,2,0:0:0:0:
144,156,217710,1,0,0:0:0:0:
108,144,217805,5,8,0:0:0:0:
104,184,217901,1,0,0:0:0:0:
116,220,217996,1,2,0:0:0:0:
140,252,218092,1,0,0:0:0:0:
108,272,218187,5,8,0:0:0:0:
136,300,218283,1,0,0:0:0:0:
172,316,218378,1,2,0:0:0:0:
212,320,218474,1,0,0:0:0:0:
248,308,218569,6,0,L|272:288,14,27.5,0|0|0|0|0|0|0|0|0|0|0|0|0|0|0,0:0|0:0|0:0|0:0|0:0|0:0|0:0|0:0|0:0|0:0|0:0|0:0|0:0|0:0|0:0,0:0:0:0:
276,284,219334,1,8,0:0:0:0:
384,280,219525,1,2,0:0:0:0:
328,184,219716,1,8,0:0:0:0:
436,184,219907,1,2,0:0:0:0:
380,88,220097,5,8,0:0:0:0:
336,76,220193,1,0,0:0:0:0:
292,80,220288,1,2,0:0:0:0:
256,104,220384,1,8,0:0:0:0:
208,28,220575,1,0,0:0:0:0:
176,60,220671,1,2,0:0:0:0:
164,104,220766,1,0,0:0:0:0:
84,64,220957,1,0,0:0:0:0:
72,108,221053,1,2,0:0:0:0:
72,152,221148,1,0,0:0:0:0:
84,196,221244,1,8,0:0:0:0:
192,204,221435,1,2,0:0:0:0:
132,296,221626,5,8,0:0:0:0:
172,312,221721,1,0,0:0:0:0:
216,312,221817,1,2,0:0:0:0:
256,292,221912,1,0,0:0:0:0:
284,256,222008,1,8,0:0:0:0:
304,216,222104,1,0,0:0:0:0:
324,176,222199,1,2,0:0:0:0:
356,148,222294,1,0,0:0:0:0:
400,136,222390,1,8,0:0:0:0:
440,152,222485,1,0,0:0:0:0:
464,192,222581,1,2,0:0:0:0:
464,236,222676,1,0,0:0:0:0:
440,272,222772,1,8,0:0:0:0:
352,340,222964,1,2,0:0:0:0:
284,256,223156,5,12,0:0:0:0:
256,292,223251,1,0,0:0:0:0:
216,312,223347,1,2,0:0:0:0:
172,312,223442,1,8,0:0:0:0:
440,272,223633,1,0,0:0:0:0:
464,236,223729,1,2,0:0:0:0:
464,192,223824,1,0,0:0:0:0:
440,152,223920,1,8,0:0:0:0:
400,136,224015,1,0,0:0:0:0:
356,148,224111,1,2,0:0:0:0:
324,176,224207,1,0,0:0:0:0:
304,216,224302,1,8,0:0:0:0:
196,224,224493,1,2,0:0:0:0:
240,124,224684,5,8,0:0:0:0:
196,112,224780,1,0,0:0:0:0:
152,116,224875,1,2,0:0:0:0:
112,132,224971,1,8,0:0:0:0:
348,76,225162,1,0,0:0:0:0:
324,112,225256,1,2,0:0:0:0:
284,132,225353,1,0,0:0:0:0:
484,112,225544,1,0,0:0:0:0:
464,72,225640,1,2,0:0:0:0:
428,48,225734,1,0,0:0:0:0:
384,48,225831,1,8,0:0:0:0:
256,192,226022,1,2,0:0:0:0:
132,296,226212,5,8,0:0:0:0:
176,308,226308,1,0,0:0:0:0:
220,304,226403,1,2,0:0:0:0:
256,280,226499,1,8,0:0:0:0:
304,356,226690,1,0,0:0:0:0:
336,324,226786,1,2,0:0:0:0:
348,280,226881,1,0,0:0:0:0:
428,320,227072,1,0,0:0:0:0:
440,276,227168,1,2,0:0:0:0:
440,232,227263,1,0,0:0:0:0:
428,188,227359,1,8,0:0:0:0:
320,180,227550,1,2,0:0:0:0:
380,88,227741,5,8,0:0:0:0:
340,72,227836,1,0,0:0:0:0:
296,72,227932,1,2,0:0:0:0:
256,92,228027,1,0,0:0:0:0:
228,128,228123,1,8,0:0:0:0:
208,168,228219,1,0,0:0:0:0:
188,208,228314,1,2,0:0:0:0:
156,236,228409,1,0,0:0:0:0:
112,248,228505,1,8,0:0:0:0:
72,232,228600,1,0,0:0:0:0:
48,192,228696,1,2,0:0:0:0:
48,148,228791,1,0,0:0:0:0:
72,112,228887,1,8,0:0:0:0:
160,44,229079,1,2,0:0:0:0:
228,128,229269,5,12,0:0:0:0:
256,92,229366,1,0,0:0:0:0:
296,72,229460,1,2,0:0:0:0:
340,72,229557,1,8,0:0:0:0:
72,112,229748,1,0,0:0:0:0:
48,148,229842,1,2,0:0:0:0:
48,192,229938,1,0,0:0:0:0:
72,232,230035,1,8,0:0:0:0:
112,248,230130,1,0,0:0:0:0:
156,236,230226,1,2,0:0:0:0:
188,208,230320,1,0,0:0:0:0:
208,168,230417,1,8,0:0:0:0:
316,160,230608,1,2,0:0:0:0:
272,260,230799,5,8,0:0:0:0:
316,272,230893,1,0,0:0:0:0:
360,268,230990,1,2,0:0:0:0:
400,252,231086,1,8,0:0:0:0:
164,308,231277,1,0,0:0:0:0:
188,272,231371,1,2,0:0:0:0:
228,252,231468,1,0,0:0:0:0:
28,272,231659,1,0,0:0:0:0:
48,312,231753,1,2,0:0:0:0:
84,336,231849,1,0,0:0:0:0:
128,336,231944,1,8,0:0:0:0:
124,228,232135,1,2,0:0:0:0:
256,192,232328,5,4,0:0:0:0:
344,260,232518,2,0,L|400:260,1,55,2|8,0:0|0:0,0:0:0:0:
168,124,232804,2,0,L|112:124,1,55,2|8,0:0|0:0,0:0:0:0:
344,124,233092,1,0,0:0:0:0:
168,260,233378,1,8,0:0:0:0:
256,328,233569,1,0,0:0:0:0:
216,348,233664,1,2,0:0:0:0:
172,356,233760,1,0,0:0:0:0:
128,352,233855,5,8,0:0:0:0:
92,328,233951,1,0,0:0:0:0:
68,292,234046,1,2,0:0:0:0:
64,248,234142,1,0,0:0:0:0:
76,204,234237,1,8,0:0:0:0:
108,172,234333,1,0,0:0:0:0:
148,156,234428,1,2,0:0:0:0:
192,152,234524,1,0,0:0:0:0:
236,160,234619,1,8,0:0:0:0:
344,240,234907,1,8,0:0:0:0:
420,164,235098,1,0,0:0:0:0:
436,124,235194,1,2,0:0:0:0:
436,80,235289,1,0,0:0:0:0:
416,40,235385,5,8,0:0:0:0:
320,128,235575,2,0,L|320:68,1,55,2|8,0:0|0:0,0:0:0:0:
192,128,235862,2,0,L|192:68,1,55,2|8,0:0|0:0,0:0:0:0:
84,100,236149,1,0,0:0:0:0:
84,264,236436,1,8,0:0:0:0:
172,328,236627,1,0,0:0:0:0:
216,332,236722,1,2,0:0:0:0:
260,320,236818,1,0,0:0:0:0:
296,296,236914,5,8,0:0:0:0:
300,292,237009,1,0,0:0:0:0:
304,288,237105,1,2,0:0:0:0:
308,284,237200,1,0,0:0:0:0:
312,280,237296,1,8,0:0:0:0:
316,276,237391,1,0,0:0:0:0:
320,272,237487,1,2,0:0:0:0:
324,268,237582,1,0,0:0:0:0:
328,264,237678,1,8,0:0:0:0:
476,192,237964,1,8,0:0:0:0:
376,148,238156,1,0,0:0:0:0:
332,152,238251,1,2,0:0:0:0:
292,168,238347,1,0,0:0:0:0:
256,192,238442,5,12,0:0:0:0:
176,116,238632,2,0,L|176:60,1,55,2|8,0:0|0:0,0:0:0:0:
336,268,238919,2,0,L|336:324,1,55,2|8,0:0|0:0,0:0:0:0:
336,212,239207,1,0,0:0:0:0:
336,376,239493,1,8,0:0:0:0:
432,320,239683,1,0,0:0:0:0:
452,280,239778,1,2,0:0:0:0:
460,236,239874,1,0,0:0:0:0:
456,192,239970,5,8,0:0:0:0:
440,152,240065,1,0,0:0:0:0:
412,120,240160,1,2,0:0:0:0:
372,96,240256,1,0,0:0:0:0:
328,92,240351,1,8,0:0:0:0:
284,104,240447,1,0,0:0:0:0:
244,124,240542,1,2,0:0:0:0:
216,160,240638,1,0,0:0:0:0:
208,204,240733,1,8,0:0:0:0:
304,340,241022,1,8,0:0:0:0:
332,232,241213,1,0,0:0:0:0:
332,188,241308,1,2,0:0:0:0:
312,148,241404,1,0,0:0:0:0:
288,112,241499,5,8,0:0:0:0:
212,156,241690,2,0,L|160:188,1,55,2|8,0:0|0:0,0:0:0:0:
368,64,241976,2,0,L|420:32,1,55,2|8,0:0|0:0,0:0:0:0:
288,112,242264,1,0,0:0:0:0:
104,116,242550,1,8,0:0:0:0:
48,328,242741,1,0,0:0:0:0:
92,320,242836,1,2,0:0:0:0:
128,296,242932,1,0,0:0:0:0:
156,264,243027,5,8,0:0:0:0:
184,300,243123,1,0,0:0:0:0:
224,320,243218,1,2,0:0:0:0:
268,328,243314,1,0,0:0:0:0:
312,316,243409,1,8,0:0:0:0:
352,292,243505,1,0,0:0:0:0:
380,260,243600,1,2,0:0:0:0:
388,216,243696,1,0,0:0:0:0:
380,172,243791,1,8,0:0:0:0:
360,132,243887,1,0,0:0:0:0:
332,96,243983,1,2,0:0:0:0:
296,72,244078,1,0,0:0:0:0:
252,68,244174,1,8,0:0:0:0:
72,58,244366,1,0,0:0:0:0:
68,57,244460,1,0,0:0:0:0:
64,56,244557,5,12,0:0:0:0:
68,164,244748,1,2,0:0:0:0:
92,212,244843,1,8,0:0:0:0:
168,292,245035,1,2,0:0:0:0:
220,312,245130,1,8,0:0:0:0:
328,308,245321,1,0,0:0:0:0:
428,176,245608,1,8,0:0:0:0:
372,84,245798,1,0,0:0:0:0:
324,60,245893,1,2,0:0:0:0:
268,52,245989,1,0,0:0:0:0:
220,76,246084,5,8,0:0:0:0:
196,128,246180,1,0,0:0:0:0:
224,176,246275,1,2,0:0:0:0:
272,200,246371,1,0,0:0:0:0:
316,232,246466,1,8,0:0:0:0:
336,284,246562,1,0,0:0:0:0:
312,332,246657,1,2,0:0:0:0:
260,348,246753,1,0,0:0:0:0:
208,332,246848,1,8,0:0:0:0:
124,192,247136,1,8,0:0:0:0:
320,56,247328,1,0,0:0:0:0:
272,88,247423,1,2,0:0:0:0:
224,120,247519,1,0,0:0:0:0:
176,148,247614,5,8,0:0:0:0:
88,148,247805,1,2,0:0:0:0:
124,192,247901,1,8,0:0:0:0:
120,300,248092,1,2,0:0:0:0:
120,356,248187,1,8,0:0:0:0:
228,328,248378,1,0,0:0:0:0:
392,328,248665,1,8,0:0:0:0:
396,220,248855,1,0,0:0:0:0:
384,168,248950,1,2,0:0:0:0:
356,120,249046,1,0,0:0:0:0:
316,84,249141,1,8,0:0:0:0:
300,136,249237,5,0,0:0:0:0:
248,116,249332,1,2,0:0:0:0:
192,120,249428,1,0,0:0:0:0:
220,168,249523,5,8,0:0:0:0:
168,180,249619,1,0,0:0:0:0:
120,208,249714,1,2,0:0:0:0:
84,248,249810,1,0,0:0:0:0:
68,300,249905,1,8,0:0:0:0:
72,132,250194,1,8,0:0:0:0:
256,352,250385,1,0,0:0:0:0:
304,320,250480,1,2,0:0:0:0:
336,272,250576,1,0,0:0:0:0:
328,216,250671,5,8,0:0:0:0:
224,192,250863,1,2,0:0:0:0:
176,216,250958,1,8,0:0:0:0:
80,272,251149,1,2,0:0:0:0:
40,240,251245,1,8,0:0:0:0:
72,136,251436,1,0,0:0:0:0:
160,64,251722,1,8,0:0:0:0:
328,48,251914,1,0,0:0:0:0:
368,88,252009,1,2,0:0:0:0:
400,136,252105,1,0,0:0:0:0:
400,192,252200,5,8,0:0:0:0:
352,160,252296,1,0,0:0:0:0:
312,128,252391,1,2,0:0:0:0:
296,184,252487,1,0,0:0:0:0:
280,240,252582,1,8,0:0:0:0:
232,208,252678,1,0,0:0:0:0:
184,176,252773,1,2,0:0:0:0:
176,232,252869,1,0,0:0:0:0:
168,288,252964,1,8,0:0:0:0:
64,240,253251,1,8,0:0:0:0:
56,72,253442,1,0,0:0:0:0:
104,48,253538,1,2,0:0:0:0:
160,48,253633,1,0,0:0:0:0:
216,64,253729,5,8,0:0:0:0:
320,56,253920,1,2,0:0:0:0:
368,88,254015,1,8,0:0:0:0:
320,192,254207,1,2,0:0:0:0:
368,208,254302,1,8,0:0:0:0:
280,280,254493,1,0,0:0:0:0:
168,280,254780,1,8,0:0:0:0:
24,312,254971,1,0,0:0:0:0:
32,256,255066,1,2,0:0:0:0:
48,200,255162,1,0,0:0:0:0:
72,152,255257,1,8,0:0:0:0:
120,184,255353,5,0,0:0:0:0:
152,136,255449,1,2,0:0:0:0:
192,96,255544,1,0,0:0:0:0:
240,72,255640,1,8,0:0:0:0:
248,128,255735,5,0,0:0:0:0:
304,136,255831,1,2,0:0:0:0:
352,160,255926,1,0,0:0:0:0:
392,200,256022,1,8,0:0:0:0:
352,232,256117,5,0,0:0:0:0:
376,280,256213,1,2,0:0:0:0:
392,328,256308,1,0,0:0:0:0:
408,384,256404,1,8,0:0:0:0:
440,344,256499,5,0,0:0:0:0:
456,288,256595,1,2,0:0:0:0:
456,232,256691,1,0,0:0:0:0:
440,184,256786,1,8,0:0:0:0:
408,136,256882,1,0,0:0:0:0:
368,104,256977,1,2,0:0:0:0:
320,80,257073,1,0,0:0:0:0:
272,64,257168,1,8,0:0:0:0:
216,64,257264,1,0,0:0:0:0:
160,72,257359,1,2,0:0:0:0:
112,96,257455,1,0,0:0:0:0:
72,136,257550,1,8,0:0:0:0:
48,184,257646,1,0,0:0:0:0:
40,240,257742,1,2,0:0:0:0:
48,296,257837,1,0,0:0:0:0:
72,344,257933,1,8,0:0:0:0:
176,280,258124,1,0,0:0:0:0:
256,192,258315,5,4,0:0:0:0:
112,88,258506,1,0,0:0:0:0:
108,86,258600,1,0,0:0:0:0:
104,84,258696,1,0,0:0:0:0:
400,296,258887,1,0,0:0:0:0:
112,296,259078,1,0,0:0:0:0:
400,88,259269,1,0,0:0:0:0:
400,88,259460,1,0,0:0:0:0:
112,88,259650,1,0,0:0:0:0:
112,88,259842,5,0,0:0:0:0:
400,296,260033,1,0,0:0:0:0:
400,296,260225,1,0,0:0:0:0:
400,88,260416,1,0,0:0:0:0:
256,192,260990,1,4,0:0:0:0:
