osu file format v14

[General]
AudioFilename: Eurobeat Brony - Batty (Extended) ft. Odyssey (192).mp3
AudioLeadIn: 0
PreviewTime: 79460
Countdown: 0
SampleSet: Normal
StackLeniency: 0.4
Mode: 0
LetterboxInBreaks: 1
WidescreenStoryboard: 1

[Editor]
Bookmarks: 13729,25958,39716,64174,79461,103920,128378,143665,155894,192582,207869,220098,232328
DistanceSpacing: 1.5
BeatDivisor: 4
GridSize: 4
TimelineZoom: 1

[Metadata]
Title:Batty (Extended) ft. Odyssey
TitleUnicode:Batty (Extended) ft. Odyssey
Artist:Eurobeat Brony
ArtistUnicode:Eurobeat Brony
Creator:Firmatorenio
Version:Crazy
Source:
Tags:pony, mlp, flutterbat
BeatmapID:584371
BeatmapSetID:241455

[Difficulty]
HPDrainRate:7
CircleSize:4
OverallDifficulty:8
ApproachRate:9
SliderMultiplier:2
SliderTickRate:2

[Events]
//Background and Video events
0,0,"maxresdefault.jpg",0,0
//Break Periods
2,26157,26886
2,91507,97204
2,168323,189688
//Storyboard Layer 0 (Background)
//Storyboard Layer 1 (Fail)
//Storyboard Layer 2 (Pass)
//Storyboard Layer 3 (Foreground)
//Storyboard Sound Samples

[TimingPoints]
15257,382.165605095541,4,1,0,85,1,0
79460,-100,4,1,0,85,0,1
91690,-100,4,1,0,85,0,0
143664,-100,4,1,0,85,0,1
155893,-100,4,1,0,85,0,0
192581,-100,4,1,0,50,0,0
207868,-100,4,1,0,85,0,1
213887,-100,4,1,0,50,0,1
214842,-100,4,1,0,85,0,1
218521,-100,4,1,0,50,0,1
219524,-100,4,1,0,85,0,0
220098,-100,4,1,0,85,0,1
232327,-100,4,1,0,85,0,0

[HitObjects]
144,156,15257,5,4,0:0:0:0:
292,144,15448,1,2,0:0:0:0:
278,176,15543,1,0,0:0:0:0:
253,201,15639,2,0,P|217:228|152:224,1,100,8|2,0:0|0:0,0:0:0:0:
172,79,16021,1,0,0:0:0:0:
96,208,16212,2,0,P|100:259|145:298,1,100,2|8,0:0|0:0,0:0:0:0:
253,201,16594,1,2,0:0:0:0:
232,166,16690,1,0,0:0:0:0:
229,126,16785,6,0,P|234:58|268:18,1,100
336,156,17167,1,8,0:0:0:0:
400,20,17358,1,2,0:0:0:0:
252,32,17549,1,0,0:0:0:0:
388,100,17741,2,0,P|412:160|392:204,1,100,2|8,0:0|0:0,0:0:0:0:
160,196,18123,1,2,0:0:0:0:
150,157,18218,1,0,0:0:0:0:
148,112,18314,5,0,0:0:0:0:
124,260,18505,2,0,P|128:320|172:356,1,100,2|8,0:0|0:0,0:0:0:0:
160,196,18887,2,0,P|104:188|68:212,1,100,2|0,0:0|0:0,0:0:0:0:
200,280,19269,1,2,0:0:0:0:
52,284,19460,1,8,0:0:0:0:
52,136,19651,1,2,0:0:0:0:
296,224,19842,5,0,0:0:0:0:
388,104,20034,2,0,P|436:120|456:168,1,100,2|8,0:0|0:0,0:0:0:0:
312,128,20416,1,2,0:0:0:0:
428,32,20607,1,0,0:0:0:0:
388,176,20798,2,0,P|420:228|476:224,1,100,2|8,0:0|0:0,0:0:0:0:
324,308,21180,1,2,0:0:0:0:
180,68,21371,5,0,0:0:0:0:
64,160,21562,1,2,0:0:0:0:
60,164,21658,1,0,0:0:0:0:
56,168,21753,1,8,0:0:0:0:
204,168,21944,1,2,0:0:0:0:
128,296,22135,1,0,0:0:0:0:
260,220,22327,2,0,P|280:160|260:116,1,100,2|8,0:0|0:0,0:0:0:0:
156,224,22709,1,2,0:0:0:0:
416,104,22900,5,0,0:0:0:0:
266,90,23091,1,2,0:0:0:0:
297,75,23186,1,0,0:0:0:0:
331,70,23282,1,8,0:0:0:0:
452,168,23473,2,0,P|492:100|468:52,1,100,2|0,0:0|0:0,0:0:0:0:
380,188,23855,2,0,P|412:232|472:240,1,100,2|8,0:0|0:0,0:0:0:0:
416,104,24237,1,2,0:0:0:0:
256,192,24428,12,4,25957,0:0:0:0:
264,333,27486,6,0,P|349:358|377:350,1,100
371,324,27772,2,0,P|424:304|455:267,1,100
442,238,28059,2,0,P|470:191|455:125,1,100
254,222,28537,5,8,0:0:0:0:
129,304,28728,1,0,0:0:0:0:
113,272,28823,1,2,0:0:0:0:
113,236,28919,1,0,0:0:0:0:
125,203,29014,5,8,0:0:0:0:
137,170,29110,1,0,0:0:0:0:
135,134,29206,1,2,0:0:0:0:
132,99,29301,1,0,0:0:0:0:
151,69,29397,1,8,0:0:0:0:
182,54,29492,1,0,0:0:0:0:
217,51,29588,1,2,0:0:0:0:
250,58,29683,1,0,0:0:0:0:
280,75,29779,2,0,P|337:173|309:229,1,150,8|8,0:0|0:0,0:0:0:0:
387,338,30256,1,0,0:0:0:0:
417,320,30352,1,2,0:0:0:0:
442,295,30448,1,0,0:0:0:0:
463,267,30543,6,0,P|473:202|443:147,1,100,0|2,0:0|0:0,0:0:0:0:
465,136,30830,2,0,P|429:100|381:88,1,100,8|2,0:0|0:0,0:0:0:0:
365,57,31116,2,0,P|293:61|253:117,1,100,8|0,0:0|0:0,0:0:0:0:
310,298,31594,1,8,0:0:0:0:
171,356,31785,1,0,0:0:0:0:
185,323,31881,1,2,0:0:0:0:
203,293,31976,1,0,0:0:0:0:
228,268,32072,5,8,0:0:0:0:
249,240,32167,1,0,0:0:0:0:
259,206,32263,1,2,0:0:0:0:
253,171,32358,1,0,0:0:0:0:
233,141,32454,1,8,0:0:0:0:
198,137,32549,1,0,0:0:0:0:
166,151,32645,1,2,0:0:0:0:
131,159,32741,1,0,0:0:0:0:
96,152,32836,2,0,P|41:93|104:28,1,150,8|8,0:0|0:0,0:0:0:0:
217,57,33314,1,0,0:0:0:0:
250,66,33409,1,2,0:0:0:0:
284,61,33505,1,0,0:0:0:0:
316,48,33600,6,0,P|370:67|398:113,1,100,2|0,0:0|0:0,0:0:0:0:
428,105,33887,2,0,P|439:167|423:204,1,100,8|2,0:0|0:0,0:0:0:0:
447,227,34174,2,0,P|417:286|356:304,1,100,8|0,0:0|0:0,0:0:0:0:
165,282,34651,1,8,0:0:0:0:
38,201,34842,1,0,0:0:0:0:
66,180,34938,1,2,0:0:0:0:
98,167,35034,1,0,0:0:0:0:
132,161,35129,5,8,0:0:0:0:
166,165,35225,1,0,0:0:0:0:
197,178,35320,1,2,0:0:0:0:
229,190,35416,1,0,0:0:0:0:
263,196,35511,1,8,0:0:0:0:
297,189,35607,1,0,0:0:0:0:
328,174,35702,1,2,0:0:0:0:
356,152,35798,1,0,0:0:0:0:
374,122,35893,2,0,P|366:78|270:50,1,150,8|8,0:0|0:0,0:0:0:0:
126,65,36371,1,0,0:0:0:0:
95,81,36467,1,2,0:0:0:0:
68,103,36562,1,0,0:0:0:0:
49,132,36658,6,0,P|33:195|64:253,1,100,0|2,0:0|0:0,0:0:0:0:
24,256,36944,2,0,P|42:301|86:326,1,100,8|2,0:0|0:0,0:0:0:0:
90,360,37231,2,0,P|139:366|190:338,1,100,8|0,0:0|0:0,0:0:0:0:
384,242,37709,1,8,0:0:0:0:
234,242,37900,1,0,0:0:0:0:
242,208,37995,1,2,0:0:0:0:
262,179,38091,1,0,0:0:0:0:
289,158,38186,5,8,0:0:0:0:
321,144,38282,1,0,0:0:0:0:
351,127,38378,1,2,0:0:0:0:
371,99,38473,1,0,0:0:0:0:
378,64,38569,1,8,0:0:0:0:
356,36,38664,1,0,0:0:0:0:
321,27,38760,1,2,0:0:0:0:
292,46,38855,1,0,0:0:0:0:
287,80,38951,1,8,0:0:0:0:
307,108,39046,1,0,0:0:0:0:
336,126,39142,1,2,0:0:0:0:
364,146,39237,1,0,0:0:0:0:
385,173,39333,2,0,P|393:266|279:338,1,200,8|4,0:0|0:0,0:0:0:0:
216,256,39906,6,0,P|160:216|152:168,1,100,0|8,0:0|0:0,0:0:0:0:
296,256,40288,2,0,P|352:216|360:168,1,100,0|0,0:0|0:0,0:0:0:0:
152,240,40671,2,0,P|108:186|112:138,1,100,0|8,0:0|0:0,0:0:0:0:
360,240,41053,2,0,P|403:186|399:138,1,100,0|0,0:0|0:0,0:0:0:0:
92,216,41435,6,0,P|63:153|80:107,1,100,0|8,0:0|0:0,0:0:0:0:
420,216,41817,2,0,P|448:153|431:107,1,100,0|0,0:0|0:0,0:0:0:0:
144,168,42199,2,0,P|132:100|160:60,1,100,0|8,0:0|0:0,0:0:0:0:
368,168,42581,2,0,P|379:100|351:60,1,100,0|0,0:0|0:0,0:0:0:0:
348,228,42964,5,0,0:0:0:0:
169,228,43155,1,8,0:0:0:0:
313,123,43346,1,0,0:0:0:0:
259,292,43537,1,0,0:0:0:0:
203,123,43728,1,0,0:0:0:0:
348,228,43919,1,8,0:0:0:0:
169,228,44110,1,0,0:0:0:0:
40,171,44301,5,8,0:0:0:0:
55,139,44397,1,0,0:0:0:0:
77,112,44492,1,2,0:0:0:0:
105,91,44588,1,0,0:0:0:0:
136,75,44683,1,8,0:0:0:0:
170,67,44779,1,0,0:0:0:0:
204,69,44874,1,2,0:0:0:0:
238,75,44970,1,0,0:0:0:0:
272,76,45065,1,8,0:0:0:0:
306,72,45161,1,0,0:0:0:0:
338,58,45256,1,2,0:0:0:0:
368,40,45352,1,0,0:0:0:0:
402,46,45448,1,8,0:0:0:0:
422,74,45543,1,0,0:0:0:0:
411,107,45639,1,2,0:0:0:0:
381,125,45734,1,0,0:0:0:0:
346,119,45830,5,0,0:0:0:0:
308,244,46021,2,0,P|320:296|308:344,1,100,0|8,0:0|0:0,0:0:0:0:
204,140,46403,2,0,P|156:128|104:140,1,100,0|0,0:0|0:0,0:0:0:0:
204,244,46785,2,0,P|192:292|204:344,1,100,0|8,0:0|0:0,0:0:0:0:
308,140,47167,2,0,P|356:128|408:140,1,100,0|0,0:0|0:0,0:0:0:0:
204,244,47549,6,0,P|156:256|104:244,1,100,0|8,0:0|0:0,0:0:0:0:
308,140,47932,2,0,P|320:92|308:40,1,100,0|0,0:0|0:0,0:0:0:0:
308,244,48314,2,0,P|356:256|408:244,1,100,0|8,0:0|0:0,0:0:0:0:
204,140,48696,2,0,P|156:132|104:140,1,100,0|0,0:0|0:0,0:0:0:0:
188,20,49078,5,0,0:0:0:0:
324,88,49269,1,8,0:0:0:0:
188,148,49460,1,0,0:0:0:0:
320,220,49651,1,0,0:0:0:0:
184,284,49842,1,0,0:0:0:0:
316,360,50034,1,8,0:0:0:0:
448,292,50225,1,0,0:0:0:0:
300,290,50416,6,0,P|256:314|244:366,4,100,0|2|8|2|0,0:0|0:0|0:0|0:0|0:0,0:0:0:0:
392,172,51371,1,2,0:0:0:0:
244,152,51562,1,8,0:0:0:0:
300,292,51753,1,2,0:0:0:0:
152,272,51944,5,0,0:0:0:0:
292,216,52135,2,0,P|344:228|376:276,1,100,0|8,0:0|0:0,0:0:0:0:
224,248,52518,2,0,P|224:184|252:152,1,100,0|0,0:0|0:0,0:0:0:0:
152,276,52900,2,0,P|196:320|236:324,1,100,0|8,0:0|0:0,0:0:0:0:
84,300,53282,1,0,0:0:0:0:
200,48,53473,5,0,0:0:0:0:
324,132,53664,2,0,P|380:156|392:196,1,100,0|8,0:0|0:0,0:0:0:0:
244,160,54046,2,0,P|248:92|280:64,1,100,0|0,0:0|0:0,0:0:0:0:
308,216,54428,2,0,P|252:244|196:224,1,100,0|8,0:0|0:0,0:0:0:0:
364,268,54811,1,0,0:0:0:0:
84,284,55002,5,0,0:0:0:0:
84,136,55193,2,0,P|136:120|192:144,1,100,0|8,0:0|0:0,0:0:0:0:
184,282,55575,2,0,P|144:244|136:184,1,100,0|0,0:0|0:0,0:0:0:0:
260,123,55957,2,0,P|247:176|199:212,1,100,0|8,0:0|0:0,0:0:0:0:
168,64,56339,1,0,0:0:0:0:
148,212,56530,5,8,0:0:0:0:
184,204,56626,1,0,0:0:0:0:
220,208,56721,1,2,0:0:0:0:
252,220,56817,1,0,0:0:0:0:
288,228,56913,1,8,0:0:0:0:
320,220,57008,1,0,0:0:0:0:
356,228,57104,1,2,0:0:0:0:
376,256,57199,1,0,0:0:0:0:
380,292,57295,2,0,P|352:312|332:316,3,50,8|0|2|0,0:0|0:0|0:0|0:0,0:0:0:0:
304,328,57677,1,8,0:0:0:0:
272,340,57772,1,0,0:0:0:0:
236,332,57868,1,2,0:0:0:0:
200,336,57964,1,0,0:0:0:0:
164,328,58059,5,0,0:0:0:0:
184,188,58250,1,2,0:0:0:0:
324,200,58441,1,8,0:0:0:0:
376,68,58632,1,2,0:0:0:0:
240,44,58823,1,8,0:0:0:0:
348,132,59014,2,0,L|428:196,1,100,2|2,0:0|0:0,0:0:0:0:
164,56,59588,5,0,0:0:0:0:
184,196,59779,1,2,0:0:0:0:
324,184,59970,1,8,0:0:0:0:
376,316,60161,1,2,0:0:0:0:
240,340,60352,1,8,0:0:0:0:
348,252,60543,2,0,L|432:172,2,100,2|2|0,0:0|0:0|0:0,0:0:0:0:
256,192,61116,6,0,B|232:148|232:148|256:100,4,100,0|2|8|2|0,0:0|0:0|0:0|0:0|0:0,0:0:0:0:
256,192,62263,1,8,0:0:0:0:
256,192,62645,6,0,B|280:236|280:236|256:284,4,100,0|2|8|2|0,0:0|0:0|0:0|0:0|0:0,0:0:0:0:
256,192,63792,1,8,0:0:0:0:
12,364,64174,5,4,0:0:0:0:
144,224,64365,2,0,P|96:244|56:292,1,100,2|8,0:0|0:0,0:0:0:0:
236,196,64747,2,0,P|272:156|340:124,1,100,2|0,0:0|0:0,0:0:0:0:
144,224,65129,1,2,0:0:0:0:
312,132,65320,1,8,0:0:0:0:
236,196,65511,2,0,P|184:224|136:224,1,100,2|0,0:0|0:0,0:0:0:0:
312,132,65893,2,0,P|360:116|416:60,1,100,2|8,0:0|0:0,0:0:0:0:
480,36,66276,2,0,P|428:56|388:100,1,100,2|0,0:0|0:0,0:0:0:0:
272,92,66658,1,2,0:0:0:0:
320,236,66849,1,8,0:0:0:0:
236,360,67040,1,2,0:0:0:0:
500,364,67231,5,0,0:0:0:0:
368,224,67422,2,0,P|416:244|456:292,1,100,2|8,0:0|0:0,0:0:0:0:
276,196,67804,2,0,P|240:156|172:124,1,100,2|0,0:0|0:0,0:0:0:0:
368,224,68186,1,2,0:0:0:0:
200,132,68377,1,8,0:0:0:0:
276,196,68568,2,0,P|328:224|376:224,1,100,2|0,0:0|0:0,0:0:0:0:
200,132,68950,2,0,P|152:116|96:60,1,100,2|8,0:0|0:0,0:0:0:0:
32,36,69333,2,0,P|84:56|124:100,1,100,2|0,0:0|0:0,0:0:0:0:
240,92,69715,1,2,0:0:0:0:
192,236,69906,1,8,0:0:0:0:
276,360,70097,1,2,0:0:0:0:
348,228,70288,5,0,0:0:0:0:
424,108,70479,1,2,0:0:0:0:
428,104,70575,1,0,0:0:0:0:
432,100,70671,1,8,0:0:0:0:
420,248,70862,2,0,P|380:296|320:296,1,100,2|0,0:0|0:0,0:0:0:0:
376,156,71244,2,0,P|352:104|380:56,1,100,2|8,0:0|0:0,0:0:0:0:
280,188,71626,1,2,0:0:0:0:
220,52,71817,5,0,0:0:0:0:
204,200,72008,2,0,P|244:256|288:264,1,100,2|8,0:0|0:0,0:0:0:0:
216,132,72390,1,2,0:0:0:0:
212,128,72486,1,0,0:0:0:0:
208,124,72581,1,0,0:0:0:0:
176,272,72772,2,0,P|132:224|136:168,1,100,2|8,0:0|0:0,0:0:0:0:
256,260,73155,1,2,0:0:0:0:
256,192,73346,12,0,76021,0:0:0:0:
433,253,76403,5,8,0:0:0:0:
398,247,76499,1,0,0:0:0:0:
366,231,76594,1,2,0:0:0:0:
340,206,76690,1,0,0:0:0:0:
325,174,76785,1,8,0:0:0:0:
321,139,76881,1,0,0:0:0:0:
328,105,76976,1,2,0:0:0:0:
348,76,77072,1,0,0:0:0:0:
380,64,77167,1,8,0:0:0:0:
414,71,77263,1,0,0:0:0:0:
438,95,77358,1,2,0:0:0:0:
439,130,77454,1,0,0:0:0:0:
423,160,77549,1,8,0:0:0:0:
394,180,77645,1,0,0:0:0:0:
359,174,77741,1,2,0:0:0:0:
329,154,77836,1,0,0:0:0:0:
294,148,77932,2,0,P|241:153|205:188,4,100,0|2|8|2|0,0:0|0:0|0:0|0:0|0:0,0:0:0:0:
348,308,79078,1,8,0:0:0:0:
176,64,79460,5,4,0:0:0:0:
336,64,79651,1,2,0:0:0:0:
176,64,79842,1,8,0:0:0:0:
184,100,79938,1,0,0:0:0:0:
204,128,80034,1,2,0:0:0:0:
232,148,80129,1,8,0:0:0:0:
336,64,80320,1,0,0:0:0:0:
328,100,80416,1,2,0:0:0:0:
304,132,80511,1,0,0:0:0:0:
280,148,80607,1,8,0:0:0:0:
256,296,80798,1,2,0:0:0:0:
400,336,80989,5,0,0:0:0:0:
412,304,81085,1,0,0:0:0:0:
420,268,81180,1,2,0:0:0:0:
423,232,81276,1,8,0:0:0:0:
400,48,81467,1,0,0:0:0:0:
412,80,81563,1,2,0:0:0:0:
420,116,81658,1,0,0:0:0:0:
423,152,81754,1,8,0:0:0:0:
280,192,81944,1,2,0:0:0:0:
152,112,82135,1,8,0:0:0:0:
152,264,82327,1,2,0:0:0:0:
308,32,82518,5,0,0:0:0:0:
196,172,82709,2,0,P|144:188|92:152,1,100,2|8,0:0|0:0,0:0:0:0:
244,284,83091,1,2,0:0:0:0:
304,116,83282,1,0,0:0:0:0:
320,296,83473,2,0,P|280:352|220:356,1,100,2|8,0:0|0:0,0:0:0:0:
360,180,83855,1,2,0:0:0:0:
200,96,84046,5,0,0:0:0:0:
356,188,84237,1,2,0:0:0:0:
196,100,84428,1,8,0:0:0:0:
352,192,84620,1,2,0:0:0:0:
192,108,84811,1,0,0:0:0:0:
348,196,85002,1,2,0:0:0:0:
272,124,85193,1,8,0:0:0:0:
272,124,85575,5,0,0:0:0:0:
292,96,85671,1,0,0:0:0:0:
324,80,85766,1,2,0:0:0:0:
360,80,85862,1,8,0:0:0:0:
272,260,86053,1,0,0:0:0:0:
292,288,86149,1,2,0:0:0:0:
324,304,86244,1,0,0:0:0:0:
360,304,86340,1,8,0:0:0:0:
460,192,86530,1,2,0:0:0:0:
312,192,86721,1,8,0:0:0:0:
160,192,86913,1,2,0:0:0:0:
32,268,87104,5,0,0:0:0:0:
32,120,87295,1,2,0:0:0:0:
32,268,87486,1,8,0:0:0:0:
52,296,87581,1,0,0:0:0:0:
80,316,87677,1,2,0:0:0:0:
112,324,87772,1,8,0:0:0:0:
32,116,87964,1,0,0:0:0:0:
52,88,88059,1,2,0:0:0:0:
80,68,88155,1,0,0:0:0:0:
112,60,88250,1,8,0:0:0:0:
184,192,88441,1,2,0:0:0:0:
224,304,88632,5,0,0:0:0:0:
360,240,88823,2,0,P|404:212|420:160,1,100,2|8,0:0|0:0,0:0:0:0:
280,220,89206,2,0,P|282:272|319:311,1,100,2|0,0:0|0:0,0:0:0:0:
336,160,89588,2,0,P|289:135|236:148,1,100,2|8,0:0|0:0,0:0:0:0:
388,100,89970,2,0,P|416:156|404:200,1,100,2|0,0:0|0:0,0:0:0:0:
316,72,90352,2,0,P|356:28|408:28,1,100,2|8,0:0|0:0,0:0:0:0:
412,172,90734,1,2,0:0:0:0:
100,212,91307,1,8,0:0:0:0:
256,344,97804,5,0,0:0:0:0:
129,264,97995,2,0,L|74:280,1,50,2|8,0:0|0:0,0:0:0:0:
158,148,98282,2,0,L|212:127,1,50,2|8,0:0|0:0,0:0:0:0:
207,280,98569,1,0,0:0:0:0:
368,116,98855,1,8,0:0:0:0:
432,252,99046,1,0,0:0:0:0:
397,259,99142,1,2,0:0:0:0:
362,252,99237,1,0,0:0:0:0:
326,251,99333,5,8,0:0:0:0:
296,232,99428,1,0,0:0:0:0:
261,227,99524,1,2,0:0:0:0:
229,211,99620,1,0,0:0:0:0:
207,183,99715,1,8,0:0:0:0:
199,151,99811,1,0,0:0:0:0:
184,119,99906,1,2,0:0:0:0:
191,84,100002,1,0,0:0:0:0:
190,49,100097,1,8,0:0:0:0:
416,52,100384,1,8,0:0:0:0:
268,84,100575,1,0,0:0:0:0:
276,120,100671,1,0,0:0:0:0:
292,152,100766,1,0,0:0:0:0:
320,172,100862,5,0,0:0:0:0:
463,214,101053,2,0,L|507:255,1,50,2|8,0:0|0:0,0:0:0:0:
355,290,101339,2,0,L|305:304,1,50,2|8,0:0|0:0,0:0:0:0:
156,290,101626,1,0,0:0:0:0:
120,68,101913,1,8,0:0:0:0:
52,200,102104,1,0,0:0:0:0:
84,212,102199,1,2,0:0:0:0:
120,220,102295,1,0,0:0:0:0:
156,220,102390,6,0,P|192:216|216:200,3,50,8|0|2|0,0:0|0:0|0:0|0:0,0:0:0:0:
232,188,102772,1,8,0:0:0:0:
260,168,102868,1,0,0:0:0:0:
296,160,102964,1,2,0:0:0:0:
332,164,103059,1,0,0:0:0:0:
364,180,103155,2,0,P|404:216|416:244,3,50,8|0|2|0,0:0|0:0|0:0|0:0,0:0:0:0:
412,244,103537,2,0,P|388:312|264:320,1,200,8|4,0:0|0:0,0:0:0:0:
104,56,104301,5,8,0:0:0:0:
408,56,104683,1,0,0:0:0:0:
256,56,105065,1,8,0:0:0:0:
256,296,105448,5,0,0:0:0:0:
194,107,105639,1,0,0:0:0:0:
354,224,105830,1,8,0:0:0:0:
157,224,106021,1,0,0:0:0:0:
317,107,106212,1,0,0:0:0:0:
228,228,106403,2,0,P|208:172|152:152,1,100,0|8,0:0|0:0,0:0:0:0:
336,156,106785,2,0,P|288:192|287:251,1,100,0|0,0:0|0:0,0:0:0:0:
256,80,107167,5,0,0:0:0:0:
136,108,107358,1,8,0:0:0:0:
376,108,107549,1,0,0:0:0:0:
256,200,107741,1,0,0:0:0:0:
324,68,107932,2,0,P|364:44|440:80,1,100,0|8,0:0|0:0,0:0:0:0:
188,68,108314,2,0,P|148:44|72:80,1,100,0|8,0:0|0:0,0:0:0:0:
72,80,108600,5,0,0:0:0:0:
64,116,108696,1,2,0:0:0:0:
76,148,108792,1,0,0:0:0:0:
100,172,108887,1,8,0:0:0:0:
136,180,108983,1,0,0:0:0:0:
168,192,109078,1,2,0:0:0:0:
192,220,109174,1,0,0:0:0:0:
208,252,109269,2,0,P|236:268|256:272,3,50,8|0|2|0,0:0|0:0|0:0|0:0,0:0:0:0:
288,264,109651,1,8,0:0:0:0:
304,232,109747,1,0,0:0:0:0:
328,208,109842,1,2,0:0:0:0:
364,200,109938,1,0,0:0:0:0:
396,188,110034,5,0,0:0:0:0:
148,360,110416,1,8,0:0:0:0:
336,128,110798,1,0,0:0:0:0:
92,300,111180,1,8,0:0:0:0:
284,68,111562,5,0,0:0:0:0:
40,240,111753,2,0,P|100:224|148:244,1,100,0|8,0:0|0:0,0:0:0:0:
220,112,112135,2,0,P|208:52|232:12,1,100,0|0,0:0|0:0,0:0:0:0:
156,152,112518,2,0,P|208:188|256:176,1,100,0|8,0:0|0:0,0:0:0:0:
92,192,112900,2,0,P|132:232|180:256,1,100,0|0,0:0|0:0,0:0:0:0:
308,316,113282,5,0,0:0:0:0:
224,192,113473,1,8,0:0:0:0:
308,316,113664,1,0,0:0:0:0:
376,184,113855,1,0,0:0:0:0:
308,316,114046,1,0,0:0:0:0:
376,184,114237,1,8,0:0:0:0:
224,192,114428,1,0,0:0:0:0:
224,192,114620,6,0,P|284:204|296:260,4,100,0|2|8|2|0,0:0|0:0|0:0|0:0|0:0,0:0:0:0:
376,184,115575,1,2,0:0:0:0:
308,316,115766,1,8,0:0:0:0:
224,192,115957,1,2,0:0:0:0:
408,116,116148,5,0,0:0:0:0:
264,252,116339,2,0,P|204:260|160:228,1,100,0|8,0:0|0:0,0:0:0:0:
332,124,116721,2,0,P|360:56|388:44,1,100,0|0,0:0|0:0,0:0:0:0:
224,192,117104,2,0,P|192:240|196:280,1,100,0|8,0:0|0:0,0:0:0:0:
264,92,117486,2,0,P|312:52|364:56,1,100,0|0,0:0|0:0,0:0:0:0:
168,144,117868,6,0,P|152:196|184:252,1,100,0|8,0:0|0:0,0:0:0:0:
172,36,118250,1,0,0:0:0:0:
172,36,118441,1,0,0:0:0:0:
60,200,118632,1,0,0:0:0:0:
260,216,118823,1,8,0:0:0:0:
376,308,119014,1,0,0:0:0:0:
400,160,119206,5,0,0:0:0:0:
308,276,119397,2,0,P|304:328|336:368,1,100,0|8,0:0|0:0,0:0:0:0:
180,19,119779,2,0,P|208:59|204:108,1,100,0|0,0:0|0:0,0:0:0:0:
112,224,120161,1,0,0:0:0:0:
136,76,120353,1,8,0:0:0:0:
256,164,120543,1,0,0:0:0:0:
276,16,120734,6,0,P|312:12|336:20,3,50,8|0|2|0,0:0|0:0|0:0|0:0,0:0:0:0:
356,32,121116,1,8,0:0:0:0:
380,56,121212,1,0,0:0:0:0:
388,92,121307,1,2,0:0:0:0:
384,128,121403,1,0,0:0:0:0:
372,160,121499,2,0,P|336:208|328:212,3,50,8|0|2|0,0:0|0:0|0:0|0:0,0:0:0:0:
324,228,121881,1,8,0:0:0:0:
312,260,121976,1,0,0:0:0:0:
312,296,122072,1,2,0:0:0:0:
324,328,122167,1,0,0:0:0:0:
356,344,122263,5,0,0:0:0:0:
156,176,122454,1,2,0:0:0:0:
152,172,122549,1,0,0:0:0:0:
148,168,122645,1,8,0:0:0:0:
316,84,122836,1,2,0:0:0:0:
264,312,123027,1,8,0:0:0:0:
116,328,123218,2,0,P|64:300|44:244,1,100,2|10,0:0|0:0,0:0:0:0:
256,192,123600,1,2,0:0:0:0:
156,40,123792,5,0,0:0:0:0:
372,208,123983,1,2,0:0:0:0:
376,212,124078,1,0,0:0:0:0:
380,216,124174,1,8,0:0:0:0:
196,300,124365,1,2,0:0:0:0:
248,72,124556,1,8,0:0:0:0:
396,56,124747,2,8,P|448:84|468:140,1,100,2|2,0:0|0:0,0:0:0:0:
256,192,125129,1,2,0:0:0:0:
108,192,125320,6,0,P|48:184|28:148,4,100,0|2|8|2|0,0:0|0:0|0:0|0:0|0:0,0:0:0:0:
184,60,126276,1,2,0:0:0:0:
256,192,126467,1,8,0:0:0:0:
328,324,126658,1,2,0:0:0:0:
404,192,126849,6,0,P|464:200|484:236,4,100,0|2|8|2|0,0:0|0:0|0:0|0:0|0:0,0:0:0:0:
328,60,127804,1,2,0:0:0:0:
256,192,127995,1,8,0:0:0:0:
184,324,128186,1,2,0:0:0:0:
108,192,128378,5,4,0:0:0:0:
36,28,128569,2,0,P|84:60|88:108,1,100,2|8,0:0|0:0,0:0:0:0:
184,252,128951,1,2,0:0:0:0:
90,99,129142,2,0,P|88:152|106:195,1,100,0|2,0:0|0:0,0:0:0:0:
280,236,129524,2,0,P|228:256|176:248,1,100,8|2,0:0|0:0,0:0:0:0:
92,100,129906,1,0,0:0:0:0:
184,252,130097,2,0,P|152:208|108:192,1,100,2|8,0:0|0:0,0:0:0:0:
232,60,130479,1,2,0:0:0:0:
280,236,130671,1,0,0:0:0:0:
108,192,130862,1,2,0:0:0:0:
280,140,131053,1,8,0:0:0:0:
248,316,131244,1,2,0:0:0:0:
428,308,131435,5,0,0:0:0:0:
376,136,131626,2,0,P|324:148|268:136,1,100,2|8,0:0|0:0,0:0:0:0:
444,212,132008,2,0,P|424:264|428:308,1,100,2|0,0:0|0:0,0:0:0:0:
468,132,132390,1,2,0:0:0:0:
328,244,132581,1,8,0:0:0:0:
468,132,132772,1,2,0:0:0:0:
328,244,132964,1,0,0:0:0:0:
296,68,133155,1,2,0:0:0:0:
468,132,133346,1,8,0:0:0:0:
296,68,133537,1,2,0:0:0:0:
412,204,133728,1,0,0:0:0:0:
240,148,133919,2,0,P|280:112|296:64,1,100,2|8,0:0|0:0,0:0:0:0:
328,244,134301,1,2,0:0:0:0:
160,308,134492,5,0,0:0:0:0:
156,312,134683,1,2,0:0:0:0:
56,160,134874,1,8,0:0:0:0:
236,148,135065,1,2,0:0:0:0:
240,148,135161,1,0,0:0:0:0:
244,148,135256,1,0,0:0:0:0:
160,308,135448,1,2,0:0:0:0:
56,160,135639,1,8,0:0:0:0:
220,236,135830,1,2,0:0:0:0:
135,52,136021,5,0,0:0:0:0:
139,60,136212,1,2,0:0:0:0:
143,68,136403,1,8,0:0:0:0:
240,76,136594,2,0,P|188:60|128:84,1,100,2|0,0:0|0:0,0:0:0:0:
220,236,136976,1,2,0:0:0:0:
220,236,137072,1,0,0:0:0:0:
220,236,137167,1,8,0:0:0:0:
56,160,137358,1,2,0:0:0:0:
256,192,137549,12,0,140225,0:0:0:0:
384,76,140607,6,0,P|404:104|408:128,3,50,8|0|2|0,0:0|0:0|0:0|0:0,0:0:0:0:
404,152,140989,1,8,0:0:0:0:
388,184,141085,1,0,0:0:0:0:
384,220,141180,1,2,0:0:0:0:
392,252,141276,1,0,0:0:0:0:
400,284,141371,2,0,P|408:316|392:352,3,50,8|0|2|0,0:0|0:0|0:0|0:0,0:0:0:0:
372,340,141753,1,8,0:0:0:0:
336,332,141849,1,0,0:0:0:0:
300,324,141944,1,2,0:0:0:0:
264,324,142040,1,0,0:0:0:0:
228,328,142135,2,0,P|176:340|128:328,4,100,0|2|8|2|0,0:0|0:0|0:0|0:0|0:0,0:0:0:0:
180,196,143282,1,8,0:0:0:0:
504,80,143664,5,4,0:0:0:0:
316,28,143855,1,2,0:0:0:0:
360,200,144046,1,8,0:0:0:0:
380,172,144142,1,0,0:0:0:0:
380,136,144237,1,2,0:0:0:0:
364,104,144333,1,8,0:0:0:0:
148,280,144524,1,0,0:0:0:0:
132,248,144620,1,2,0:0:0:0:
132,212,144715,1,0,0:0:0:0:
152,184,144811,1,8,0:0:0:0:
196,356,145002,1,2,0:0:0:0:
360,284,145193,5,8,0:0:0:0:
328,272,145288,1,0,0:0:0:0:
300,248,145384,1,2,0:0:0:0:
276,220,145479,1,0,0:0:0:0:
256,192,145575,1,8,0:0:0:0:
236,164,145671,1,0,0:0:0:0:
212,136,145766,1,2,0:0:0:0:
184,112,145862,1,0,0:0:0:0:
152,100,145957,1,8,0:0:0:0:
168,280,146148,1,2,0:0:0:0:
344,104,146339,1,8,0:0:0:0:
256,192,146530,1,2,0:0:0:0:
435,226,146721,6,0,P|467:118|442:56,1,150,0|2,0:0|0:0,0:0:0:0:
444,52,147104,1,8,0:0:0:0:
260,48,147295,1,2,0:0:0:0:
340,196,147486,1,0,0:0:0:0:
344,200,147581,1,0,0:0:0:0:
348,204,147677,1,2,0:0:0:0:
444,52,147868,1,8,0:0:0:0:
352,208,148059,1,2,0:0:0:0:
356,212,148155,1,0,0:0:0:0:
360,216,148250,5,0,0:0:0:0:
260,48,148441,1,2,0:0:0:0:
440,48,148632,1,8,0:0:0:0:
260,48,148823,1,2,0:0:0:0:
440,48,149014,1,0,0:0:0:0:
252,48,149206,1,2,0:0:0:0:
348,204,149397,1,8,0:0:0:0:
348,204,149588,1,2,0:0:0:0:
204,316,149779,5,8,0:0:0:0:
180,288,149874,1,0,0:0:0:0:
168,256,149970,1,2,0:0:0:0:
164,220,150065,1,8,0:0:0:0:
308,68,150256,1,0,0:0:0:0:
332,96,150351,1,2,0:0:0:0:
344,128,150447,1,0,0:0:0:0:
348,164,150542,1,8,0:0:0:0:
168,184,150734,1,2,0:0:0:0:
348,204,150925,1,8,0:0:0:0:
176,148,151116,1,2,0:0:0:0:
332,236,151307,5,0,0:0:0:0:
196,116,151499,1,2,0:0:0:0:
304,260,151690,1,8,0:0:0:0:
272,276,151785,1,0,0:0:0:0:
236,280,151881,1,2,0:0:0:0:
200,276,151976,1,0,0:0:0:0:
168,264,152072,1,8,0:0:0:0:
140,244,152167,1,0,0:0:0:0:
120,216,152263,1,2,0:0:0:0:
104,184,152358,1,0,0:0:0:0:
96,148,152454,1,8,0:0:0:0:
256,64,152645,1,2,0:0:0:0:
404,164,152836,5,0,0:0:0:0:
256,140,153027,2,0,P|308:120|332:72,1,100,2|8,0:0|0:0,0:0:0:0:
180,104,153409,2,0,P|180:168|212:208,1,100,2|0,0:0|0:0,0:0:0:0:
404,164,153792,1,2,0:0:0:0:
236,308,153983,1,8,0:0:0:0:
180,104,154174,1,2,0:0:0:0:
104,84,154365,2,0,P|132:40|184:24,1,100,0|2,0:0|0:0,0:0:0:0:
180,104,154747,1,8,0:0:0:0:
176,24,154938,1,2,0:0:0:0:
480,356,155511,1,8,0:0:0:0:
32,356,155893,6,0,P|48:304|88:268,1,100,4|2,0:0|0:0,0:0:0:0:
84,268,156180,1,8,0:0:0:0:
84,116,156371,1,2,0:0:0:0:
88,112,156467,2,0,P|128:60|180:48,1,100,8|0,0:0|0:0,0:0:0:0:
380,20,156944,1,8,0:0:0:0:
380,168,157135,1,0,0:0:0:0:
372,204,157231,1,2,0:0:0:0:
352,232,157327,1,0,0:0:0:0:
324,252,157422,5,8,0:0:0:0:
288,260,157518,1,0,0:0:0:0:
252,256,157613,1,2,0:0:0:0:
220,240,157709,1,0,0:0:0:0:
188,224,157804,1,8,0:0:0:0:
152,224,157900,1,0,0:0:0:0:
124,244,157995,1,2,0:0:0:0:
112,276,158091,1,0,0:0:0:0:
120,308,158186,1,8,0:0:0:0:
280,152,158473,1,8,0:0:0:0:
400,320,158664,1,0,0:0:0:0:
428,296,158760,1,2,0:0:0:0:
444,264,158855,1,0,0:0:0:0:
452,228,158951,6,0,P|452:156|436:120,1,100,2|0,0:0|0:0,0:0:0:0:
420,104,159237,1,8,0:0:0:0:
252,40,159428,1,2,0:0:0:0:
216,48,159524,2,0,P|160:72|124:120,1,100,8|0,0:0|0:0,0:0:0:0:
256,288,160002,1,8,0:0:0:0:
380,200,160193,1,0,0:0:0:0:
348,184,160288,1,2,0:0:0:0:
312,184,160384,1,0,0:0:0:0:
280,196,160479,5,8,0:0:0:0:
248,208,160575,1,0,0:0:0:0:
212,212,160671,1,2,0:0:0:0:
180,204,160766,1,0,0:0:0:0:
152,184,160862,1,8,0:0:0:0:
136,152,160957,1,0,0:0:0:0:
136,116,161053,1,2,0:0:0:0:
156,88,161148,1,0,0:0:0:0:
188,72,161244,1,8,0:0:0:0:
412,68,161530,1,8,0:0:0:0:
468,208,161721,1,0,0:0:0:0:
460,244,161817,1,2,0:0:0:0:
440,272,161913,1,0,0:0:0:0:
416,296,162008,6,0,P|368:328|320:328,1,100,0|2,0:0|0:0,0:0:0:0:
292,320,162295,2,0,P|228:288|208:248,1,100,8|2,0:0|0:0,0:0:0:0:
200,236,162581,1,8,0:0:0:0:
328,108,162772,2,0,P|248:80|168:104,1,150,0|8,0:0|0:0,0:0:0:0:
328,108,163250,1,0,0:0:0:0:
356,132,163346,1,2,0:0:0:0:
372,164,163441,1,0,0:0:0:0:
376,200,163537,6,0,P|372:232|360:248,3,50,8|0|2|0,0:0|0:0|0:0|0:0,0:0:0:0:
336,272,163919,1,8,0:0:0:0:
304,288,164014,1,0,0:0:0:0:
268,288,164110,1,2,0:0:0:0:
232,280,164206,1,0,0:0:0:0:
204,260,164301,2,0,P|168:200|192:124,1,150,8|8,0:0|0:0,0:0:0:0:
52,68,164779,1,0,0:0:0:0:
40,100,164874,1,2,0:0:0:0:
36,136,164970,1,0,0:0:0:0:
40,172,165065,6,0,P|56:256|76:280,1,100,0|2,0:0|0:0,0:0:0:0:
68,268,165352,1,8,0:0:0:0:
332,176,165543,1,2,0:0:0:0:
336,180,165639,2,0,P|368:236|368:284,1,100,8|0,0:0|0:0,0:0:0:0:
264,264,166116,1,8,0:0:0:0:
256,64,166307,1,0,0:0:0:0:
222,74,166403,1,2,0:0:0:0:
201,102,166499,1,0,0:0:0:0:
178,128,166594,5,8,0:0:0:0:
149,148,166690,1,0,0:0:0:0:
133,178,166785,1,2,0:0:0:0:
130,213,166881,1,0,0:0:0:0:
138,246,166976,1,8,0:0:0:0:
159,274,167072,1,0,0:0:0:0:
183,298,167167,1,2,0:0:0:0:
212,316,167263,1,0,0:0:0:0:
244,327,167358,1,8,0:0:0:0:
278,330,167454,1,0,0:0:0:0:
311,319,167549,1,2,0:0:0:0:
342,303,167645,1,0,0:0:0:0:
366,277,167741,2,0,P|378:165|318:93,1,200,8|4,0:0|0:0,0:0:0:0:
256,192,190288,12,0,192199,0:0:0:0:
256,192,192581,5,4,0:0:0:0:
393,280,192772,1,0,0:0:0:0:
256,55,192964,1,0,0:0:0:0:
119,280,193155,1,0,0:0:0:0:
119,280,193537,5,0,0:0:0:0:
256,192,193728,1,0,0:0:0:0:
393,104,193919,1,0,0:0:0:0:
393,104,194301,5,0,0:0:0:0:
256,329,194493,1,0,0:0:0:0:
119,104,194684,1,0,0:0:0:0:
119,104,195065,5,0,0:0:0:0:
252,188,195256,1,0,0:0:0:0:
256,192,195448,1,0,0:0:0:0:
260,196,195639,1,0,0:0:0:0:
368,52,195830,1,0,0:0:0:0:
144,52,196021,1,0,0:0:0:0:
256,96,196212,1,0,0:0:0:0:
144,332,196594,5,0,0:0:0:0:
368,332,196785,1,0,0:0:0:0:
256,288,196976,1,0,0:0:0:0:
48,192,197358,5,0,0:0:0:0:
184,192,197549,1,0,0:0:0:0:
328,192,197741,1,0,0:0:0:0:
464,192,197932,1,0,0:0:0:0:
400,80,198123,1,0,0:0:0:0:
328,192,198314,1,0,0:0:0:0:
464,192,198505,1,0,0:0:0:0:
400,80,198696,5,0,0:0:0:0:
256,76,198887,1,0,0:0:0:0:
36,348,199269,1,0,0:0:0:0:
256,76,199651,1,0,0:0:0:0:
476,348,200034,1,0,0:0:0:0:
476,36,200416,5,0,0:0:0:0:
256,308,200798,1,0,0:0:0:0:
36,36,201180,1,0,0:0:0:0:
256,308,201562,1,0,0:0:0:0:
256,192,201753,5,4,0:0:0:0:
184,124,201944,2,0,P|164:92|176:24,1,100,2|8,0:0|0:0,0:0:0:0:
350,163,202327,2,0,P|388:162|441:206,1,100,2|0,0:0|0:0,0:0:0:0:
233,288,202709,2,0,P|215:321|150:345,1,100,2|8,0:0|0:0,0:0:0:0:
351,38,203091,2,0,P|305:54|278:95,1,100,2|0,0:0|0:0,0:0:0:0:
341,351,203473,2,0,P|350:303|328:260,1,100,2|8,0:0|0:0,0:0:0:0:
74,186,203855,2,0,P|112:218|161:220,1,100,2|0,0:0|0:0,0:0:0:0:
437,186,204237,2,0,P|399:218|350:220,1,100,2|8,0:0|0:0,0:0:0:0:
256,84,204620,1,2,0:0:0:0:
256,192,204811,12,0,206148,0:0:0:0:
333,298,206339,5,0,0:0:0:0:
381,151,206530,1,0,0:0:0:0:
255,60,206721,1,0,0:0:0:0:
130,151,206913,1,0,0:0:0:0:
178,298,207104,1,0,0:0:0:0:
468,24,207868,5,4,0:0:0:0:
468,172,208250,1,8,0:0:0:0:
468,176,208346,1,0,0:0:0:0:
468,180,208441,1,2,0:0:0:0:
468,184,208537,1,0,0:0:0:0:
468,188,208632,1,8,0:0:0:0:
344,104,208823,1,2,0:0:0:0:
468,24,209014,1,8,0:0:0:0:
344,104,209206,1,2,0:0:0:0:
56,192,209588,5,2,0:0:0:0:
56,196,209683,1,0,0:0:0:0:
56,200,209779,1,8,0:0:0:0:
56,204,209874,1,0,0:0:0:0:
56,208,209970,1,2,0:0:0:0:
56,212,210065,1,0,0:0:0:0:
56,216,210161,1,8,0:0:0:0:
176,308,210352,1,2,0:0:0:0:
200,160,210543,1,8,0:0:0:0:
176,308,210734,1,2,0:0:0:0:
320,264,210925,5,8,0:0:0:0:
336,232,211021,1,0,0:0:0:0:
344,200,211116,1,2,0:0:0:0:
344,164,211212,1,0,0:0:0:0:
336,128,211307,1,8,0:0:0:0:
320,96,211403,1,0,0:0:0:0:
296,72,211499,1,2,0:0:0:0:
264,56,211594,1,0,0:0:0:0:
228,48,211690,1,8,0:0:0:0:
192,48,211785,1,0,0:0:0:0:
156,56,211881,1,2,0:0:0:0:
124,72,211976,1,0,0:0:0:0:
104,100,212072,1,8,0:0:0:0:
88,132,212167,1,0,0:0:0:0:
84,168,212263,1,2,0:0:0:0:
88,204,212358,1,0,0:0:0:0:
108,232,212454,6,0,P|128:260|140:268,3,50,8|0|2|0,0:0|0:0|0:0|0:0,0:0:0:0:
172,284,212836,2,0,P|200:296|224:292,3,50,8|0|2|0,0:0|0:0|0:0|0:0,0:0:0:0:
252,284,213218,1,8,0:0:0:0:
284,272,213314,1,0,0:0:0:0:
320,268,213409,1,2,0:0:0:0:
352,276,213505,1,0,0:0:0:0:
380,296,213600,1,8,0:0:0:0:
488,192,213792,1,2,0:0:0:0:
344,152,213983,6,0,L|324:136,16,25,8|0|0|0|2|0|0|0|8|0|0|0|2|0|0|0|8,0:0|0:0|0:0|0:0|0:0|0:0|0:0|0:0|0:0|0:0|0:0|0:0|0:0|0:0|0:0|0:0|0:0,0:0:0:0:
448,44,214938,1,2,0:0:0:0:
88,312,215320,1,2,0:0:0:0:
84,316,215416,1,0,0:0:0:0:
80,320,215511,5,0,0:0:0:0:
100,172,215702,1,2,0:0:0:0:
220,260,215893,1,8,0:0:0:0:
100,172,216085,1,2,0:0:0:0:
372,44,216467,1,2,0:0:0:0:
384,76,216562,1,0,0:0:0:0:
392,112,216658,1,8,0:0:0:0:
396,148,216753,1,0,0:0:0:0:
392,184,216849,1,2,0:0:0:0:
380,216,216944,1,0,0:0:0:0:
352,240,217040,5,8,0:0:0:0:
320,252,217135,1,0,0:0:0:0:
284,248,217231,1,2,0:0:0:0:
256,228,217327,1,0,0:0:0:0:
240,196,217422,1,8,0:0:0:0:
228,164,217518,1,0,0:0:0:0:
208,136,217613,1,2,0:0:0:0:
176,124,217709,1,0,0:0:0:0:
140,124,217804,1,8,0:0:0:0:
108,140,217900,1,0,0:0:0:0:
88,168,217995,1,2,0:0:0:0:
84,204,218091,1,0,0:0:0:0:
92,236,218186,1,8,0:0:0:0:
116,264,218282,1,0,0:0:0:0:
144,284,218378,1,2,0:0:0:0:
180,288,218473,1,0,0:0:0:0:
212,272,218569,6,0,L|236:256,16,25,8|0|0|0|2|0|0|0|8|0|0|0|2|0|0|0|8,0:0|0:0|0:0|0:0|0:0|0:0|0:0|0:0|0:0|0:0|0:0|0:0|0:0|0:0|0:0|0:0|0:0,0:0:0:0:
428,64,219715,1,8,0:0:0:0:
132,100,220097,5,4,0:0:0:0:
132,284,220288,1,2,0:0:0:0:
12,192,220479,1,8,0:0:0:0:
46,183,220575,1,0,0:0:0:0:
80,179,220671,1,2,0:0:0:0:
114,183,220766,1,0,0:0:0:0:
147,192,220862,1,8,0:0:0:0:
179,204,220957,1,0,0:0:0:0:
213,209,221053,1,2,0:0:0:0:
247,203,221148,1,0,0:0:0:0:
279,188,221244,1,8,0:0:0:0:
448,192,221435,1,2,0:0:0:0:
444,44,221626,5,8,0:0:0:0:
410,35,221721,1,0,0:0:0:0:
374,34,221817,1,2,0:0:0:0:
339,40,221913,1,0,0:0:0:0:
306,52,222008,1,8,0:0:0:0:
270,52,222104,1,0,0:0:0:0:
235,45,222199,1,2,0:0:0:0:
200,38,222295,1,0,0:0:0:0:
165,43,222390,1,8,0:0:0:0:
80,172,222581,1,2,0:0:0:0:
228,172,222772,1,8,0:0:0:0:
156,44,222964,1,2,0:0:0:0:
154,192,223155,5,0,0:0:0:0:
16,132,223346,2,0,P|8:192|36:232,1,100,2|8,0:0|0:0,0:0:0:0:
124,336,223728,1,2,0:0:0:0:
268,292,223919,1,0,0:0:0:0:
156,192,224110,1,2,0:0:0:0:
268,292,224301,1,8,0:0:0:0:
120,260,224492,2,0,P|84:220|88:156,1,100,2|0,0:0|0:0,0:0:0:0:
220,232,224874,5,2,0:0:0:0:
80,176,225065,1,8,0:0:0:0:
200,88,225256,1,2,0:0:0:0:
220,232,225448,1,0,0:0:0:0:
200,88,225639,1,2,0:0:0:0:
80,176,225830,1,8,0:0:0:0:
476,192,226212,5,8,0:0:0:0:
464,160,226307,1,0,0:0:0:0:
444,132,226403,1,2,0:0:0:0:
416,112,226499,1,8,0:0:0:0:
384,260,226690,1,0,0:0:0:0:
363,235,226785,1,2,0:0:0:0:
340,208,226881,1,0,0:0:0:0:
296,352,227072,1,0,0:0:0:0:
268,332,227168,1,2,0:0:0:0:
248,304,227264,1,0,0:0:0:0:
236,272,227359,1,8,0:0:0:0:
256,124,227549,1,0,0:0:0:0:
120,188,227741,5,8,0:0:0:0:
112,156,227836,1,0,0:0:0:0:
92,124,227932,1,2,0:0:0:0:
64,104,228027,1,8,0:0:0:0:
200,136,228218,1,0,0:0:0:0:
188,104,228314,1,2,0:0:0:0:
168,76,228409,1,0,0:0:0:0:
296,132,228600,1,0,0:0:0:0:
288,100,228695,1,2,0:0:0:0:
276,68,228791,1,0,0:0:0:0:
256,40,228887,1,8,0:0:0:0:
252,192,229078,1,0,0:0:0:0:
376,88,229269,5,0,0:0:0:0:
316,232,229460,2,0,P|264:268|220:260,1,100,2|8,0:0|0:0,0:0:0:0:
356,160,229842,2,0,P|416:152|444:120,2,100,2|0|2,0:0|0:0|0:0,0:0:0:0:
396,16,230416,1,8,0:0:0:0:
256,68,230607,2,0,P|204:40|156:56,2,100,2|0|2,0:0|0:0|0:0,0:0:0:0:
324,200,231180,1,8,0:0:0:0:
200,116,231371,1,2,0:0:0:0:
324,200,231944,1,8,0:0:0:0:
40,192,232327,5,4,0:0:0:0:
180,248,232518,1,2,0:0:0:0:
184,250,232613,1,8,0:0:0:0:
108,328,232804,1,2,0:0:0:0:
111,333,232900,1,8,0:0:0:0:
40,192,233091,1,0,0:0:0:0:
256,132,233378,1,8,0:0:0:0:
388,56,233569,1,0,0:0:0:0:
408,84,233664,1,2,0:0:0:0:
424,116,233760,1,0,0:0:0:0:
432,148,233855,5,8,0:0:0:0:
436,184,233951,1,0,0:0:0:0:
432,220,234046,1,2,0:0:0:0:
424,252,234142,1,0,0:0:0:0:
408,284,234237,1,8,0:0:0:0:
388,316,234333,1,0,0:0:0:0:
364,340,234428,1,2,0:0:0:0:
332,356,234524,1,0,0:0:0:0:
296,364,234620,1,8,0:0:0:0:
256,192,234906,1,8,0:0:0:0:
172,68,235097,1,0,0:0:0:0:
148,92,235193,1,2,0:0:0:0:
128,120,235288,1,0,0:0:0:0:
116,152,235384,6,0,P|104:220|108:260,1,100,0|2,0:0|0:0,0:0:0:0:
112,284,235671,1,8,0:0:0:0:
256,224,235862,1,2,0:0:0:0:
288,212,235957,1,8,0:0:0:0:
428,156,236148,1,0,0:0:0:0:
220,240,236435,1,8,0:0:0:0:
256,96,236626,1,0,0:0:0:0:
288,84,236721,1,2,0:0:0:0:
324,84,236817,1,0,0:0:0:0:
356,100,236913,5,8,0:0:0:0:
380,128,237008,1,0,0:0:0:0:
396,160,237104,1,2,0:0:0:0:
400,196,237199,1,0,0:0:0:0:
396,232,237295,1,8,0:0:0:0:
380,264,237390,1,0,0:0:0:0:
352,288,237486,1,2,0:0:0:0:
320,300,237581,1,0,0:0:0:0:
284,296,237677,1,8,0:0:0:0:
300,192,237964,1,8,0:0:0:0:
220,64,238155,1,0,0:0:0:0:
188,52,238250,1,0,0:0:0:0:
152,48,238346,1,0,0:0:0:0:
116,56,238441,5,0,0:0:0:0:
80,116,238632,1,2,0:0:0:0:
64,148,238728,1,8,0:0:0:0:
148,118,238919,1,2,0:0:0:0:
164,150,239014,1,8,0:0:0:0:
114,200,239206,1,0,0:0:0:0:
256,24,239492,1,8,0:0:0:0:
400,64,239683,1,0,0:0:0:0:
412,96,239779,1,2,0:0:0:0:
416,132,239874,1,0,0:0:0:0:
412,168,239970,5,8,0:0:0:0:
400,200,240065,1,0,0:0:0:0:
380,228,240161,1,2,0:0:0:0:
352,248,240256,1,0,0:0:0:0:
320,260,240352,1,8,0:0:0:0:
284,264,240448,1,0,0:0:0:0:
248,260,240543,1,2,0:0:0:0:
216,244,240639,1,0,0:0:0:0:
192,220,240734,1,8,0:0:0:0:
296,144,241021,1,8,0:0:0:0:
160,204,241212,1,0,0:0:0:0:
124,200,241307,1,2,0:0:0:0:
92,212,241403,1,0,0:0:0:0:
68,236,241499,5,0,0:0:0:0:
72,304,241690,1,2,0:0:0:0:
100,328,241785,1,8,0:0:0:0:
168,328,241976,1,2,0:0:0:0:
204,324,242072,1,8,0:0:0:0:
272,344,242263,1,0,0:0:0:0:
372,316,242549,1,8,0:0:0:0:
428,272,242741,1,0,0:0:0:0:
444,240,242836,1,2,0:0:0:0:
448,204,242932,1,0,0:0:0:0:
448,168,243027,5,8,0:0:0:0:
436,136,243123,1,0,0:0:0:0:
416,108,243218,1,2,0:0:0:0:
392,84,243314,1,0,0:0:0:0:
364,64,243409,1,8,0:0:0:0:
332,52,243505,1,0,0:0:0:0:
296,52,243600,1,2,0:0:0:0:
260,60,243696,1,0,0:0:0:0:
228,76,243792,1,8,0:0:0:0:
204,100,243887,1,0,0:0:0:0:
188,132,243983,1,2,0:0:0:0:
184,168,244078,1,0,0:0:0:0:
188,204,244174,2,0,B|220:248|268:256|268:256|320:264|348:312,1,200,8|4,0:0|0:0,0:0:0:0:
416,180,244747,5,2,0:0:0:0:
416,176,244842,1,8,0:0:0:0:
200,336,245034,1,2,0:0:0:0:
196,336,245129,1,8,0:0:0:0:
272,204,245320,1,0,0:0:0:0:
60,280,245607,1,8,0:0:0:0:
128,148,245798,1,0,0:0:0:0:
148,120,245893,1,2,0:0:0:0:
176,100,245989,1,0,0:0:0:0:
208,88,246085,5,8,0:0:0:0:
244,84,246180,1,0,0:0:0:0:
280,88,246276,1,2,0:0:0:0:
312,100,246371,1,0,0:0:0:0:
340,120,246467,1,8,0:0:0:0:
360,148,246562,1,0,0:0:0:0:
372,180,246658,1,2,0:0:0:0:
376,216,246753,1,0,0:0:0:0:
372,252,246849,1,8,0:0:0:0:
340,28,247135,1,8,0:0:0:0:
440,140,247327,1,0,0:0:0:0:
448,176,247422,1,2,0:0:0:0:
452,212,247518,1,0,0:0:0:0:
448,248,247613,5,0,0:0:0:0:
308,192,247804,1,2,0:0:0:0:
304,188,247900,1,8,0:0:0:0:
308,304,248091,1,2,0:0:0:0:
304,308,248186,1,8,0:0:0:0:
164,252,248378,1,0,0:0:0:0:
388,248,248664,1,8,0:0:0:0:
240,252,248855,1,0,0:0:0:0:
228,220,248951,1,2,0:0:0:0:
208,192,249046,1,0,0:0:0:0:
176,176,249142,5,8,0:0:0:0:
140,180,249237,1,0,0:0:0:0:
120,208,249333,1,2,0:0:0:0:
132,240,249428,1,0,0:0:0:0:
160,260,249524,1,8,0:0:0:0:
192,248,249620,1,0,0:0:0:0:
212,220,249715,1,2,0:0:0:0:
220,184,249811,1,0,0:0:0:0:
216,148,249906,1,8,0:0:0:0:
432,44,250193,1,8,0:0:0:0:
468,192,250384,1,0,0:0:0:0:
436,208,250479,1,2,0:0:0:0:
400,212,250575,1,0,0:0:0:0:
368,204,250671,6,0,P|328:184|264:192,1,100,0|2,0:0|0:0,0:0:0:0:
240,200,250957,2,0,P|184:220|128:216,1,100,8|2,0:0|0:0,0:0:0:0:
112,208,251244,2,0,P|56:180|28:132,1,100,8|0,0:0|0:0,0:0:0:0:
336,104,251721,1,8,0:0:0:0:
192,60,251913,1,0,0:0:0:0:
180,92,252008,1,2,0:0:0:0:
172,128,252104,1,0,0:0:0:0:
168,164,252199,5,8,0:0:0:0:
168,200,252295,1,0,0:0:0:0:
176,236,252390,1,2,0:0:0:0:
192,268,252486,1,0,0:0:0:0:
220,292,252581,1,8,0:0:0:0:
252,308,252677,1,0,0:0:0:0:
288,312,252772,1,2,0:0:0:0:
324,304,252868,1,0,0:0:0:0:
352,284,252964,1,8,0:0:0:0:
276,212,253250,1,8,0:0:0:0:
388,112,253441,2,0,P|424:132|440:148,2,50,0|2|0,0:0|0:0|0:0,0:0:0:0:
356,100,253728,6,0,P|296:88|248:104,1,100,0|2,0:0|0:0,0:0:0:0:
256,100,254014,1,8,0:0:0:0:
256,304,254206,1,2,0:0:0:0:
252,308,254301,2,0,P|176:316|140:300,1,100,8|0,0:0|0:0,0:0:0:0:
256,204,254779,1,8,0:0:0:0:
404,192,254970,1,0,0:0:0:0:
408,156,255065,1,2,0:0:0:0:
408,120,255161,1,0,0:0:0:0:
396,88,255256,5,8,0:0:0:0:
372,64,255352,1,0,0:0:0:0:
340,48,255448,1,2,0:0:0:0:
304,44,255543,1,0,0:0:0:0:
268,48,255639,1,8,0:0:0:0:
236,60,255734,1,0,0:0:0:0:
212,84,255830,1,2,0:0:0:0:
196,116,255925,1,0,0:0:0:0:
180,148,256021,1,8,0:0:0:0:
156,172,256116,1,0,0:0:0:0:
124,188,256212,1,2,0:0:0:0:
92,200,256307,1,0,0:0:0:0:
64,224,256403,1,8,0:0:0:0:
40,252,256499,1,0,0:0:0:0:
32,288,256594,1,2,0:0:0:0:
40,320,256690,1,0,0:0:0:0:
64,348,256785,5,8,0:0:0:0:
96,364,256881,1,0,0:0:0:0:
132,360,256976,1,2,0:0:0:0:
160,340,257072,1,0,0:0:0:0:
184,316,257167,1,8,0:0:0:0:
211,293,257263,1,0,0:0:0:0:
243,281,257358,1,2,0:0:0:0:
278,283,257454,1,0,0:0:0:0:
309,296,257549,1,0,0:0:0:0:
344,296,257645,1,0,0:0:0:0:
377,284,257741,1,0,0:0:0:0:
401,259,257836,1,0,0:0:0:0:
419,229,257932,2,0,P|434:137|352:60,1,200,8|4,0:0|0:0,0:0:0:0:
216,81,258505,5,0,0:0:0:0:
216,81,258696,1,0,0:0:0:0:
296,303,258887,1,0,0:0:0:0:
296,303,259078,1,0,0:0:0:0:
304,201,259269,2,0,P|240:213|196:185,3,100,0|0|0|0,0:0|0:0|0:0|0:0,0:0:0:0:
348,260,260034,1,0,0:0:0:0:
257,140,260225,1,0,0:0:0:0:
164,260,260416,1,0,0:0:0:0:
464,40,260989,1,4,0:0:0:0:
