osu file format v14

[General]
AudioFilename: audio.mp3
AudioLeadIn: 0
PreviewTime: 66264
Countdown: 0
SampleSet: Soft
StackLeniency: 0.3
Mode: 0
LetterboxInBreaks: 0
WidescreenStoryboard: 1

[Editor]
DistanceSpacing: 1
BeatDivisor: 4
GridSize: 16
TimelineZoom: 1.2

[Metadata]
Title:Yumemiru Yakusoku (Cut Ver.)
TitleUnicode:夢見る約束 (Cut Ver.)
Artist:Euchaeta
ArtistUnicode:Euchaeta
Creator:P_O
Version:Hard
Source:
Tags:Chriz 細野晴臣 Hosono Haruomi Pop Japanese
BeatmapID:2685026
BeatmapSetID:1288446

[Difficulty]
HPDrainRate:5
CircleSize:4
OverallDifficulty:6
ApproachRate:7
SliderMultiplier:1.8
SliderTickRate:2

[Events]
//Background and Video events
0,0,"84092961_p0.jpg",0,0
//Break Periods
//Storyboard Layer 0 (Background)
//Storyboard Layer 1 (Fail)
//Storyboard Layer 2 (Pass)
//Storyboard Layer 3 (Foreground)
//Storyboard Layer 4 (Overlay)
//Storyboard Sound Samples

[TimingPoints]
308,441.176470588235,4,2,1,80,1,0
528,-100,4,2,3,80,0,0
749,-100,4,2,1,80,0,0
970,441.176470588235,4,2,1,80,1,0
1411,-100,4,2,3,80,0,0
1631,-100,4,2,1,80,0,0
2293,-100,4,2,3,80,0,0
2513,-100,4,2,1,80,0,0
2734,-100,4,2,5,80,0,0
2955,-100,4,2,1,80,0,0
3175,-100,4,2,3,80,0,0
3395,-100,4,2,1,80,0,0
4058,-100,4,2,3,80,0,0
4278,-100,4,2,1,80,0,0
4499,-100,4,2,5,80,0,0
4720,-100,4,2,1,80,0,0
4940,-100,4,2,3,80,0,0
5160,-100,4,2,1,80,0,0
5822,-100,4,2,3,80,0,0
6042,-100,4,2,1,80,0,0
6264,-100,4,2,5,80,0,0
6485,-100,4,2,1,80,0,0
6705,-100,4,2,3,80,0,0
6925,-100,4,2,1,80,0,0
7587,-100,4,2,3,80,0,0
7807,-100,4,2,1,80,0,0
8028,-100,4,2,5,80,0,0
8249,-100,4,2,1,80,0,0
8469,-100,4,2,3,80,0,0
8689,-100,4,2,1,80,0,0
9352,-100,4,2,3,80,0,0
9572,-100,4,2,1,80,0,0
9793,-100,4,2,5,80,0,0
10014,-100,4,2,1,80,0,0
10234,-100,4,2,3,80,0,0
10454,-100,4,2,1,80,0,0
10675,-100,4,2,3,80,0,0
11337,-100,4,2,1,80,0,0
11558,-100,4,2,3,80,0,0
11779,-100,4,2,1,80,0,0
11999,-100,4,2,3,80,0,0
12219,-100,4,2,1,80,0,0
12440,-100,4,2,3,80,0,0
13101,-100,4,2,1,80,0,0
13322,-100,4,2,5,80,0,0
13543,-100,4,2,1,80,0,0
13764,-100,4,2,3,80,0,0
13984,-100,4,2,1,80,0,0
14205,-100,4,2,3,80,0,0
14426,-100,4,2,1,80,0,0
14646,-100,4,2,3,80,0,0
14867,-100,4,2,1,80,0,0
15087,-100,4,2,5,80,0,0
15307,-100,4,2,1,70,0,0
16411,-100,4,2,3,70,0,0
16631,-100,4,2,1,70,0,0
16852,-100,4,2,5,70,0,0
17072,-100,4,2,1,70,0,0
17293,-100,4,2,3,70,0,0
17514,-100,4,2,1,70,0,0
18175,-100,4,2,3,70,0,0
18396,-100,4,2,1,70,0,0
18617,-100,4,2,5,70,0,0
18837,-100,4,2,1,70,0,0
19940,-100,4,2,3,70,0,0
20161,-100,4,2,1,70,0,0
20381,-100,4,2,5,70,0,0
20601,-100,4,2,1,70,0,0
21705,-100,4,2,3,70,0,0
21925,-100,4,2,1,70,0,0
22146,-100,4,2,5,70,0,0
22366,-100,4,2,1,70,0,0
23469,-100,4,2,3,70,0,0
23689,-100,4,2,1,70,0,0
23911,-100,4,2,5,70,0,0
24131,-100,4,2,1,70,0,0
24352,-100,4,2,3,70,0,0
24572,-100,4,2,1,70,0,0
25234,-100,4,2,3,70,0,0
25454,-100,4,2,1,70,0,0
25675,-100,4,2,5,70,0,0
25895,-100,4,2,1,70,0,0
27440,-100,4,2,5,70,0,0
27660,-100,4,2,1,70,0,0
28322,-100,4,2,3,70,0,0
28542,-100,4,2,1,70,0,0
29205,-100,4,2,5,70,0,0
29425,-100,4,2,1,70,0,0
30528,-100,4,2,3,70,0,0
30748,-100,4,2,1,70,0,0
30969,-100,4,2,5,70,0,0
31189,-100,4,2,1,70,0,0
32293,-100,4,2,3,70,0,0
32513,-100,4,2,1,70,0,0
32734,-100,4,2,5,70,0,0
32954,-100,4,2,1,70,0,0
34499,-100,4,2,5,70,0,0
34719,-100,4,2,1,70,0,0
34940,-100,4,2,3,70,0,0
35160,-100,4,2,1,70,0,0
36264,-100,4,2,5,70,0,0
36484,-100,4,2,1,70,0,0
36705,-100,4,2,3,70,0,0
36925,-100,4,2,1,70,0,0
38028,-100,4,2,5,70,0,0
38248,-100,4,2,1,70,0,0
39352,-100,4,2,3,70,0,0
39572,-100,4,2,1,70,0,0
39793,-100,4,2,5,70,0,0
40013,-100,4,2,1,70,0,0
41558,-100,4,2,3,70,0,0
41778,-100,4,2,1,70,0,0
43102,-100,4,2,3,70,0,0
43322,-100,4,2,5,70,0,0
43984,-100,4,2,3,70,0,0
44204,-100,4,2,1,70,0,0
44646,-100,4,2,3,70,0,0
44866,-100,4,2,1,70,0,0
45087,-100,4,2,5,70,0,0
45307,-100,4,2,1,70,0,0
46852,-100,4,2,5,70,0,0
47072,-100,4,2,1,70,0,0
47293,-100,4,2,3,70,0,0
47513,-100,4,2,1,70,0,0
48175,-100,4,2,3,70,0,0
48395,-100,4,2,1,70,0,0
48617,-100,4,2,5,70,0,0
48837,-100,4,2,1,70,0,0
49940,-100,4,2,3,70,0,0
50160,-100,4,2,1,70,0,0
50381,-100,4,2,5,70,0,0
50601,-100,4,2,1,70,0,0
50822,-100,4,2,3,70,0,0
51042,-100,4,2,1,70,0,0
51705,-100,4,2,3,70,0,0
51925,-100,4,2,1,70,0,0
52146,-100,4,2,5,70,0,0
52366,-100,4,2,1,70,0,0
53469,-100,4,2,3,70,0,0
53689,-100,4,2,1,70,0,0
53911,-100,4,2,5,70,0,0
54131,-100,4,2,1,70,0,0
55675,-100,4,2,5,70,0,0
55895,-100,4,2,1,70,0,0
57440,-100,4,2,5,70,0,0
57660,-100,4,2,1,70,0,0
58764,-100,4,2,3,70,0,0
58984,-100,4,2,1,70,0,0
59205,-100,4,2,5,70,0,0
59425,-100,4,2,1,70,0,0
60528,-100,4,2,3,70,0,0
60748,-100,4,2,1,70,0,0
60969,-100,4,2,5,70,0,0
61189,-100,4,2,1,70,0,0
61411,-100,4,2,3,70,0,0
61631,-100,4,2,1,70,0,0
62293,-100,4,2,3,70,0,0
62513,-100,4,2,1,70,0,0
62734,-100,4,2,5,70,0,0
62954,-100,4,2,1,70,0,0
63175,-100,4,2,3,70,0,0
63395,-100,4,2,1,70,0,0
64058,-100,4,2,3,70,0,0
64278,-100,4,2,1,70,0,0
64499,-100,4,2,5,70,0,0
64719,-100,4,2,1,70,0,0
65822,-100,4,2,3,70,0,0
66042,-100,4,2,1,70,0,0
66264,-100,4,2,5,70,0,0
66484,-100,4,2,1,70,0,0
68028,-100,4,2,5,80,0,1
68469,-100,4,2,3,80,0,1
69793,-100,4,2,5,80,0,1
70675,-100,4,2,1,80,0,1
71558,-100,4,2,5,80,0,1
72440,-100,4,2,1,80,0,1
73322,-100,4,2,5,80,0,1
74205,-100,4,2,1,80,0,1
74646,-100,4,2,3,80,0,1
74867,-100,4,2,1,80,0,1
75087,-100,4,2,5,80,0,1
75308,-100,4,2,1,80,0,1
75529,-100,4,2,3,80,0,1
75750,-100,4,2,1,80,0,1
75969,-100,4,2,5,80,0,1
76190,-100,4,2,1,80,0,1
76411,-100,4,2,3,65,0,1
76632,-100,4,2,1,80,0,1
76852,-100,4,2,5,80,0,1
77073,-100,4,2,1,80,0,1
77294,-100,4,2,3,80,0,1
77515,-100,4,2,1,80,0,1
77734,-100,4,2,5,80,0,1
77955,-100,4,2,1,80,0,1
78176,-100,4,2,3,65,0,1
78397,-100,4,2,1,80,0,1
78617,-100,4,2,5,80,0,1
79499,-100,4,2,3,80,0,1
80161,-100,4,2,5,80,0,1
81264,-100,4,2,3,80,0,1
81484,-100,4,2,1,80,0,1
82146,-100,4,2,3,80,0,1
82367,-100,4,2,1,80,0,1
83028,-100,4,2,3,80,0,1
83249,-100,4,2,1,80,0,1
83911,-100,4,2,5,80,0,1
84352,-100,4,2,1,80,0,1
85455,-100,4,2,3,80,0,1
85675,-100,4,2,1,70,0,0
86999,-100,4,2,3,70,0,0
87219,-100,4,2,1,70,0,0
87440,-100,4,2,5,70,0,0
87661,-100,4,2,1,70,0,0
88764,-100,4,2,3,70,0,0
88984,-100,4,2,1,70,0,0
89205,-100,4,2,5,70,0,0
89426,-100,4,2,1,70,0,0
90528,-100,4,2,3,70,0,0
90748,-100,4,2,1,70,0,0
90969,-100,4,2,5,70,0,0
91190,-100,4,2,1,70,0,0
91411,-100,4,2,3,70,0,0
91631,-100,4,2,1,70,0,0
92293,-100,4,2,3,70,0,0
92513,-100,4,2,1,70,0,0
92734,-100,4,2,5,70,0,0
92955,-100,4,2,1,70,0,0
94499,-100,4,2,5,70,0,0
94720,-100,4,2,1,70,0,0
94940,-100,4,2,3,70,0,0
95160,-100,4,2,1,70,0,0
95822,-100,4,2,3,70,0,0
96042,-100,4,2,1,70,0,0
96264,-100,4,2,5,70,0,0
96485,-100,4,2,1,70,0,0
97587,-100,4,2,3,70,0,0
97807,-100,4,2,1,70,0,0
98028,-100,4,2,5,70,0,0
98249,-100,4,2,1,70,0,0
99352,-100,4,2,3,70,0,0
99572,-100,4,2,1,70,0,0
99793,-100,4,2,5,70,0,0
100014,-100,4,2,1,70,0,0
101558,-100,4,2,5,70,0,0
101779,-100,4,2,1,70,0,0
102881,-100,4,2,3,70,0,0
103101,-100,4,2,1,70,0,0
103322,-100,4,2,5,70,0,0
103543,-100,4,2,1,70,0,0
105087,-100,4,2,5,70,0,0
105308,-100,4,2,1,70,0,0
106411,-100,4,2,3,70,0,0
106631,-100,4,2,1,70,0,0
106852,-100,4,2,5,70,0,0
107073,-100,4,2,1,70,0,0
108617,-100,4,2,5,70,0,0
108838,-100,4,2,1,70,0,0
109940,-100,4,2,3,70,0,0
110160,-100,4,2,1,70,0,0
110381,-100,4,2,5,70,0,0
110602,-100,4,2,1,70,0,0
111705,-100,4,2,3,80,0,0
111925,-100,4,2,1,80,0,0
112587,-100,4,2,3,80,0,0
112807,-100,4,2,1,80,0,0
113469,-100,4,2,3,80,0,0
113689,-100,4,2,1,80,0,0
113911,-100,4,2,5,80,0,0
114132,-100,4,2,1,80,0,0
114352,-100,4,2,3,80,0,0
114572,-100,4,2,1,80,0,0
115234,-100,4,2,3,80,0,0
115454,-100,4,2,1,80,0,0
115675,-100,4,2,5,80,0,0
115896,-100,4,2,1,80,0,0
116117,-100,4,2,3,80,0,0
116337,-100,4,2,1,80,0,0
116999,-100,4,2,3,80,0,0
117219,-100,4,2,1,80,0,0
117440,-100,4,2,5,80,0,0
117661,-100,4,2,1,80,0,0
117881,-100,4,2,3,80,0,0
118101,-100,4,2,1,80,0,0
118764,-100,4,2,3,80,0,0
118984,-100,4,2,1,80,0,0
119205,-100,4,2,5,80,0,0
119426,-100,4,2,1,80,0,0
119646,-100,4,2,3,80,0,0
119866,-100,4,2,1,80,0,0
120528,-100,4,2,3,80,0,0
120748,-100,4,2,1,80,0,0
120969,-100,4,2,5,80,0,0
121190,-100,4,2,1,80,0,0
121411,-100,4,2,3,80,0,0
121631,-100,4,2,1,80,0,0
121852,-100,4,2,3,80,0,0
122513,-100,4,2,1,80,0,0
122734,-100,4,2,3,65,0,0
122955,-100,4,2,1,65,0,0
123175,-100,4,2,3,65,0,0
123395,-100,4,2,1,65,0,0
123617,-100,4,2,3,40,0,0
124278,-100,4,2,1,40,0,0
124499,-100,4,2,5,25,0,0
124720,-100,4,2,1,25,0,0
124940,-100,4,2,3,25,0,0
125160,-100,4,2,1,25,0,0
125381,-100,4,2,1,25,0,0
125602,-100,4,2,1,10,0,0
125822,-100,4,2,3,10,0,0
126043,-100,4,2,1,10,0,0
126263,-100,4,2,5,5,0,0

[Colours]
Combo1 : 129,84,129
Combo2 : 129,84,84
Combo3 : 118,129,84
Combo4 : 84,129,106
Combo5 : 84,96,129

[HitObjects]
213,182,308,6,0,L|208:219,3,30,0|0|2|2,0:0|0:0|0:0|0:0,0:0:0:0:
299,182,749,2,0,L|304:219,3,30,0|0|2|4,0:0|0:0|0:0|0:0,0:0:0:0:
303,31,1411,1,2,0:0:0:0:
119,31,1852,2,0,B|65:31|17:76|17:158,1,180,8|2,0:0|0:0,0:0:0:0:
17,246,2514,5,0,0:0:0:0:
17,335,2734,1,8,0:0:0:0:
107,335,2955,1,2,0:0:0:0:
120,335,3065,1,0,0:0:0:0:
133,335,3175,1,2,0:0:0:0:
191,266,3396,1,0,0:0:0:0:
249,335,3617,2,0,B|328:335|373:287|373:233,1,180,8|2,0:0|0:0,0:0:0:0:
372,53,4499,5,8,0:0:0:0:
192,53,4940,1,2,0:0:0:0:
372,53,5381,2,0,B|426:53|474:98|473:177,1,180,8|2,0:0|0:0,0:0:0:0:
473,267,6043,5,0,0:0:0:0:
473,357,6264,2,0,L|415:357,1,45,10|0,0:0|0:0,0:0:0:0:
383,357,6484,2,0,L|325:357,1,45,2|0,0:0|0:0,0:0:0:0:
292,357,6705,1,2,0:0:0:0:
234,288,6925,1,0,0:0:0:0:
176,357,7146,2,0,B|97:357|51:310|52:254,1,180,12|2,0:0|0:0,0:0:0:0:
52,74,8028,5,8,0:0:0:0:
231,74,8469,1,2,0:0:0:0:
231,209,8800,1,0,0:0:0:0:
244,209,8911,2,0,L|352:209,1,90,8|0,0:0|0:0,0:0:0:0:
424,209,9352,2,0,L|424:101,1,90,2|0,0:0|0:0,0:0:0:0:
424,28,9793,5,10,0:0:0:0:
333,28,10014,1,2,0:0:0:0:
319,28,10124,1,0,0:0:0:0:
305,28,10234,1,2,0:0:0:0:
231,74,10455,1,2,0:0:0:0:
217,74,10565,1,0,0:0:0:0:
203,74,10675,2,0,L|95:74,2,90,10|2|2,0:0|0:0|0:0,0:0:0:0:
201,164,11337,5,2,0:0:0:0:
201,178,11447,1,0,0:0:0:0:
201,192,11557,1,10,0:0:0:0:
255,263,11778,1,2,0:0:0:0:
255,277,11888,1,0,0:0:0:0:
255,291,11998,1,2,0:0:0:0:
309,362,12219,2,0,L|361:362,2,45,2|0|10,0:0|0:0|0:0,0:0:0:0:
218,362,12661,5,2,0:0:0:0:
128,362,12881,1,2,0:0:0:0:
37,362,13102,1,2,0:0:0:0:
37,272,13322,6,0,L|37:167,1,90,8|0,0:0|0:0,0:0:0:0:
37,91,13764,1,2,0:0:0:0:
37,1,13984,1,2,0:0:0:0:
127,91,14205,5,10,0:0:0:0:
217,1,14425,1,10,0:0:0:0:
217,127,14646,1,10,0:0:0:0:
217,253,14867,1,10,0:0:0:0:
217,127,15087,1,12,0:0:0:0:
307,127,15308,5,0,0:0:0:0:
396,127,15528,2,0,L|507:127,1,90
487,243,15969,1,8,0:0:0:0:
383,243,16190,1,2,0:0:0:0:
369,243,16300,1,0,0:0:0:0:
355,243,16411,1,2,0:0:0:0:
285,300,16631,5,2,0:0:0:0:
214,243,16852,2,0,L|110:243,1,90,8|2,0:0|0:0,0:0:0:0:
33,243,17293,1,2,0:0:0:0:
82,167,17514,6,0,L|131:167,1,45
141,167,17734,1,8,0:0:0:0:
190,91,17955,2,0,L|239:91,1,45,2|0,0:0|0:0,0:0:0:0:
249,91,18175,1,2,0:0:0:0:
298,15,18396,2,0,L|347:15,1,45
357,15,18616,1,8,0:0:0:0:
447,15,18837,5,0,0:0:0:0:
496,90,19058,1,0,0:0:0:0:
496,179,19278,1,0,0:0:0:0:
496,269,19499,2,0,B|496:358|432:358|347:358,1,180,8|2,0:0|0:0,0:0:0:0:
279,358,20161,5,2,0:0:0:0:
236,279,20381,1,8,0:0:0:0:
279,200,20602,1,0,0:0:0:0:
279,110,20822,2,0,B|279:21|215:21|215:21|130:21,1,180,0|8,0:0|0:0,0:0:0:0:
62,21,21484,6,0,L|62:65,1,45,2|0,0:0|0:0,0:0:0:0:
62,79,21705,1,2,0:0:0:0:
122,145,21925,2,0,L|122:189,1,45,2|0,0:0|0:0,0:0:0:0:
122,203,22146,1,8,0:0:0:0:
123,293,22367,5,0,0:0:0:0:
212,293,22587,2,0,B|267:293|267:293|301:330,1,90
379,319,23028,2,0,B|441:319|441:319|505:319|505:230,1,180,8|2,0:0|0:0,0:0:0:0:
505,140,23690,5,0,0:0:0:0:
505,49,23911,2,0,B|450:49|450:49|416:86,1,90,8|2,0:0|0:0,0:0:0:0:
336,74,24352,2,0,B|273:73|209:73|209:162,1,180,2|10,0:0|0:0,0:0:0:0:
209,252,25014,6,0,L|209:296,1,45,2|0,0:0|0:0,0:0:0:0:
209,310,25235,1,2,0:0:0:0:
119,310,25455,1,0,0:0:0:0:
29,310,25675,6,0,B|29:270|12:248|12:248|29:224|29:179,1,135,8|0,0:0|0:0,0:0:0:0:
29,167,26117,2,0,B|63:147|74:121|74:121|103:124|142:101,1,135,2|0,0:0|0:0,0:0:0:0:
153,102,26558,2,0,B|189:123|218:120|218:120|229:146|264:166,1,135,8|0,0:0|0:0,0:0:0:0:
275,174,26999,1,2,0:0:0:0:
371,125,27219,1,0,0:0:0:0:
430,36,27440,5,8,0:0:0:0:
430,251,27881,1,0,0:0:0:0:
430,36,28322,1,10,0:0:0:0:
371,126,28543,1,0,0:0:0:0:
312,36,28764,5,2,0:0:0:0:
291,46,28874,1,0,0:0:0:0:
270,56,28984,1,2,0:0:0:0:
249,46,29095,1,0,0:0:0:0:
228,36,29205,6,0,L|135:36,1,90,12|0,0:0|0:0,0:0:0:0:
94,112,29646,1,0,0:0:0:0:
184,111,29867,1,2,0:0:0:0:
228,187,30087,2,0,L|135:187,1,90,8|2,0:0|0:0,0:0:0:0:
94,263,30528,1,2,0:0:0:0:
184,262,30749,1,2,0:0:0:0:
273,262,30969,6,0,B|328:260|349:196|349:196|418:196,1,135,8|0,0:0|0:0,0:0:0:0:
389,196,31411,2,0,B|390:251|454:272|454:272|454:341,1,135,2|0,0:0|0:0,0:0:0:0:
454,312,31852,1,8,0:0:0:0:
385,370,32072,5,2,0:0:0:0:
371,370,32183,1,0,0:0:0:0:
357,370,32293,1,2,0:0:0:0:
266,370,32514,1,2,0:0:0:0:
252,370,32624,1,0,0:0:0:0:
238,370,32734,6,0,L|145:370,1,90,8|0,0:0|0:0,0:0:0:0:
104,294,33175,1,0,0:0:0:0:
194,295,33396,1,0,0:0:0:0:
238,219,33616,2,0,L|145:219,1,90,8|0,0:0|0:0,0:0:0:0:
104,143,34057,1,0,0:0:0:0:
194,144,34278,1,2,0:0:0:0:
284,144,34499,6,0,P|335:118|413:155,1,135,8|0,2:0|0:0,0:0:0:0:
413,153,34940,2,0,P|439:204|402:282,1,135,2|0,0:0|0:0,0:0:0:0:
402,281,35381,1,8,0:0:0:0:
311,281,35602,5,0,0:0:0:0:
297,281,35712,1,0,0:0:0:0:
283,281,35822,1,0,0:0:0:0:
192,281,36043,1,2,0:0:0:0:
182,271,36153,1,0,0:0:0:0:
172,262,36264,6,0,P|178:197|169:165,1,90,8|2,2:0|0:0,0:0:0:0:
260,194,36705,1,2,0:0:0:0:
260,105,36925,1,0,0:0:0:0:
348,85,37146,2,0,P|354:150|345:182,1,90,8|0,0:0|0:0,0:0:0:0:
436,153,37587,1,0,0:0:0:0:
436,242,37807,1,0,0:0:0:0:
436,332,38028,6,0,B|388:332|388:332|372:348|372:348|356:332|356:332|308:332,1,135,8|0,0:0|0:0,0:0:0:0:
300,332,38469,2,0,B|252:332|252:332|236:316|236:316|220:332|220:332|172:332,1,135,2|0,0:0|0:0,0:0:0:0:
164,332,38911,1,8,0:0:0:0:
74,332,39131,1,2,0:0:0:0:
74,318,39242,1,0,0:0:0:0:
74,304,39352,2,0,L|74:193,1,90,2|0,0:0|0:0,0:0:0:0:
74,87,39793,5,8,0:0:0:0:
184,147,40014,1,0,0:0:0:0:
184,21,40234,1,8,0:0:0:0:
294,81,40455,1,0,0:0:0:0:
384,261,41117,5,2,0:0:0:0:
384,283,41227,1,0,0:0:0:0:
384,305,41337,1,2,0:0:0:0:
400,320,41447,1,0,0:0:0:0:
416,336,41557,1,10,0:0:0:0:
506,336,41778,5,0,0:0:0:0:
506,245,41999,2,0,L|506:152,1,90
397,155,42440,1,8,0:0:0:0:
334,90,42661,1,0,0:0:0:0:
320,90,42771,1,0,0:0:0:0:
306,90,42881,1,0,0:0:0:0:
243,155,43102,5,2,0:0:0:0:
153,155,43322,2,0,L|56:155,1,90,10|2,0:0|0:0,0:0:0:0:
63,245,43764,1,0,0:0:0:0:
153,245,43985,6,0,L|202:245,1,45,2|0,0:0|0:0,0:0:0:0:
212,245,44205,1,8,0:0:0:0:
274,310,44426,2,0,L|323:310,1,45,2|0,0:0|0:0,0:0:0:0:
333,310,44646,1,2,0:0:0:0:
396,245,44867,2,0,L|445:245,1,45,2|0,0:0|0:0,0:0:0:0:
455,245,45087,1,8,0:0:0:0:
455,154,45308,5,0,0:0:0:0:
396,85,45528,1,0,0:0:0:0:
305,85,45749,1,0,0:0:0:0:
246,16,45969,2,0,L|150:16,1,90,8|0,0:0|0:0,0:0:0:0:
97,85,46411,5,0,0:0:0:0:
97,176,46632,1,2,0:0:0:0:
32,240,46852,1,8,0:0:0:0:
97,304,47072,1,2,0:0:0:0:
187,304,47293,2,0,L|277:304,1,90,2|0,0:0|0:0,0:0:0:0:
367,304,47734,1,8,0:0:0:0:
367,213,47955,6,0,L|367:164,1,45,2|0,0:0|0:0,0:0:0:0:
367,154,48175,1,2,0:0:0:0:
443,105,48396,2,0,L|443:56,1,45,2|0,0:0|0:0,0:0:0:0:
443,46,48616,1,8,0:0:0:0:
352,46,48837,5,0,0:0:0:0:
261,46,49058,2,0,L|161:46,1,90
171,136,49499,2,0,B|198:194|198:194|171:255|171:255|171:255|82:255,1,180,8|2,0:0|0:0,0:0:0:0:
32,255,50161,5,0,0:0:0:0:
32,344,50381,1,8,0:0:0:0:
122,344,50602,1,0,0:0:0:0:
211,344,50822,2,0,B|269:371|269:371|330:344|330:344|330:344|330:294,1,180,2|8,0:0|0:0,0:0:0:0:
330,204,51484,6,0,L|379:204,1,45,2|0,0:0|0:0,0:0:0:0:
389,204,51704,1,2,0:0:0:0:
479,204,51925,1,2,0:0:0:0:
479,113,52146,6,0,B|479:42|479:42|412:42,1,135,8|0,0:0|0:0,0:0:0:0:
401,42,52587,2,0,B|337:42|337:42|337:113,1,135,2|0,0:0|0:0,0:0:0:0:
323,113,53028,2,0,B|259:113|259:113|259:184,1,135,8|0,0:0|0:0,0:0:0:0:
259,197,53469,1,2,0:0:0:0:
226,300,53690,1,2,0:0:0:0:
130,350,53911,5,8,0:0:0:0:
130,134,54352,1,0,0:0:0:0:
130,350,54793,1,8,0:0:0:0:
33,300,55014,1,0,0:0:0:0:
33,192,55234,5,2,0:0:0:0:
43,171,55344,1,0,0:0:0:0:
33,150,55454,1,2,0:0:0:0:
43,129,55565,1,0,0:0:0:0:
33,108,55675,6,0,L|33:12,1,90,12|0,0:0|0:0,0:0:0:0:
123,18,56117,1,0,0:0:0:0:
202,58,56337,1,0,0:0:0:0:
283,18,56558,2,0,L|379:18,1,90,8|0,0:0|0:0,0:0:0:0:
463,18,56999,1,0,0:0:0:0:
503,97,57219,1,0,0:0:0:0:
463,178,57440,6,0,B|497:206|497:206|470:277|497:305,1,135,8|0,0:0|0:0,0:0:0:0:
494,307,57881,2,0,B|456:329|456:329|398:279|363:295,1,135,2|0,0:0|0:0,0:0:0:0:
362,292,58322,1,8,0:0:0:0:
258,292,58543,5,2,0:0:0:0:
244,292,58653,1,0,0:0:0:0:
230,292,58764,1,2,0:0:0:0:
163,352,58984,1,2,0:0:0:0:
149,352,59094,1,0,0:0:0:0:
135,352,59205,6,0,L|39:352,1,90,8|0,0:0|0:0,0:0:0:0:
89,273,59646,1,0,0:0:0:0:
45,194,59867,1,0,0:0:0:0:
89,116,60087,6,0,L|185:116,1,90,8|2,0:0|0:0,0:0:0:0:
135,195,60528,1,2,0:0:0:0:
179,274,60749,1,0,0:0:0:0:
223,195,60969,2,0,B|288:195|318:168|318:168|318:130,1,135,8|0,0:0|0:0,0:0:0:0:
318,120,61411,2,0,B|318:85|318:85|348:58|413:58,1,135,2|0,0:0|0:0,0:0:0:0:
425,58,61852,1,8,0:0:0:0:
485,125,62072,5,2,0:0:0:0:
485,139,62182,1,0,0:0:0:0:
485,153,62293,1,2,0:0:0:0:
425,220,62513,1,2,0:0:0:0:
425,234,62623,1,0,0:0:0:0:
425,248,62734,6,0,B|425:313|425:313|403:330,1,90,8|2,0:0|0:0,0:0:0:0:
315,328,63175,1,2,0:0:0:0:
224,328,63396,1,2,0:0:0:0:
224,237,63617,2,0,B|224:172|224:172|202:155,1,90,8|2,0:0|0:0,0:0:0:0:
114,157,64058,1,2,0:0:0:0:
23,157,64279,1,2,0:0:0:0:
23,67,64499,6,0,B|72:29|72:29|111:52|156:41,1,135,8|0,0:0|0:0,0:0:0:0:
156,43,64940,2,0,B|187:51|226:28|226:28|275:66,1,135,2|0,0:0|0:0,0:0:0:0:
283,77,65381,1,8,0:0:0:0:
373,77,65602,1,2,0:0:0:0:
387,77,65713,1,0,0:0:0:0:
401,77,65823,2,0,L|512:77,1,90,2|0,0:0|0:0,0:0:0:0:
491,203,66264,5,8,0:0:0:0:
373,159,66484,1,0,0:0:0:0:
373,285,66705,1,8,0:0:0:0:
256,329,66925,1,12,0:0:0:0:
256,27,68028,6,0,L|104:27,1,135,12|0,0:0|0:0,0:0:0:0:
98,27,68469,1,10,0:0:0:0:
46,101,68690,1,0,0:0:0:0:
46,191,68911,2,0,P|55:243|77:274,1,90,8|0,0:0|0:0,0:0:0:0:
146,328,69352,2,0,L|146:375,2,45,10|0|0,0:0|0:0|0:0,0:0:0:0:
190,229,69793,6,0,L|230:128,1,90,8|0,0:0|0:0,0:0:0:0:
332,145,70234,2,0,L|372:44,1,90,2|0,0:0|0:0,0:0:0:0:
473,61,70675,2,0,L|439:144,1,90,8|0,0:0|0:0,0:0:0:0:
439,253,71117,2,0,L|439:352,1,90,2|0,0:0|0:0,0:0:0:0:
330,343,71558,6,0,B|284:345|243:323|243:323|190:376,1,135,12|0,0:0|0:0,0:0:0:0:
137,355,71999,1,2,0:0:0:0:
4,184,72440,5,8,0:0:0:0:
4,75,72661,1,0,0:0:0:0:
17,57,72771,1,0,0:0:0:0:
37,49,72881,2,0,L|136:49,1,90,2|0,0:0|0:0,0:0:0:0:
235,49,73322,6,0,B|280:51|321:29|321:29|374:82,1,135,12|0,0:0|0:0,0:0:0:0:
428,61,73763,1,2,0:0:0:0:
428,277,74205,5,8,0:0:0:0:
320,277,74425,1,2,0:0:0:0:
302,264,74535,1,0,0:0:0:0:
294,244,74646,2,0,L|294:154,1,90,2|2,0:0|0:0,0:0:0:0:
185,154,75087,6,0,L|92:154,1,90,12|0,0:0|0:0,0:0:0:0:
72,154,75418,1,0,0:0:0:0:
49,154,75528,1,10,0:0:0:0:
49,263,75749,1,0,0:0:0:0:
156,263,75969,6,0,L|249:263,1,90,8|0,0:0|0:0,0:0:0:0:
269,263,76300,1,0,0:0:0:0:
292,263,76410,1,10,0:0:0:0:
292,372,76631,1,0,0:0:0:0:
400,372,76852,6,0,L|400:279,1,90,8|0,0:0|0:0,0:0:0:0:
400,259,77183,1,0,0:0:0:0:
400,236,77293,1,10,0:0:0:0:
509,236,77514,1,0,0:0:0:0:
509,128,77734,6,0,P|500:76|478:45,1,90,12|0,0:0|0:0,0:0:0:0:
370,46,78175,2,0,P|345:83|340:127,1,90,10|0,0:0|0:0,0:0:0:0:
267,46,78617,6,0,B|217:46|217:46|195:68|177:46|177:46|131:46,1,135,12|0,0:0|0:0,0:0:0:0:
65,46,79058,1,2,0:0:0:0:
65,261,79499,5,10,0:0:0:0:
65,368,79719,1,0,0:0:0:0:
81,352,79829,1,0,0:0:0:0:
96,368,79940,2,0,L|195:368,1,90,0|2,0:0|0:0,0:0:0:0:
294,368,80381,6,0,B|344:368|344:368|366:346|384:368|384:368|430:368,1,135,12|0,0:0|0:0,0:0:0:0:
496,368,80822,1,0,0:0:0:0:
496,152,81264,1,10,0:0:0:0:
470,126,81374,1,0,0:0:0:0:
444,100,81485,1,2,0:0:0:0:
318,100,81705,5,10,0:0:0:0:
292,126,81815,1,0,0:0:0:0:
266,152,81926,1,2,0:0:0:0:
240,126,82036,1,0,0:0:0:0:
214,100,82146,6,0,B|164:41|214:-20|266:107|266:107|318:-20|376:36|310:110,1,360,2|10,0:0|0:0,0:0:0:0:
318,315,83469,5,2,0:0:0:0:
100,315,83911,1,8,0:0:0:0:
318,208,84352,1,2,0:0:0:0:
100,100,84793,1,8,0:0:0:0:
100,208,85014,1,0,0:0:0:0:
100,315,85234,5,8,0:0:0:0:
75,288,85344,1,0,0:0:0:0:
51,262,85455,1,2,0:0:0:0:
75,235,85565,1,0,0:0:0:0:
100,208,85675,1,4,0:0:0:0:
209,208,85896,5,0,0:0:0:0:
318,208,86117,2,0,L|438:208,1,90
498,208,86558,2,0,B|497:130|472:74|472:74|412:74,1,180,8|2,0:0|0:0,0:0:0:0:
366,10,87219,5,2,0:0:0:0:
302,74,87440,1,8,0:0:0:0:
238,138,87661,1,0,0:0:0:0:
174,74,87881,2,0,L|77:74,1,90,0|2,0:0|0:0,0:0:0:0:
21,138,88322,1,8,0:0:0:0:
21,228,88543,6,0,L|55:262,1,45,2|0,0:0|0:0,0:0:0:0:
62,269,88763,1,2,0:0:0:0:
152,269,88984,2,0,L|201:268,1,45,2|0,0:0|0:0,0:0:0:0:
209,269,89204,1,8,0:0:0:0:
299,269,89425,5,0,0:0:0:0:
389,269,89646,1,0,0:0:0:0:
466,223,89867,1,0,0:0:0:0:
509,144,90087,2,0,B|508:66|483:10|483:10|423:10,1,180,8|2,0:0|0:0,0:0:0:0:
350,10,90749,5,0,0:0:0:0:
350,99,90969,1,8,0:0:0:0:
350,189,91190,1,0,0:0:0:0:
288,255,91411,2,0,B|181:255,1,90,2|2,0:0|0:0,0:0:0:0:
198,345,91852,1,8,0:0:0:0:
108,345,92072,6,0,L|59:345,1,45,2|0,0:0|0:0,0:0:0:0:
50,345,92292,1,2,0:0:0:0:
50,254,92514,2,0,L|50:205,1,45,2|0,0:0|0:0,0:0:0:0:
50,196,92734,1,8,0:0:0:0:
50,105,92955,5,0,0:0:0:0:
50,15,93175,2,0,B|157:15,1,90,0|2,0:0|0:0,0:0:0:0:
230,15,93617,2,0,B|297:36|271:112|373:130,1,180,8|0,0:0|0:0,0:0:0:0:
452,128,94278,5,0,0:0:0:0:
509,197,94499,1,8,0:0:0:0:
452,266,94719,1,2,0:0:0:0:
361,266,94940,2,0,B|293:287|319:363|217:381,1,180,2|8,0:0|0:0,0:0:0:0:
138,379,95602,6,0,L|89:379,1,45,2|0,0:0|0:0,0:0:0:0:
80,379,95822,1,2,0:0:0:0:
80,288,96043,1,2,0:0:0:0:
80,197,96264,6,0,B|80:143|80:143|100:115|100:115|100:62,1,135,8|0,0:0|0:0,0:0:0:0:
100,54,96705,2,0,B|154:54|154:54|182:74|182:74|235:74,1,135,2|0,0:0|0:0,0:0:0:0:
242,74,97146,2,0,B|288:74|288:74|316:54|316:54|370:54,1,135,8|0,0:0|0:0,0:0:0:0:
385,54,97587,5,2,0:0:0:0:
323,142,97808,1,0,0:0:0:0:
323,249,98028,1,8,0:0:0:0:
107,249,98469,1,0,0:0:0:0:
323,249,98911,1,8,0:0:0:0:
323,356,99131,1,0,0:0:0:0:
214,356,99352,5,2,0:0:0:0:
193,346,99462,1,0,0:0:0:0:
173,356,99572,1,2,0:0:0:0:
152,346,99683,1,0,0:0:0:0:
132,356,99793,6,0,L|34:356,1,90,4|0,0:0|0:0,0:0:0:0:
83,276,100234,1,0,0:0:0:0:
124,196,100455,1,0,0:0:0:0:
213,196,100675,2,0,L|311:196,1,90,8|0,0:0|0:0,0:0:0:0:
262,116,101116,1,0,0:0:0:0:
221,36,101337,1,2,0:0:0:0:
311,36,101558,6,0,B|357:36|357:36|402:36|402:70|402:70|402:102,1,135,8|0,0:0|0:0,0:0:0:0:
402,109,101999,2,0,B|448:109|448:109|493:109|493:143|493:143|493:175,1,135,2|0,0:0|0:0,0:0:0:0:
493,182,102440,1,8,0:0:0:0:
425,242,102661,5,2,0:0:0:0:
411,242,102771,1,0,0:0:0:0:
397,242,102882,1,2,0:0:0:0:
331,302,103102,1,2,0:0:0:0:
317,302,103212,1,0,0:0:0:0:
303,302,103322,6,0,L|205:302,1,90,8|0,0:0|0:0,0:0:0:0:
213,211,103764,1,0,0:0:0:0:
123,213,103984,1,0,0:0:0:0:
32,213,104205,2,0,L|32:115,1,90,8|0,0:0|0:0,0:0:0:0:
123,123,104647,1,0,0:0:0:0:
121,33,104867,1,0,0:0:0:0:
210,33,105087,6,0,L|342:109,1,135,8|0,0:0|0:0,0:0:0:0:
338,110,105528,2,0,L|338:262,1,135,2|0,0:0|0:0,0:0:0:0:
338,258,105969,1,8,0:0:0:0:
338,348,106190,5,2,0:0:0:0:
348,358,106301,1,0,0:0:0:0:
358,367,106411,1,2,0:0:0:0:
447,367,106631,1,2,0:0:0:0:
457,358,106741,1,0,0:0:0:0:
467,348,106852,6,0,L|467:234,1,90,8|0,0:0|0:0,0:0:0:0:
437,172,107293,1,0,0:0:0:0:
467,87,107514,1,0,0:0:0:0:
377,87,107734,2,0,L|263:87,1,90,8|0,0:0|0:0,0:0:0:0:
201,57,108175,1,0,0:0:0:0:
116,87,108396,1,2,0:0:0:0:
116,177,108617,6,0,P|123:233|199:276,1,135,8|0,0:0|0:0,0:0:0:0:
198,274,109058,2,0,P|255:271|310:338,1,135,2|0,0:0|0:0,0:0:0:0:
309,337,109499,1,8,0:0:0:0:
398,337,109719,5,2,0:0:0:0:
398,323,109830,1,0,0:0:0:0:
397,310,109940,2,0,L|397:196,1,90,2|0,0:0|0:0,0:0:0:0:
397,93,110381,5,8,0:0:0:0:
397,220,110602,1,0,0:0:0:0:
507,157,110822,1,8,0:0:0:0:
507,30,111043,1,12,0:0:0:0:
256,56,111484,6,0,L|251:93,3,30,0|0|2|2,0:0|0:0|0:0|0:0,0:0:0:0:
256,175,111925,2,0,L|261:212,3,30,0|0|2|4,0:0|0:0|0:0|0:0,0:0:0:0:
260,382,112587,1,2,0:0:0:0:
439,383,113028,2,0,B|478:373|488:355|488:355|452:289|481:215|481:215,1,180,8|2,0:0|0:0,0:0:0:0:
474,146,113690,5,0,0:0:0:0:
474,56,113910,1,8,0:0:0:0:
398,106,114131,1,2,0:0:0:0:
385,106,114241,1,0,0:0:0:0:
371,106,114351,1,2,0:0:0:0:
294,56,114572,1,0,0:0:0:0:
203,56,114793,2,0,B|129:85|63:49|63:49|45:59|35:98,1,180,8|2,0:0|0:0,0:0:0:0:
42,256,115675,5,8,0:0:0:0:
185,147,116117,1,2,0:0:0:0:
42,256,116558,2,0,B|114:287|136:359|136:359|164:360|197:360,1,180,8|2,0:0|0:0,0:0:0:0:
260,359,117219,5,0,0:0:0:0:
350,359,117440,2,0,L|350:301,1,45,8|0,0:0|0:0,0:0:0:0:
350,269,117660,2,0,L|350:211,1,45,2|0,0:0|0:0,0:0:0:0:
350,178,117881,1,2,0:0:0:0:
281,119,118101,1,0,0:0:0:0:
281,28,118322,2,0,B|355:-1|421:35|421:35|440:15|464:-8,1,180,0|2,0:0|0:0,0:0:0:0:
445,190,119205,5,8,0:0:0:0:
445,369,119646,1,2,0:0:0:0:
309,369,119977,1,0,0:0:0:0:
296,369,120088,2,0,L|188:369,1,90,8|0,0:0|0:0,0:0:0:0:
116,369,120529,2,0,L|116:261,1,90,2|0,0:0|0:0,0:0:0:0:
116,189,120969,5,8,0:0:0:0:
183,129,121190,1,2,0:0:0:0:
197,129,121300,1,0,0:0:0:0:
211,129,121411,1,2,0:0:0:0:
277,189,121631,1,2,0:0:0:0:
291,189,121741,1,0,0:0:0:0:
305,189,121852,2,0,L|413:189,2,90,10|2|2,0:0|0:0|0:0,0:0:0:0:
305,279,122514,5,2,0:0:0:0:
305,293,122624,1,0,0:0:0:0:
305,307,122734,1,10,0:0:0:0:
229,357,122955,1,2,0:0:0:0:
215,357,123065,1,0,0:0:0:0:
201,357,123175,1,2,0:0:0:0:
110,357,123396,2,0,L|61:357,2,45,0|0|10,0:0|0:0|0:0,0:0:0:0:
110,266,123837,5,2,0:0:0:0:
110,176,124057,1,2,0:0:0:0:
110,85,124278,1,2,0:0:0:0:
199,86,124499,6,0,L|304:86,1,90,8|0,0:0|0:0,0:0:0:0:
324,149,124940,2,0,L|429:149,1,90,2|2,0:0|0:0,0:0:0:0:
486,149,125381,5,10,0:0:0:0:
486,220,125601,1,10,0:0:0:0:
413,220,125822,1,10,0:0:0:0:
413,292,126043,1,10,0:0:0:0:
341,292,126263,1,12,0:0:0:0:
